  0
SECTION
  2
HEADER
  9
$ACADVER
  1
AC1027
  9
$ACADMAINTVER
 70
    55
  9
$DWGCODEPAGE
  3
ANSI_936
  9
$REQUIREDVERSIONS
160
                 0
  9
$INSBASE
 10
0.0
 20
0.0
 30
0.0
  9
$EXTMIN
 10
-34607.30634793638
 20
16112.5105673383
 30
0.0
  9
$EXTMAX
 10
12594.98439278354
 20
36148.28396290183
 30
506.0
  9
$LIMMIN
 10
0.0
 20
0.0
  9
$LIMMAX
 10
420.0
 20
297.0
  9
$ORTHOMODE
 70
     0
  9
$REGENMODE
 70
     1
  9
$FILLMODE
 70
     1
  9
$QTEXTMODE
 70
     0
  9
$MIRRTEXT
 70
     0
  9
$LTSCALE
 40
1.0
  9
$ATTMODE
 70
     1
  9
$TEXTSIZE
 40
2.5
  9
$TRACEWID
 40
1.0
  9
$TEXTSTYLE
  7
样式 2
  9
$CLAYER
  8
标注
  9
$CELTYPE
  6
ByLayer
  9
$CECOLOR
 62
     0
  9
$CELTSCALE
 40
1.0
  9
$DISPSILH
 70
     0
  9
$DIMSCALE
 40
1.0
  9
$DIMASZ
 40
25.0
  9
$DIMEXO
 40
2.0
  9
$DIMDLI
 40
0.38
  9
$DIMRND
 40
0.0
  9
$DIMDLE
 40
0.0
  9
$DIMEXE
 40
0.18
  9
$DIMTP
 40
0.0
  9
$DIMTM
 40
0.0
  9
$DIMTXT
 40
25.0
  9
$DIMCEN
 40
0.0
  9
$DIMTSZ
 40
0.0
  9
$DIMTOL
 70
     0
  9
$DIMLIM
 70
     0
  9
$DIMTIH
 70
     0
  9
$DIMTOH
 70
     0
  9
$DIMSE1
 70
     0
  9
$DIMSE2
 70
     0
  9
$DIMTAD
 70
     0
  9
$DIMZIN
 70
     0
  9
$DIMBLK
  1

  9
$DIMASO
 70
     1
  9
$DIMSHO
 70
     1
  9
$DIMPOST
  1

  9
$DIMAPOST
  1

  9
$DIMALT
 70
     1
  9
$DIMALTD
 70
     2
  9
$DIMALTF
 40
0.03937
  9
$DIMLFAC
 40
1.0
  9
$DIMTOFL
 70
     0
  9
$DIMTVP
 40
0.0
  9
$DIMTIX
 70
     0
  9
$DIMSOXD
 70
     0
  9
$DIMSAH
 70
     0
  9
$DIMBLK1
  1

  9
$DIMBLK2
  1

  9
$DIMSTYLE
  2
Standard
  9
$DIMCLRD
 70
     2
  9
$DIMCLRE
 70
     2
  9
$DIMCLRT
 70
     2
  9
$DIMTFAC
 40
1.0
  9
$DIMGAP
 40
1.0
  9
$DIMJUST
 70
     0
  9
$DIMSD1
 70
     0
  9
$DIMSD2
 70
     0
  9
$DIMTOLJ
 70
     1
  9
$DIMTZIN
 70
     0
  9
$DIMALTZ
 70
     0
  9
$DIMALTTZ
 70
     0
  9
$DIMUPT
 70
     0
  9
$DIMDEC
 70
     2
  9
$DIMTDEC
 70
     2
  9
$DIMALTU
 70
     2
  9
$DIMALTTD
 70
     2
  9
$DIMTXSTY
  7
Standard
  9
$DIMAUNIT
 70
     0
  9
$DIMADEC
 70
     0
  9
$DIMALTRND
 40
0.0
  9
$DIMAZIN
 70
     0
  9
$DIMDSEP
 70
    46
  9
$DIMATFIT
 70
     3
  9
$DIMFRAC
 70
     0
  9
$DIMLDRBLK
  1

  9
$DIMLUNIT
 70
     2
  9
$DIMLWD
 70
    -1
  9
$DIMLWE
 70
    -1
  9
$DIMTMOVE
 70
     0
  9
$DIMFXL
 40
1.0
  9
$DIMFXLON
 70
     0
  9
$DIMJOGANG
 40
0.7853981633974483
  9
$DIMTFILL
 70
     0
  9
$DIMTFILLCLR
 70
     2
  9
$DIMARCSYM
 70
     0
  9
$DIMLTYPE
  6
ByLayer
  9
$DIMLTEX1
  6
ByLayer
  9
$DIMLTEX2
  6
ByLayer
  9
$DIMTXTDIRECTION
 70
     0
  9
$LUNITS
 70
     2
  9
$LUPREC
 70
     3
  9
$SKETCHINC
 40
1.0
  9
$FILLETRAD
 40
30.0
  9
$AUNITS
 70
     0
  9
$AUPREC
 70
     0
  9
$MENU
  1
.
  9
$ELEVATION
 40
0.0
  9
$PELEVATION
 40
0.0
  9
$THICKNESS
 40
0.0
  9
$LIMCHECK
 70
     0
  9
$CHAMFERA
 40
10.0
  9
$CHAMFERB
 40
10.0
  9
$CHAMFERC
 40
0.0
  9
$CHAMFERD
 40
0.0
  9
$SKPOLY
 70
     0
  9
$TDCREATE
 40
2455815.639909213
  9
$TDUCREATE
 40
2455815.306575880
  9
$TDUPDATE
 40
2457273.920492755
  9
$TDUUPDATE
 40
2457273.587159421
  9
$TDINDWG
 40
25.5239029514
  9
$TDUSRTIMER
 40
25.5239015046
  9
$USRTIMER
 70
     1
  9
$ANGBASE
 50
0.0
  9
$ANGDIR
 70
     0
  9
$PDMODE
 70
     0
  9
$PDSIZE
 40
0.0
  9
$PLINEWID
 40
0.0
  9
$SPLFRAME
 70
     0
  9
$SPLINETYPE
 70
     6
  9
$SPLINESEGS
 70
     8
  9
$HANDSEED
  5
114
  9
$SURFTAB1
 70
     6
  9
$SURFTAB2
 70
     6
  9
$SURFTYPE
 70
     6
  9
$SURFU
 70
     6
  9
$SURFV
 70
     6
  9
$UCSBASE
  2

  9
$UCSNAME
  2

  9
$UCSORG
 10
0.0
 20
0.0
 30
0.0
  9
$UCSXDIR
 10
1.0
 20
0.0
 30
0.0
  9
$UCSYDIR
 10
0.0
 20
1.0
 30
0.0
  9
$UCSORTHOREF
  2

  9
$UCSORTHOVIEW
 70
     0
  9
$UCSORGTOP
 10
0.0
 20
0.0
 30
0.0
  9
$UCSORGBOTTOM
 10
0.0
 20
0.0
 30
0.0
  9
$UCSORGLEFT
 10
0.0
 20
0.0
 30
0.0
  9
$UCSORGRIGHT
 10
0.0
 20
0.0
 30
0.0
  9
$UCSORGFRONT
 10
0.0
 20
0.0
 30
0.0
  9
$UCSORGBACK
 10
0.0
 20
0.0
 30
0.0
  9
$PUCSBASE
  2

  9
$PUCSNAME
  2

  9
$PUCSORG
 10
0.0
 20
0.0
 30
0.0
  9
$PUCSXDIR
 10
1.0
 20
0.0
 30
0.0
  9
$PUCSYDIR
 10
0.0
 20
1.0
 30
0.0
  9
$PUCSORTHOREF
  2

  9
$PUCSORTHOVIEW
 70
     0
  9
$PUCSORGTOP
 10
0.0
 20
0.0
 30
0.0
  9
$PUCSORGBOTTOM
 10
0.0
 20
0.0
 30
0.0
  9
$PUCSORGLEFT
 10
0.0
 20
0.0
 30
0.0
  9
$PUCSORGRIGHT
 10
0.0
 20
0.0
 30
0.0
  9
$PUCSORGFRONT
 10
0.0
 20
0.0
 30
0.0
  9
$PUCSORGBACK
 10
0.0
 20
0.0
 30
0.0
  9
$USERI1
 70
     0
  9
$USERI2
 70
     0
  9
$USERI3
 70
     0
  9
$USERI4
 70
     0
  9
$USERI5
 70
     0
  9
$USERR1
 40
0.0
  9
$USERR2
 40
0.0
  9
$USERR3
 40
0.0
  9
$USERR4
 40
0.0
  9
$USERR5
 40
2.5
  9
$WORLDVIEW
 70
     1
  9
$SHADEDGE
 70
     3
  9
$SHADEDIF
 70
    70
  9
$TILEMODE
 70
     1
  9
$MAXACTVP
 70
    64
  9
$PINSBASE
 10
0.0
 20
0.0
 30
0.0
  9
$PLIMCHECK
 70
     0
  9
$PEXTMIN
 10
25.69999999999999
 20
19.5
 30
0.0
  9
$PEXTMAX
 10
231.3
 20
175.5
 30
0.0
  9
$PLIMMIN
 10
-20.0
 20
-7.5
  9
$PLIMMAX
 10
277.0
 20
202.5
  9
$UNITMODE
 70
     0
  9
$VISRETAIN
 70
     1
  9
$PLINEGEN
 70
     0
  9
$PSLTSCALE
 70
     1
  9
$TREEDEPTH
 70
  3020
  9
$CMLSTYLE
  2
Standard
  9
$CMLJUST
 70
     0
  9
$CMLSCALE
 40
20.0
  9
$PROXYGRAPHICS
 70
     1
  9
$MEASUREMENT
 70
     1
  9
$CELWEIGHT
370
    -1
  9
$ENDCAPS
280
     0
  9
$JOINSTYLE
280
     0
  9
$LWDISPLAY
290
     0
  9
$INSUNITS
 70
     4
  9
$HYPERLINKBASE
  1

  9
$STYLESHEET
  1

  9
$XEDIT
290
     1
  9
$CEPSNTYPE
380
     0
  9
$PSTYLEMODE
290
     1
  9
$FINGERPRINTGUID
  2
{30B9DBD6-22E5-453B-B14B-0AB3BF3A0D6E}
  9
$VERSIONGUID
  2
{9A08C63C-182A-4312-B3FB-E5A96B468FA4}
  9
$EXTNAMES
290
     1
  9
$PSVPSCALE
 40
0.0
  9
$OLESTARTUP
290
     0
  9
$SORTENTS
280
   127
  9
$INDEXCTL
280
     0
  9
$HIDETEXT
280
     1
  9
$XCLIPFRAME
280
     0
  9
$HALOGAP
280
     0
  9
$OBSCOLOR
 70
   257
  9
$OBSLTYPE
280
     0
  9
$INTERSECTIONDISPLAY
280
     0
  9
$INTERSECTIONCOLOR
 70
   257
  9
$DIMASSOC
280
     2
  9
$PROJECTNAME
  1

  9
$CAMERADISPLAY
290
     0
  9
$LENSLENGTH
 40
50.0
  9
$CAMERAHEIGHT
 40
0.0
  9
$STEPSPERSEC
 40
2.0
  9
$STEPSIZE
 40
6.0
  9
$3DDWFPREC
 40
2.0
  9
$PSOLWIDTH
 40
5.0
  9
$PSOLHEIGHT
 40
80.0
  9
$LOFTANG1
 40
1.570796326794896
  9
$LOFTANG2
 40
1.570796326794896
  9
$LOFTMAG1
 40
0.0
  9
$LOFTMAG2
 40
0.0
  9
$LOFTPARAM
 70
     7
  9
$LOFTNORMALS
280
     1
  9
$LATITUDE
 40
37.795
  9
$LONGITUDE
 40
-122.394
  9
$NORTHDIRECTION
 40
0.0
  9
$TIMEZONE
 70
 -8000
  9
$LIGHTGLYPHDISPLAY
280
     1
  9
$TILEMODELIGHTSYNCH
280
     1
  9
$CMATERIAL
347
3A
  9
$SOLIDHIST
280
     1
  9
$SHOWHIST
280
     1
  9
$DWFFRAME
280
     2
  9
$DGNFRAME
280
     0
  9
$REALWORLDSCALE
290
     1
  9
$INTERFERECOLOR
 62
     1
  9
$INTERFEREOBJVS
345
48
  9
$INTERFEREVPVS
346
49
  9
$CSHADOW
280
     0
  9
$SHADOWPLANELOCATION
 40
0.0
  0
ENDSEC
  0
SECTION
  2
CLASSES
  0
CLASS
  1
ACDBDICTIONARYWDFLT
  2
AcDbDictionaryWithDefault
  3
ObjectDBX Classes
 90
        0
 91
        1
280
     0
281
     0
  0
CLASS
  1
DICTIONARYVAR
  2
AcDbDictionaryVar
  3
ObjectDBX Classes
 90
        0
 91
        9
280
     0
281
     0
  0
CLASS
  1
TABLESTYLE
  2
AcDbTableStyle
  3
ObjectDBX Classes
 90
     4095
 91
        1
280
     0
281
     0
  0
CLASS
  1
MATERIAL
  2
AcDbMaterial
  3
ObjectDBX Classes
 90
     1153
 91
        3
280
     0
281
     0
  0
CLASS
  1
VISUALSTYLE
  2
AcDbVisualStyle
  3
ObjectDBX Classes
 90
     4095
 91
        3
280
     0
281
     0
  0
CLASS
  1
ACAD_EVALUATION_GRAPH
  2
AcDbEvalGraph
  3
ObjectDBX Classes
 90
     1153
 91
        0
280
     0
281
     0
  0
CLASS
  1
BLOCKLOOKUPPARAMETER
  2
AcDbBlockLookupParameter
  3
ObjectDBX Classes
 90
     1153
 91
        0
280
     0
281
     0
  0
CLASS
  1
BLOCKLOOKUPGRIP
  2
AcDbBlockLookupGrip
  3
ObjectDBX Classes
 90
     1153
 91
        0
280
     0
281
     0
  0
CLASS
  1
BLOCKGRIPLOCATIONCOMPONENT
  2
AcDbBlockGripExpr
  3
ObjectDBX Classes
 90
     1153
 91
        0
280
     0
281
     0
  0
CLASS
  1
BLOCKLOOKUPACTION
  2
AcDbBlockLookupAction
  3
ObjectDBX Classes
 90
     1153
 91
        0
280
     0
281
     0
  0
CLASS
  1
BLOCKLINEARPARAMETER
  2
AcDbBlockLinearParameter
  3
ObjectDBX Classes
 90
     1153
 91
        0
280
     0
281
     0
  0
CLASS
  1
BLOCKSCALEACTION
  2
AcDbBlockScaleAction
  3
ObjectDBX Classes
 90
     1153
 91
        0
280
     0
281
     0
  0
CLASS
  1
ACDB_DYNAMICBLOCKPURGEPREVENTER_VERSION
  2
AcDbDynamicBlockPurgePreventer
  3
ObjectDBX Classes
 90
     1153
 91
        0
280
     0
281
     0
  0
CLASS
  1
ACDB_BLOCKREPRESENTATION_DATA
  2
AcDbBlockRepresentationData
  3
ObjectDBX Classes
 90
     1153
 91
        0
280
     0
281
     0
  0
CLASS
  1
BLOCKSTRETCHACTION
  2
AcDbBlockStretchAction
  3
ObjectDBX Classes
 90
     1153
 91
        0
280
     0
281
     0
  0
CLASS
  1
BLOCKMOVEACTION
  2
AcDbBlockMoveAction
  3
ObjectDBX Classes
 90
     1153
 91
        0
280
     0
281
     0
  0
CLASS
  1
BLOCKVISIBILITYPARAMETER
  2
AcDbBlockVisibilityParameter
  3
ObjectDBX Classes
 90
     1153
 91
        0
280
     0
281
     0
  0
CLASS
  1
SORTENTSTABLE
  2
AcDbSortentsTable
  3
ObjectDBX Classes
 90
        0
 91
        2
280
     0
281
     0
  0
CLASS
  1
BLOCKVISIBILITYGRIP
  2
AcDbBlockVisibilityGrip
  3
ObjectDBX Classes
 90
     1153
 91
        0
280
     0
281
     0
  0
CLASS
  1
BLOCKFLIPPARAMETER
  2
AcDbBlockFlipParameter
  3
ObjectDBX Classes
 90
     1153
 91
        0
280
     0
281
     0
  0
CLASS
  1
BLOCKFLIPGRIP
  2
AcDbBlockFlipGrip
  3
ObjectDBX Classes
 90
     1153
 91
        0
280
     0
281
     0
  0
CLASS
  1
BLOCKFLIPACTION
  2
AcDbBlockFlipAction
  3
ObjectDBX Classes
 90
     1153
 91
        0
280
     0
281
     0
  0
CLASS
  1
BLOCKALIGNMENTPARAMETER
  2
AcDbBlockAlignmentParameter
  3
ObjectDBX Classes
 90
     1153
 91
        0
280
     0
281
     0
  0
CLASS
  1
BLOCKALIGNMENTGRIP
  2
AcDbBlockAlignmentGrip
  3
ObjectDBX Classes
 90
     1153
 91
        0
280
     0
281
     0
  0
CLASS
  1
BLOCKPOINTPARAMETER
  2
AcDbBlockPointParameter
  3
ObjectDBX Classes
 90
     1153
 91
        0
280
     0
281
     0
  0
CLASS
  1
BLOCKLINEARGRIP
  2
AcDbBlockLinearGrip
  3
ObjectDBX Classes
 90
     1153
 91
        0
280
     0
281
     0
  0
CLASS
  1
BLOCKBASEPOINTPARAMETER
  2
AcDbBlockBasepointParameter
  3
ObjectDBX Classes
 90
     1153
 91
        0
280
     0
281
     0
  0
CLASS
  1
BLOCKARRAYACTION
  2
AcDbBlockArrayAction
  3
ObjectDBX Classes
 90
     1153
 91
        0
280
     0
281
     0
  0
CLASS
  1
BLOCKROTATIONPARAMETER
  2
AcDbBlockRotationParameter
  3
ObjectDBX Classes
 90
     1153
 91
        0
280
     0
281
     0
  0
CLASS
  1
BLOCKROTATIONGRIP
  2
AcDbBlockRotationGrip
  3
ObjectDBX Classes
 90
     1153
 91
        0
280
     0
281
     0
  0
CLASS
  1
BLOCKROTATEACTION
  2
AcDbBlockRotateAction
  3
ObjectDBX Classes
 90
     1153
 91
        0
280
     0
281
     0
  0
CLASS
  1
BLOCKPOLARPARAMETER
  2
AcDbBlockPolarParameter
  3
ObjectDBX Classes
 90
     1153
 91
        0
280
     0
281
     0
  0
CLASS
  1
BLOCKPOLARGRIP
  2
AcDbBlockPolarGrip
  3
ObjectDBX Classes
 90
     1153
 91
        0
280
     0
281
     0
  0
CLASS
  1
BLOCKPOLARSTRETCHACTION
  2
AcDbBlockPolarStretchAction
  3
ObjectDBX Classes
 90
     1153
 91
        0
280
     0
281
     0
  0
CLASS
  1
BLOCKXYPARAMETER
  2
AcDbBlockXYParameter
  3
ObjectDBX Classes
 90
     1153
 91
        0
280
     0
281
     0
  0
CLASS
  1
BLOCKXYGRIP
  2
AcDbBlockXYGrip
  3
ObjectDBX Classes
 90
     1153
 91
        0
280
     0
281
     0
  0
CLASS
  1
ACAD_TABLE
  2
AcDbTable
  3
ObjectDBX Classes
 90
     1025
 91
        0
280
     0
281
     1
  0
CLASS
  1
DIMASSOC
  2
AcDbDimAssoc
  3
"AcDbDimAssoc|Product Desc:     AcDim ARX App For Dimension|Company:          Autodesk, Inc.|WEB Address:      www.autodesk.com"
 90
        0
 91
        2
280
     0
281
     0
  0
CLASS
  1
LARGE_RADIAL_DIMENSION
  2
AcDbRadialDimensionLarge
  3
ObjectDBX Classes
 90
     1025
 91
        0
280
     0
281
     1
  0
CLASS
  1
SCALE
  2
AcDbScale
  3
ObjectDBX Classes
 90
     1153
 91
       33
280
     0
281
     0
  0
CLASS
  1
MLEADERSTYLE
  2
AcDbMLeaderStyle
  3
ACDB_MLEADERSTYLE_CLASS
 90
     4095
 91
        0
280
     0
281
     0
  0
CLASS
  1
VLO-VL
  2
vlo_VL
  3
VL|AutoLISP based application
 90
      129
 91
        0
280
     1
281
     0
  0
CLASS
  1
CELLSTYLEMAP
  2
AcDbCellStyleMap
  3
ObjectDBX Classes
 90
     1152
 91
        1
280
     0
281
     0
  0
CLASS
  1
RASTERVARIABLES
  2
AcDbRasterVariables
  3
ISM
 90
        0
 91
        0
280
     0
281
     0
  0
CLASS
  1
IMAGEDEF
  2
AcDbRasterImageDef
  3
ISM
 90
        0
 91
        0
280
     0
281
     0
  0
CLASS
  1
IMAGEDEF_REACTOR
  2
AcDbRasterImageDefReactor
  3
ISM
 90
        1
 91
        0
280
     0
281
     0
  0
CLASS
  1
IMAGE
  2
AcDbRasterImage
  3
ISM
 90
     2175
 91
        0
280
     0
281
     1
  0
CLASS
  1
ACDBSECTIONVIEWSTYLE
  2
AcDbSectionViewStyle
  3
ObjectDBX Classes
 90
     1025
 91
        0
280
     0
281
     0
  0
CLASS
  1
ACDBDETAILVIEWSTYLE
  2
AcDbDetailViewStyle
  3
ObjectDBX Classes
 90
     1025
 91
        0
280
     0
281
     0
  0
CLASS
  1
SOLID_BACKGROUND
  2
AcDbSolidBackground
  3
SCENEOE
 90
     4095
 91
        0
280
     1
281
     0
  0
CLASS
  1
NPOCOLLECTION
  2
AcDbImpNonPersistentObjectsCollection
  3
ObjectDBX Classes
 90
     1153
 91
        0
280
     0
281
     0
  0
ENDSEC
  0
SECTION
  2
TABLES
  0
TABLE
  2
VPORT
  5
27
102
{ACAD_XDICTIONARY
360
2C
102
}
330
0
100
AcDbSymbolTable
 70
     1
  0
VPORT
  5
28
330
27
100
AcDbSymbolTableRecord
100
AcDbViewportTableRecord
  2
*Active
 70
     0
 10
0.0
 20
0.0
 11
1.0
 21
1.0
 12
1750.926031616531
 22
28208.62309766078
 13
0.0
 23
0.0
 14
10.0
 24
10.0
 15
10.0
 25
10.0
 16
0.0
 26
0.0
 36
1.0
 17
0.0
 27
0.0
 37
0.0
 40
2871.320215518136
 41
2.720081135902637
 42
50.0
 43
0.0
 44
0.0
 50
0.0
 51
0.0
 71
     0
 72
  1000
 73
     1
 74
     3
 75
     0
 76
     1
 77
     0
 78
     0
281
     0
 65
     1
110
0.0
120
0.0
130
0.0
111
1.0
121
0.0
131
0.0
112
0.0
122
1.0
132
0.0
 79
     0
146
0.0
348
29
 60
     2
 61
     5
292
     1
282
     1
141
0.0
142
0.0
 63
   250
421
  3355443
1001
ACAD_NAV_VCDISPLAY
1070
     3
  0
ENDTAB
  0
TABLE
  2
LTYPE
  5
22
330
0
100
AcDbSymbolTable
 70
     2
  0
LTYPE
  5
23
330
22
100
AcDbSymbolTableRecord
100
AcDbLinetypeTableRecord
  2
ByBlock
 70
     0
  3

 72
    65
 73
     0
 40
0.0
  0
LTYPE
  5
24
330
22
100
AcDbSymbolTableRecord
100
AcDbLinetypeTableRecord
  2
ByLayer
 70
     0
  3

 72
    65
 73
     0
 40
0.0
  0
LTYPE
  5
E
330
22
100
AcDbSymbolTableRecord
100
AcDbLinetypeTableRecord
  2
Continuous
 70
     0
  3
Solid line
 72
    65
 73
     0
 40
0.0
  0
LTYPE
  5
DE
330
22
100
AcDbSymbolTableRecord
100
AcDbLinetypeTableRecord
  2
CENTER
 70
     0
  3
Center ____ _ ____ _ ____ _ ____ _ ____ _ ____
 72
    65
 73
     4
 40
50.8
 49
31.75
 74
     0
 49
-6.349999999999999
 74
     0
 49
6.349999999999999
 74
     0
 49
-6.349999999999999
 74
     0
  0
ENDTAB
  0
TABLE
  2
LAYER
  5
19
102
{ACAD_XDICTIONARY
360
1A
102
}
330
0
100
AcDbSymbolTable
 70
     3
  0
LAYER
  5
6
102
{ACAD_XDICTIONARY
360
7
102
}
330
19
100
AcDbSymbolTableRecord
100
AcDbLayerTableRecord
  2
0
 70
     0
 62
     7
  6
Continuous
370
    -3
390
9
347
C
348
0
  0
LAYER
  5
D8
330
19
100
AcDbSymbolTableRecord
100
AcDbLayerTableRecord
  2
Defpoints
 70
     0
 62
     8
  6
Continuous
290
     0
370
    -3
390
9
347
C
348
0
  0
LAYER
  5
40
102
{ACAD_XDICTIONARY
360
41
102
}
330
19
100
AcDbSymbolTableRecord
100
AcDbLayerTableRecord
  2
标注
 70
     0
 62
     1
  6
Continuous
370
    -3
390
9
347
C
348
0
1001
AcAecLayerStandard
1000

1000

  0
ENDTAB
  0
TABLE
  2
STYLE
  5
1F
330
0
100
AcDbSymbolTable
 70
     3
  0
STYLE
  5
20
330
1F
100
AcDbSymbolTableRecord
100
AcDbTextStyleTableRecord
  2
Standard
 70
     0
 40
0.0
 41
0.7800000000000001
 50
0.0
 71
     0
 42
2.5
  3
times.ttf
  4

1001
ACAD
1000
Times New Roman
1071
       18
  0
STYLE
  5
44
330
1F
100
AcDbSymbolTableRecord
100
AcDbTextStyleTableRecord
  2
样式 2
 70
     0
 40
0.0
 41
0.7800000000000001
 50
0.0
 71
     0
 42
2.5
  3
@Dotum.shx
  4

  0
STYLE
  5
F1
330
1F
100
AcDbSymbolTableRecord
100
AcDbTextStyleTableRecord
  2
ADESK2
 70
     0
 40
0.0
 41
1.0
 50
0.0
 71
     0
 42
0.065
  3

  4

1001
ACAD
1000
SimSun
1071
    34306
  0
ENDTAB
  0
TABLE
  2
VIEW
  5
25
330
0
100
AcDbSymbolTable
 70
     0
  0
ENDTAB
  0
TABLE
  2
UCS
  5
26
330
0
100
AcDbSymbolTable
 70
     0
  0
ENDTAB
  0
TABLE
  2
APPID
  5
2D
330
0
100
AcDbSymbolTable
 70
     7
  0
APPID
  5
1E
330
2D
100
AcDbSymbolTableRecord
100
AcDbRegAppTableRecord
  2
ACAD
 70
     0
  0
APPID
  5
13
330
2D
100
AcDbSymbolTableRecord
100
AcDbRegAppTableRecord
  2
ACAD_PSEXT
 70
     0
  0
APPID
  5
43
330
2D
100
AcDbSymbolTableRecord
100
AcDbRegAppTableRecord
  2
AcAecLayerStandard
 70
     0
  0
APPID
  5
30
330
2D
100
AcDbSymbolTableRecord
100
AcDbRegAppTableRecord
  2
ACAD_DSTYLE_DIMJAG
 70
     0
  0
APPID
  5
31
330
2D
100
AcDbSymbolTableRecord
100
AcDbRegAppTableRecord
  2
ACAD_DSTYLE_DIMTALN
 70
     0
  0
APPID
  5
104
330
2D
100
AcDbSymbolTableRecord
100
AcDbRegAppTableRecord
  2
ACAD_DSTYLE_DIMRADIAL_EXTENSION
 70
     0
  0
APPID
  5
2B
330
2D
100
AcDbSymbolTableRecord
100
AcDbRegAppTableRecord
  2
ACAD_NAV_VCDISPLAY
 70
     0
  0
ENDTAB
  0
TABLE
  2
DIMSTYLE
  5
2E
330
0
100
AcDbSymbolTable
 70
     6
100
AcDbDimStyleTable
 71
     5
340
2F
340
32
340
33
340
34
340
35
  0
DIMSTYLE
105
DC
102
{ACAD_REACTORS
330
CE
330
E1
102
}
330
2E
100
AcDbSymbolTableRecord
100
AcDbDimStyleTableRecord
  2
ISO-25
 70
     0
 41
22.0
 42
2.0
 43
3.75
 44
1.25
 73
     0
 77
     1
 78
     8
140
25.0
141
2.5
143
0.03937007874016
147
1.0
171
     3
176
   256
177
   256
178
   256
271
     2
272
     2
274
     3
283
     0
284
     8
340
20
345
24
346
24
347
24
371
    -1
372
    -1
  0
DIMSTYLE
105
2F
102
{ACAD_REACTORS
330
F9
102
}
330
2E
100
AcDbSymbolTableRecord
100
AcDbDimStyleTableRecord
  2
Standard
 70
     0
 41
25.0
 42
2.0
 70
     2
 73
     0
 74
     0
140
25.0
141
0.0
143
0.03937
147
1.0
170
     1
176
     2
177
     2
178
     2
271
     2
272
     2
340
20
345
24
346
24
347
24
371
    -1
372
    -1
1001
ACAD_DSTYLE_DIMJAG
1070
   388
1040
1.5
1001
ACAD_DSTYLE_DIMTALN
1070
   392
1070
     0
  0
DIMSTYLE
105
35
330
2E
100
AcDbSymbolTableRecord
100
AcDbDimStyleTableRecord
  2
ISO-60
 70
     0
 41
55.0
 42
5.0
 43
3.75
 44
1.25
 73
     0
 77
     1
 78
     8
140
60.0
141
2.5
143
0.03937007874016
147
5.0
171
     3
271
     0
272
     0
274
     3
283
     0
284
     8
340
20
  0
DIMSTYLE
105
34
330
2E
100
AcDbSymbolTableRecord
100
AcDbDimStyleTableRecord
  2
0-ISO-40
 70
     0
 41
35.0
 42
5.0
 43
3.75
 44
1.25
 73
     0
 77
     1
 78
     8
140
40.0
141
2.5
143
0.03937007874016
147
5.0
171
     3
172
     1
176
   256
177
   256
178
   256
271
     2
272
     2
274
     3
283
     0
284
     8
340
20
345
24
346
24
347
24
371
    -1
372
    -1
  0
DIMSTYLE
105
32
330
2E
100
AcDbSymbolTableRecord
100
AcDbDimStyleTableRecord
  2
ISO-35
 70
     0
 41
30.0
 42
8.0
 43
3.75
 44
1.25
 73
     0
 77
     1
 78
     8
140
35.0
141
2.5
143
0.03937007874016
147
3.0
171
     3
176
   256
177
   256
178
   256
271
     2
272
     2
274
     3
283
     0
284
     8
340
20
345
24
346
24
347
24
371
    -1
372
    -1
  0
DIMSTYLE
105
33
330
2E
100
AcDbSymbolTableRecord
100
AcDbDimStyleTableRecord
  2
ISO-45
 70
     0
 41
35.0
 42
2.0
 43
3.75
 44
2.0
 73
     0
 77
     1
 78
     8
140
45.0
141
2.5
143
0.03937007874016
147
3.0
171
     3
176
   256
177
   256
178
   256
271
     2
272
     2
274
     3
283
     0
284
     8
340
20
345
24
346
24
347
24
371
    -1
372
    -1
  0
ENDTAB
  0
TABLE
  2
BLOCK_RECORD
  5
1
330
0
100
AcDbSymbolTable
 70
     3
  0
BLOCK_RECORD
  5
2
102
{ACAD_XDICTIONARY
360
3
102
}
330
1
100
AcDbSymbolTableRecord
100
AcDbBlockTableRecord
  2
*Model_Space
340
10
 70
     0
280
     1
281
     0
  0
BLOCK_RECORD
  5
14
330
1
100
AcDbSymbolTableRecord
100
AcDbBlockTableRecord
  2
*Paper_Space
340
17
 70
     0
280
     1
281
     0
  0
BLOCK_RECORD
  5
CF
330
1
100
AcDbSymbolTableRecord
100
AcDbBlockTableRecord
  2
*D0
340
0
 70
     0
280
     1
281
     0
  0
BLOCK_RECORD
  5
E4
330
1
100
AcDbSymbolTableRecord
100
AcDbBlockTableRecord
  2
*D1
340
0
 70
     0
280
     1
281
     0
  0
BLOCK_RECORD
  5
FC
330
1
100
AcDbSymbolTableRecord
100
AcDbBlockTableRecord
  2
*D2
340
0
 70
     0
280
     1
281
     0
  0
ENDTAB
  0
ENDSEC
  0
SECTION
  2
BLOCKS
  0
BLOCK
  5
5
330
2
100
AcDbEntity
  8
0
100
AcDbBlockBegin
  2
*Model_Space
 70
     0
 10
0.0
 20
0.0
 30
0.0
  3
*Model_Space
  1

  0
ENDBLK
  5
F
330
2
100
AcDbEntity
  8
0
100
AcDbBlockEnd
  0
BLOCK
  5
15
330
14
100
AcDbEntity
 67
     1
  8
0
100
AcDbBlockBegin
  2
*Paper_Space
 70
     0
 10
0.0
 20
0.0
 30
0.0
  3
*Paper_Space
  1

  0
ENDBLK
  5
16
330
14
100
AcDbEntity
 67
     1
  8
0
100
AcDbBlockEnd
  0
BLOCK
  5
D0
330
CF
100
AcDbEntity
  8
0
 62
     0
370
   100
100
AcDbBlockBegin
  2
*D0
 70
     1
 10
0.0
 20
0.0
 30
0.0
  3
*D0
  1

  0
LINE
  5
D1
330
CF
100
AcDbEntity
  8
0
440
 16777216
100
AcDbLine
 10
1488.046800223863
 20
28751.45599877137
 30
0.0
 11
1458.619118283208
 21
28751.45599877137
 31
0.0
  0
LINE
  5
D2
330
CF
100
AcDbEntity
  8
0
440
 16777216
100
AcDbLine
 10
1716.272061242729
 20
28451.45599877137
 30
0.0
 11
1458.619118283208
 21
28451.45599877137
 31
0.0
  0
LINE
  5
D3
330
CF
100
AcDbEntity
  8
0
440
 16777216
100
AcDbLine
 10
1459.869118283208
 20
28729.45599877136
 30
0.0
 11
1459.869118283208
 21
28473.45599877137
 31
0.0
  0
SOLID
  5
D4
330
CF
100
AcDbEntity
  8
0
440
 16777216
370
   100
100
AcDbTrace
 10
1456.202451616541
 20
28729.45599877136
 30
0.0
 11
1463.535784949875
 21
28729.45599877136
 31
0.0
 12
1459.869118283208
 22
28751.45599877137
 32
0.0
 13
1459.869118283208
 23
28751.45599877137
 33
0.0
  0
SOLID
  5
D5
330
CF
100
AcDbEntity
  8
0
440
 16777216
370
   100
100
AcDbTrace
 10
1456.202451616541
 20
28473.45599877137
 30
0.0
 11
1463.535784949875
 21
28473.45599877137
 31
0.0
 12
1459.869118283208
 22
28451.45599877137
 32
0.0
 13
1459.869118283208
 23
28451.45599877137
 33
0.0
  0
MTEXT
  5
D6
330
CF
100
AcDbEntity
  8
0
440
 16777216
100
AcDbMText
 10
1446.152824123146
 20
28601.45599877137
 30
0.0
 40
25.0
 41
0.0
 46
0.0
 71
     5
 72
     1
  1
300
 11
0.0000000000000001
 21
1.0
 31
0.0
 73
     1
 44
1.0
  0
POINT
  5
D7
330
CF
100
AcDbEntity
  8
Defpoints
 62
     0
440
 16777216
370
   100
100
AcDbPoint
 10
1490.046800223863
 20
28751.45599877137
 30
0.0
  0
POINT
  5
D9
330
CF
100
AcDbEntity
  8
Defpoints
 62
     0
440
 16777216
370
   100
100
AcDbPoint
 10
1718.272061242729
 20
28451.45599877137
 30
0.0
  0
POINT
  5
DA
330
CF
100
AcDbEntity
  8
Defpoints
 62
     0
440
 16777216
370
   100
100
AcDbPoint
 10
1459.869118283208
 20
28451.45599877137
 30
0.0
  0
ENDBLK
  5
DB
330
CF
100
AcDbEntity
  8
0
 62
     0
370
   100
100
AcDbBlockEnd
  0
BLOCK
  5
E5
330
E4
100
AcDbEntity
  8
0
 62
     0
370
   100
100
AcDbBlockBegin
  2
*D1
 70
     1
 10
0.0
 20
0.0
 30
0.0
  3
*D1
  1

  0
LINE
  5
E6
330
E4
100
AcDbEntity
  8
0
440
 16777216
100
AcDbLine
 10
1855.248416569544
 20
29078.60585271902
 30
0.0
 11
1792.31799119103
 21
29078.60585271902
 31
0.0
  0
LINE
  5
E7
330
E4
100
AcDbEntity
  8
0
440
 16777216
100
AcDbLine
 10
1792.31799119103
 20
29078.60585271902
 30
0.0
 11
1773.147834186584
 21
29067.81210080298
 31
0.0
  0
MTEXT
  5
E8
330
E4
100
AcDbEntity
  8
0
440
 16777216
100
AcDbMText
 10
1824.283203880284
 20
29092.64658811916
 30
0.0
 40
25.0
 41
0.0
 46
0.0
 71
     5
 72
     1
  1
∅300
 73
     1
 44
1.0
  0
SOLID
  5
E9
330
E4
100
AcDbEntity
  8
0
440
 16777216
370
   100
100
AcDbTrace
 10
1771.348875533911
 20
29071.0071269704
 30
0.0
 11
1774.946792839257
 21
29064.61707463558
 31
0.0
 12
1753.977677182136
 22
29057.01834888695
 32
0.0
 13
1753.977677182136
 23
29057.01834888695
 33
0.0
  0
LINE
  5
EA
330
E4
100
AcDbEntity
  8
0
440
 16777216
100
AcDbLine
 10
1620.772061242731
 20
28983.42458582309
 30
0.0
 11
1625.772061242731
 21
28983.42458582309
 31
0.0
  0
LINE
  5
EB
330
E4
100
AcDbEntity
  8
0
440
 16777216
100
AcDbLine
 10
1623.272061242731
 20
28980.9245858231
 30
0.0
 11
1623.272061242731
 21
28985.92458582309
 31
0.0
  0
POINT
  5
EC
330
E4
100
AcDbEntity
  8
Defpoints
 62
     0
440
 16777216
370
   100
100
AcDbPoint
 10
1753.977677182136
 20
29057.01834888695
 30
0.0
  0
POINT
  5
ED
330
E4
100
AcDbEntity
  8
Defpoints
 62
     0
440
 16777216
370
   100
100
AcDbPoint
 10
1492.566445303324
 20
28909.83082275924
 30
0.0
  0
ENDBLK
  5
EE
330
E4
100
AcDbEntity
  8
0
 62
     0
370
   100
100
AcDbBlockEnd
  0
BLOCK
  5
FD
330
FC
100
AcDbEntity
  8
0
 62
     0
370
   100
100
AcDbBlockBegin
  2
*D2
 70
     1
 10
0.0
 20
0.0
 30
0.0
  3
*D2
  1

  0
LINE
  5
FE
330
FC
100
AcDbEntity
  8
标注
 62
     2
440
 16777216
100
AcDbLine
 10
1477.643186220139
 20
27663.3359143543
 30
0.0
 11
1452.650701171775
 21
27663.94885081702
 31
0.0
  0
MTEXT
  5
FF
330
FC
100
AcDbEntity
  8
标注
 62
     2
440
 16777216
370
   100
100
AcDbMText
 10
1582.888036343699
 20
27660.75480223084
 30
0.0
 40
25.0
 41
0.0
 46
0.0
 71
     5
 72
     1
  1
\A1;∅275.00 [∅10.83]
 11
0.9996994019345391
 21
-0.0245174585086751
 31
0.0
 73
     1
 44
1.0
  0
SOLID
  5
100
330
FC
100
AcDbEntity
  8
标注
 62
     2
440
 16777216
370
   100
100
AcDbTrace
 10
1452.752857248895
 20
27668.11426499175
 30
0.0
 11
1452.548545094655
 21
27659.7834366423
 31
0.0
 12
1427.658216123412
 22
27664.56178727974
 32
0.0
 13
1427.658216123412
 23
27664.56178727974
 33
0.0
  0
POINT
  5
101
330
FC
100
AcDbEntity
  8
Defpoints
 62
     0
440
 16777216
370
   100
100
AcDbPoint
 10
1427.658216123412
 20
27664.56178727974
 30
0.0
  0
POINT
  5
102
330
FC
100
AcDbEntity
  8
Defpoints
 62
     0
440
 16777216
370
   100
100
AcDbPoint
 10
1702.57555165541
 20
27657.81948618985
 30
0.0
  0
ENDBLK
  5
103
330
FC
100
AcDbEntity
  8
0
 62
     0
370
   100
100
AcDbBlockEnd
  0
ENDSEC
  0
SECTION
  2
ENTITIES
  0
CIRCLE
  5
6B
102
{ACAD_REACTORS
330
E3
102
}
330
2
100
AcDbEntity
  8
0
  6
ByBlock
370
    -2
100
AcDbCircle
 10
1623.272061242726
 20
28983.42458582309
 30
0.0
 40
150.0
  0
CIRCLE
  5
6C
330
2
100
AcDbEntity
  8
0
  6
ByBlock
370
    -2
100
AcDbCircle
 10
1623.272061242726
 20
28983.42458582309
 30
0.0
 40
135.0
  0
CIRCLE
  5
6D
330
2
100
AcDbEntity
  8
0
  6
ByBlock
370
    -2
100
AcDbCircle
 10
1623.272061242726
 20
28983.42458582309
 30
0.0
 40
115.0
  0
CIRCLE
  5
6E
330
2
100
AcDbEntity
  8
0
  6
ByBlock
370
    -2
100
AcDbCircle
 10
1623.272061242726
 20
28983.42458582309
 30
0.0
 40
100.0
  0
CIRCLE
  5
6F
330
2
100
AcDbEntity
  8
0
  6
ByBlock
370
    -2
100
AcDbCircle
 10
1623.272061242726
 20
28983.42458582309
 30
0.0
 40
70.0
  0
CIRCLE
  5
70
330
2
100
AcDbEntity
  8
0
  6
ByBlock
370
    -2
100
AcDbCircle
 10
1623.272061242726
 20
28983.42458582309
 30
0.0
 40
55.0
  0
HATCH
  5
71
330
2
100
AcDbEntity
  8
0
100
AcDbHatch
 10
0.0
 20
0.0
 30
0.0
210
0.0
220
0.0
230
1.0
  2
ANSI31
 70
     0
 71
     1
 91
        2
 92
        7
 72
     0
 73
     1
 93
        8
 10
1563.272061242736
 20
28751.45599877137
 10
1490.046800223863
 20
28751.45599877137
 10
1490.046800223863
 20
28750.45599877136
 10
1562.921280183374
 20
28750.45599877136
 10
1572.921280183371
 20
28742.45599877137
 10
1623.272061242726
 20
28742.45599877136
 10
1623.272061242726
 20
28743.45599877137
 10
1573.272061242729
 20
28743.45599877137
 97
        8
330
72
330
CD
330
AA
330
87
330
77
330
DD
330
76
330
86
 92
        7
 72
     0
 73
     1
 93
        8
 10
1683.622842302083
 20
28750.45599877136
 10
1756.497322261592
 20
28750.45599877136
 10
1756.497322261592
 20
28751.45599877137
 10
1683.272061242725
 20
28751.45599877137
 10
1673.272061242733
 20
28743.45599877137
 10
1623.272061242729
 20
28743.45599877137
 10
1623.272061242729
 20
28742.45599877137
 10
1673.622842302084
 20
28742.45599877136
 97
        8
330
AB
330
CC
330
74
330
84
330
76
330
DD
330
77
330
85
 75
     0
 76
     1
 52
90.0
 41
4.0
 77
     0
 78
     1
 53
135.0
 43
-17160.06532115704
 44
2366.435227202041
 45
-0.3535533905932738
 46
-0.3535533905932737
 79
     0
 47
0.2682560263990615
 98
        2
 10
1571.149859122353
 20
28744.66527369084
 10
1632.624665273634
 20
28743.09238878293
1001
ACAD
1010
0.0
1020
0.0
1030
0.0
  0
LINE
  5
72
102
{ACAD_REACTORS
330
71
102
}
330
2
100
AcDbEntity
  8
0
100
AcDbLine
 10
1490.046800223863
 20
28751.45599877137
 30
0.0
 11
1563.272061242729
 21
28751.45599877137
 31
0.0
  0
LINE
  5
73
330
2
100
AcDbEntity
  8
0
100
AcDbLine
 10
1490.046800223863
 20
28750.45599877136
 30
0.0
 11
1562.921280183371
 21
28750.45599877136
 31
0.0
  0
LINE
  5
74
102
{ACAD_REACTORS
330
71
102
}
330
2
100
AcDbEntity
  8
0
100
AcDbLine
 10
1563.272061242736
 20
28751.45599877137
 30
0.0
 11
1756.497322261595
 21
28751.45599877137
 31
0.0
  0
LINE
  5
75
330
2
100
AcDbEntity
  8
0
100
AcDbLine
 10
1683.622842302083
 20
28750.45599877136
 30
0.0
 11
1756.497322261588
 21
28750.45599877136
 31
0.0
  0
LINE
  5
76
102
{ACAD_REACTORS
330
71
102
}
330
2
100
AcDbEntity
  8
0
100
AcDbLine
 10
1573.272061242729
 20
28743.45599877137
 30
0.0
 11
1673.272061242729
 21
28743.45599877137
 31
0.0
  0
LINE
  5
77
102
{ACAD_REACTORS
330
71
102
}
330
2
100
AcDbEntity
  8
0
100
AcDbLine
 10
1572.921280183371
 20
28742.45599877136
 30
0.0
 11
1673.622842302087
 21
28742.45599877136
 31
0.0
  0
HATCH
  5
78
330
2
100
AcDbEntity
  8
0
100
AcDbHatch
 10
0.0
 20
0.0
 30
0.0
210
0.0
220
0.0
230
1.0
  2
ANSI31
 70
     0
 71
     1
 91
        2
 92
        7
 72
     1
 73
     1
 93
       14
 10
1504.272061242729
 20
28746.95599877137
 42
0.4142135623730951
 10
1501.772061242729
 20
28749.45599877137
 42
0.0
 10
1491.272061242733
 20
28749.45599877137
 42
0.0
 10
1488.272061242725
 20
28747.45599877137
 42
0.0
 10
1488.826761438955
 20
28746.62394847703
 42
0.0
 10
1491.57483688046
 20
28748.45599877136
 42
0.0
 10
1501.772061242725
 20
28748.45599877136
 42
-0.4142135623738054
 10
1503.272061242729
 20
28746.95599877137
 42
0.0
 10
1503.272061242729
 20
28476.45599877137
 42
0.4142135623730951
 10
1528.272061242729
 20
28451.45599877137
 42
0.0
 10
1623.272061242729
 20
28451.45599877137
 42
0.0
 10
1623.272061242729
 20
28452.45599877137
 42
0.0
 10
1528.272061242729
 20
28452.45599877137
 42
-0.4142135623730951
 10
1504.272061242729
 20
28476.45599877137
 42
0.0
 97
       14
330
B6
330
A8
330
AF
330
B3
330
B0
330
AD
330
B5
330
82
330
7D
330
79
330
DD
330
7A
330
7E
330
83
 92
        7
 72
     1
 73
     1
 93
       14
 10
1743.272061242729
 20
28746.95599877137
 42
-0.4142135623734502
 10
1744.772061242729
 20
28748.45599877136
 42
0.0
 10
1754.969285605002
 20
28748.45599877136
 42
0.0
 10
1757.717361046507
 20
28746.62394847703
 42
0.0
 10
1758.272061242729
 20
28747.45599877137
 42
0.0
 10
1755.272061242726
 20
28749.45599877137
 42
0.0
 10
1744.772061242729
 20
28749.45599877137
 42
0.4142135623733082
 10
1742.272061242729
 20
28746.95599877137
 42
0.0
 10
1742.272061242729
 20
28476.45599877137
 42
-0.4142135623730951
 10
1718.272061242729
 20
28452.45599877137
 42
0.0
 10
1623.272061242729
 20
28452.45599877137
 42
0.0
 10
1623.272061242729
 20
28451.45599877137
 42
0.0
 10
1718.272061242729
 20
28451.45599877137
 42
0.4142135623730951
 10
1743.272061242729
 20
28476.45599877137
 42
0.0
 97
       14
330
B7
330
AE
330
B2
330
B4
330
B1
330
A9
330
B8
330
81
330
7C
330
7A
330
DD
330
79
330
7B
330
80
 75
     0
 76
     1
 52
90.0
 41
4.0
 77
     0
 78
     1
 53
135.0
 43
-17160.06532115704
 44
2366.435227202041
 45
-0.3535533905932738
 46
-0.3535533905932737
 79
     0
 47
0.0783151521132603
 98
        2
 10
1503.966207440957
 20
28692.79476436608
 10
1742.896438514362
 20
28534.49905387511
1001
ACAD
1010
0.0
1020
0.0
1030
0.0
  0
LINE
  5
79
102
{ACAD_REACTORS
330
78
102
}
330
2
100
AcDbEntity
  8
0
100
AcDbLine
 10
1718.272061242729
 20
28451.45599877137
 30
0.0
 11
1528.272061242729
 21
28451.45599877137
 31
0.0
  0
LINE
  5
7A
102
{ACAD_REACTORS
330
78
102
}
330
2
100
AcDbEntity
  8
0
100
AcDbLine
 10
1718.272061242729
 20
28452.45599877137
 30
0.0
 11
1528.272061242729
 21
28452.45599877137
 31
0.0
  0
ARC
  5
7B
102
{ACAD_REACTORS
330
78
102
}
330
2
100
AcDbEntity
  8
0
100
AcDbCircle
 10
1718.272061242729
 20
28476.45599877137
 30
0.0
 40
25.0
100
AcDbArc
 50
270.0
 51
0.0
  0
ARC
  5
7C
102
{ACAD_REACTORS
330
78
102
}
330
2
100
AcDbEntity
  8
0
100
AcDbCircle
 10
1718.272061242729
 20
28476.45599877137
 30
0.0
 40
24.0
100
AcDbArc
 50
270.0
 51
0.0
  0
ARC
  5
7D
102
{ACAD_REACTORS
330
78
102
}
330
2
100
AcDbEntity
  8
0
100
AcDbCircle
 10
1528.272061242729
 20
28476.45599877137
 30
0.0
 40
25.0
100
AcDbArc
 50
180.0
 51
270.0
  0
ARC
  5
7E
102
{ACAD_REACTORS
330
78
102
}
330
2
100
AcDbEntity
  8
0
100
AcDbCircle
 10
1528.272061242729
 20
28476.45599877137
 30
0.0
 40
24.0
100
AcDbArc
 50
180.0
 51
270.0
  0
HATCH
  5
7F
330
2
100
AcDbEntity
  8
0
100
AcDbHatch
 10
0.0
 20
0.0
 30
0.0
210
0.0
220
0.0
230
1.0
  2
ANSI31
 70
     0
 71
     1
 91
        2
 92
        7
 72
     1
 73
     1
 93
       14
 10
1486.54680022387
 20
28766.62394847703
 42
0.4142135623730951
 10
1485.54680022387
 20
28767.62394847703
 42
0.0
 10
1476.54680022387
 20
28767.62394847703
 42
0.0
 10
1473.54680022387
 20
28764.62394847703
 42
0.0
 10
1474.253907005055
 20
28763.91684169585
 42
0.0
 10
1476.961013786244
 20
28766.62394847702
 42
0.0
 10
1484.54680022387
 20
28766.62394847703
 42
-0.4142135623730951
 10
1485.54680022387
 20
28765.62394847703
 42
0.0
 10
1485.546800223867
 20
28747.62394847703
 42
0.4142135623730951
 10
1487.546800223866
 20
28745.62394847703
 42
0.0
 10
1503.272061242729
 20
28745.62394847703
 42
0.0
 10
1503.272061242729
 20
28746.62394847703
 42
0.0
 10
1487.546800223866
 20
28746.62394847703
 42
-0.4142135623730951
 10
1486.546800223867
 20
28747.62394847703
 42
0.0
 97
       14
330
BD
330
98
330
9B
330
A1
330
9C
330
99
330
9A
330
BA
330
BC
330
96
330
82
330
94
330
BB
330
B9
 92
        7
 72
     1
 73
     1
 93
       14
 10
1769.997322261591
 20
28767.62394847703
 42
0.0
 10
1760.997322261588
 20
28767.62394847703
 42
0.4142135623730951
 10
1759.997322261588
 20
28766.62394847703
 42
0.0
 10
1759.997322261588
 20
28747.62394847703
 42
-0.4142135623730951
 10
1758.997322261588
 20
28746.62394847703
 42
0.0
 10
1743.272061242729
 20
28746.62394847703
 42
0.0
 10
1743.272061242729
 20
28745.62394847703
 42
0.0
 10
1758.997322261588
 20
28745.62394847703
 42
0.4142135623730951
 10
1760.997322261588
 20
28747.62394847703
 42
0.0
 10
1760.997322261588
 20
28765.62394847703
 42
-0.4142135623720295
 10
1761.997322261588
 20
28766.62394847702
 42
0.0
 10
1769.583108699215
 20
28766.62394847703
 42
0.0
 10
1772.290215480396
 20
28763.91684169584
 42
0.0
 10
1772.997322261577
 20
28764.62394847703
 42
0.0
 97
       14
330
9D
330
C3
330
BF
330
C1
330
95
330
80
330
97
330
C2
330
C0
330
BE
330
9E
330
A0
330
A2
330
9F
 75
     0
 76
     1
 52
0.0
 41
4.0
 77
     0
 78
     1
 53
45.0
 43
-17160.06532115704
 44
2366.435227202041
 45
-0.3535533905932737
 46
0.3535533905932738
 79
     0
 47
0.0866614542898374
 98
        2
 10
1486.215168908966
 20
28766.07261795788
 10
1767.103733306383
 20
28767.38006545815
1001
ACAD
1010
0.0
1020
0.0
1030
0.0
  0
LINE
  5
80
102
{ACAD_REACTORS
330
7F
330
78
102
}
330
2
100
AcDbEntity
  8
0
100
AcDbLine
 10
1743.272061242729
 20
28476.45599877137
 30
0.0
 11
1743.272061242729
 21
28746.95599877137
 31
0.0
  0
LINE
  5
81
102
{ACAD_REACTORS
330
78
102
}
330
2
100
AcDbEntity
  8
0
100
AcDbLine
 10
1742.272061242729
 20
28476.45599877137
 30
0.0
 11
1742.272061242729
 21
28746.95599877137
 31
0.0
  0
LINE
  5
82
102
{ACAD_REACTORS
330
7F
330
78
102
}
330
2
100
AcDbEntity
  8
0
100
AcDbLine
 10
1503.272061242729
 20
28476.45599877137
 30
0.0
 11
1503.272061242729
 21
28746.95599877137
 31
0.0
  0
LINE
  5
83
102
{ACAD_REACTORS
330
78
102
}
330
2
100
AcDbEntity
  8
0
100
AcDbLine
 10
1504.272061242729
 20
28476.45599877137
 30
0.0
 11
1504.272061242729
 21
28746.95599877137
 31
0.0
  0
LINE
  5
84
102
{ACAD_REACTORS
330
71
102
}
330
2
100
AcDbEntity
  8
0
100
AcDbLine
 10
1683.272061242729
 20
28751.45599877137
 30
0.0
 11
1673.272061242729
 21
28743.45599877137
 31
0.0
  0
LINE
  5
85
102
{ACAD_REACTORS
330
71
102
}
330
2
100
AcDbEntity
  8
0
100
AcDbLine
 10
1683.622842302083
 20
28750.45599877136
 30
0.0
 11
1673.622842302087
 21
28742.45599877136
 31
0.0
  0
LINE
  5
86
102
{ACAD_REACTORS
330
71
102
}
330
2
100
AcDbEntity
  8
0
100
AcDbLine
 10
1563.272061242729
 20
28751.45599877137
 30
0.0
 11
1573.272061242729
 21
28743.45599877137
 31
0.0
  0
LINE
  5
87
102
{ACAD_REACTORS
330
71
102
}
330
2
100
AcDbEntity
  8
0
100
AcDbLine
 10
1562.921280183371
 20
28750.45599877136
 30
0.0
 11
1572.921280183371
 21
28742.45599877136
 31
0.0
  0
CIRCLE
  5
88
330
2
100
AcDbEntity
  8
0
100
AcDbCircle
 10
1623.272061242726
 20
28983.42458582309
 30
0.0
 40
7.5
  0
CIRCLE
  5
89
330
2
100
AcDbEntity
  8
0
100
AcDbCircle
 10
1623.272061242726
 20
28983.42458582309
 30
0.0
 40
10.0
  0
LINE
  5
8A
330
2
100
AcDbEntity
  8
0
100
AcDbLine
 10
1616.058563501894
 20
28751.45599877137
 30
0.0
 11
1630.044445031126
 21
28751.45599877137
 31
0.0
  0
LINE
  5
8B
330
2
100
AcDbEntity
  8
0
100
AcDbLine
 10
1614.230136377148
 20
28748.45599877136
 30
0.0
 11
1632.265079627687
 21
28748.45599877136
 31
0.0
  0
ARC
  5
8C
330
2
100
AcDbEntity
  8
0
100
AcDbCircle
 10
1632.277601523092
 20
28749.45599877137
 30
0.0
 40
1.000000000000227
100
AcDbArc
 50
270.0
 51
59.0362434678304
  0
LINE
  5
8D
330
2
100
AcDbEntity
  8
0
100
AcDbLine
 10
1631.587932297407
 20
28751.0284775485
 30
0.0
 11
1632.779575383116
 21
28750.31349169708
 31
0.0
  0
ARC
  5
8E
330
2
100
AcDbEntity
  8
0
100
AcDbCircle
 10
1630.044445031126
 20
28748.45599877136
 30
0.0
 40
3.0
100
AcDbArc
 50
59.0362434678304
 51
90.0
  0
LINE
  5
8F
330
2
100
AcDbEntity
  8
0
100
AcDbLine
 10
1613.937243158332
 20
28750.57731911493
 30
0.0
 11
1613.562858016456
 21
28750.16310555255
 31
0.0
  0
ARC
  5
90
330
2
100
AcDbEntity
  8
0
100
AcDbCircle
 10
1616.058563501894
 20
28748.45599877136
 30
0.0
 40
3.0
100
AcDbArc
 50
90.0
 51
135.0000000000875
  0
ARC
  5
91
330
2
100
AcDbEntity
  8
0
100
AcDbCircle
 10
1614.269964797641
 20
28749.45599877137
 30
0.0
 40
1.00000000000041
100
AcDbArc
 50
135.0000000000875
 51
270.0
  0
LINE
  5
92
330
2
100
AcDbEntity
  8
0
100
AcDbLine
 10
1630.772061242729
 20
28748.45599877136
 30
0.0
 11
1630.772061242729
 21
28743.45599877137
 31
0.0
  0
LINE
  5
93
330
2
100
AcDbEntity
  8
0
100
AcDbLine
 10
1615.772061242729
 20
28743.45599877137
 30
0.0
 11
1615.772061242729
 21
28748.45599877136
 31
0.0
  0
LINE
  5
94
102
{ACAD_REACTORS
330
7F
102
}
330
2
100
AcDbEntity
  8
0
100
AcDbLine
 10
1487.546800223866
 20
28746.62394847703
 30
0.0
 11
1503.272061242729
 21
28746.62394847703
 31
0.0
  0
LINE
  5
95
102
{ACAD_REACTORS
330
7F
102
}
330
2
100
AcDbEntity
  8
0
100
AcDbLine
 10
1743.272061242729
 20
28746.62394847703
 30
0.0
 11
1758.997322261588
 21
28746.62394847703
 31
0.0
  0
LINE
  5
96
102
{ACAD_REACTORS
330
7F
102
}
330
2
100
AcDbEntity
  8
0
100
AcDbLine
 10
1487.546800223866
 20
28745.62394847703
 30
0.0
 11
1503.272061242729
 21
28745.62394847703
 31
0.0
  0
LINE
  5
97
102
{ACAD_REACTORS
330
7F
102
}
330
2
100
AcDbEntity
  8
0
100
AcDbLine
 10
1743.272061242729
 20
28745.62394847703
 30
0.0
 11
1758.997322261588
 21
28745.62394847703
 31
0.0
  0
LINE
  5
98
102
{ACAD_REACTORS
330
7F
102
}
330
2
100
AcDbEntity
  8
0
100
AcDbLine
 10
1759.997322261581
 20
28767.62394847703
 30
0.0
 11
1476.54680022387
 21
28767.62394847703
 31
0.0
  0
LINE
  5
99
102
{ACAD_REACTORS
330
7F
102
}
330
2
100
AcDbEntity
  8
0
100
AcDbLine
 10
1484.54680022387
 20
28766.62394847703
 30
0.0
 11
1476.961013786244
 21
28766.62394847703
 31
0.0
  0
ARC
  5
9A
102
{ACAD_REACTORS
330
7F
102
}
330
2
100
AcDbEntity
  8
0
100
AcDbCircle
 10
1484.54680022387
 20
28765.62394847703
 30
0.0
 40
1.0
100
AcDbArc
 50
0.0
 51
90.0
  0
LINE
  5
9B
102
{ACAD_REACTORS
330
7F
102
}
330
2
100
AcDbEntity
  8
0
100
AcDbLine
 10
1473.54680022387
 20
28764.62394847703
 30
0.0
 11
1476.54680022387
 21
28767.62394847703
 31
0.0
  0
LINE
  5
9C
102
{ACAD_REACTORS
330
7F
102
}
330
2
100
AcDbEntity
  8
0
100
AcDbLine
 10
1474.253907005055
 20
28763.91684169584
 30
0.0
 11
1476.961013786244
 21
28766.62394847703
 31
0.0
  0
LINE
  5
9D
102
{ACAD_REACTORS
330
7F
102
}
330
2
100
AcDbEntity
  8
0
100
AcDbLine
 10
1759.997322261581
 20
28767.62394847703
 30
0.0
 11
1769.997322261581
 21
28767.62394847703
 31
0.0
  0
LINE
  5
9E
102
{ACAD_REACTORS
330
7F
102
}
330
2
100
AcDbEntity
  8
0
100
AcDbLine
 10
1761.997322261588
 20
28766.62394847702
 30
0.0
 11
1769.583108699211
 21
28766.62394847703
 31
0.0
  0
LINE
  5
9F
102
{ACAD_REACTORS
330
7F
102
}
330
2
100
AcDbEntity
  8
0
100
AcDbLine
 10
1772.997322261581
 20
28764.62394847703
 30
0.0
 11
1769.997322261581
 21
28767.62394847703
 31
0.0
  0
LINE
  5
A0
102
{ACAD_REACTORS
330
7F
102
}
330
2
100
AcDbEntity
  8
0
100
AcDbLine
 10
1772.290215480396
 20
28763.91684169584
 30
0.0
 11
1769.583108699211
 21
28766.62394847703
 31
0.0
  0
LINE
  5
A1
102
{ACAD_REACTORS
330
7F
102
}
330
2
100
AcDbEntity
  8
0
100
AcDbLine
 10
1473.54680022387
 20
28764.62394847703
 30
0.0
 11
1474.253907005055
 21
28763.91684169584
 31
0.0
  0
LINE
  5
A2
102
{ACAD_REACTORS
330
7F
102
}
330
2
100
AcDbEntity
  8
0
100
AcDbLine
 10
1772.290215480396
 20
28763.91684169584
 30
0.0
 11
1772.997322261581
 21
28764.62394847703
 31
0.0
  0
HATCH
  5
A3
330
2
100
AcDbEntity
  8
0
100
AcDbHatch
 10
0.0
 20
0.0
 30
0.0
210
0.0
220
0.0
230
1.0
  2
ANSI31
 70
     0
 71
     0
 91
        4
 92
        7
 72
     0
 73
     1
 93
        8
 10
1759.997322261588
 20
28755.45599877137
 10
1758.997322261584
 20
28755.45599877136
 10
1756.497322261584
 20
28750.45599877136
 10
1734.682207360707
 20
28750.45599877136
 10
1719.682207360707
 20
28730.45599877137
 10
1720.482207360706
 20
28729.85599877137
 10
1735.182207360703
 20
28749.45599877137
 10
1756.997322261588
 20
28749.45599877137
 97
        0
 92
        7
 72
     0
 73
     1
 93
        4
 10
1623.272061242726
 20
28730.45599877137
 10
1526.861915124747
 20
28730.45599877136
 10
1526.061915124756
 20
28729.85599877136
 10
1623.272061242729
 20
28729.85599877136
 97
        0
 92
        7
 72
     0
 73
     1
 93
        4
 10
1719.6822073607
 20
28730.45599877136
 10
1623.272061242726
 20
28730.45599877137
 10
1623.272061242729
 20
28729.85599877137
 10
1720.482207360703
 20
28729.85599877137
 97
        0
 92
        7
 72
     0
 73
     1
 93
        8
 10
1511.861915124758
 20
28750.45599877137
 10
1490.046800223859
 20
28750.45599877137
 10
1487.546800223866
 20
28755.45599877137
 10
1486.546800223867
 20
28755.45599877137
 10
1489.546800223866
 20
28749.45599877137
 10
1511.361915124751
 20
28749.45599877137
 10
1526.061915124752
 20
28729.85599877136
 10
1526.861915124755
 20
28730.45599877137
 97
        0
 75
     0
 76
     1
 52
0.0
 41
4.0
 77
     0
 78
     1
 53
45.0
 43
-17160.06532115704
 44
2366.435227202041
 45
-0.3535533905932737
 46
0.3535533905932738
 79
     0
 47
0.0807938083815175
 98
        6
 10
1758.450004639049
 20
28753.60268983921
 10
1633.600705651115
 20
28730.11960933096
 10
1621.242816544603
 20
28730.58357174694
 10
1622.599600819441
 20
28730.28924191213
 10
1624.510172833739
 20
28730.25741317438
 10
1524.06539850547
 20
28732.92385834758
1001
ACAD
1010
0.0
1020
0.0
1030
0.0
  0
LINE
  5
A4
330
2
100
AcDbEntity
  8
0
100
AcDbLine
 10
1719.682207360704
 20
28730.45599877137
 30
0.0
 11
1734.682207360703
 21
28750.45599877136
 31
0.0
  0
LINE
  5
A5
330
2
100
AcDbEntity
  8
0
100
AcDbLine
 10
1720.482207360703
 20
28729.85599877137
 30
0.0
 11
1735.182207360703
 21
28749.45599877137
 31
0.0
  0
LINE
  5
A6
330
2
100
AcDbEntity
  8
0
100
AcDbLine
 10
1526.861915124747
 20
28730.45599877137
 30
0.0
 11
1511.861915124755
 21
28750.45599877136
 31
0.0
  0
LINE
  5
A7
330
2
100
AcDbEntity
  8
0
100
AcDbLine
 10
1526.061915124752
 20
28729.85599877136
 30
0.0
 11
1511.361915124751
 21
28749.45599877137
 31
0.0
  0
LINE
  5
A8
102
{ACAD_REACTORS
330
78
102
}
330
2
100
AcDbEntity
  8
0
100
AcDbLine
 10
1489.546800223866
 20
28749.45599877137
 30
0.0
 11
1511.361915124751
 21
28749.45599877137
 31
0.0
  0
LINE
  5
A9
102
{ACAD_REACTORS
330
78
102
}
330
2
100
AcDbEntity
  8
0
100
AcDbLine
 10
1735.182207360703
 20
28749.45599877137
 30
0.0
 11
1756.997322261588
 21
28749.45599877137
 31
0.0
  0
LINE
  5
AA
102
{ACAD_REACTORS
330
71
102
}
330
2
100
AcDbEntity
  8
0
100
AcDbLine
 10
1490.046800223863
 20
28750.45599877136
 30
0.0
 11
1562.921280183371
 21
28750.45599877136
 31
0.0
  0
LINE
  5
AB
102
{ACAD_REACTORS
330
71
102
}
330
2
100
AcDbEntity
  8
0
100
AcDbLine
 10
1683.622842302083
 20
28750.45599877136
 30
0.0
 11
1756.497322261592
 21
28750.45599877136
 31
0.0
  0
LINE
  5
AC
330
2
100
AcDbEntity
  8
0
100
AcDbLine
 10
1486.546800223867
 20
28755.45599877137
 30
0.0
 11
1759.997322261588
 21
28755.45599877137
 31
0.0
  0
LINE
  5
AD
102
{ACAD_REACTORS
330
78
102
}
330
2
100
AcDbEntity
  8
0
100
AcDbLine
 10
1491.574836880456
 20
28748.45599877136
 30
0.0
 11
1501.772061242725
 21
28748.45599877136
 31
0.0
  0
LINE
  5
AE
102
{ACAD_REACTORS
330
78
102
}
330
2
100
AcDbEntity
  8
0
100
AcDbLine
 10
1744.772061242729
 20
28748.45599877136
 30
0.0
 11
1754.969285604995
 21
28748.45599877136
 31
0.0
  0
LINE
  5
AF
102
{ACAD_REACTORS
330
78
102
}
330
2
100
AcDbEntity
  8
0
100
AcDbLine
 10
1488.272061242729
 20
28747.45599877137
 30
0.0
 11
1491.272061242729
 21
28749.45599877137
 31
0.0
  0
LINE
  5
B0
102
{ACAD_REACTORS
330
78
102
}
330
2
100
AcDbEntity
  8
0
100
AcDbLine
 10
1488.826761438955
 20
28746.62394847703
 30
0.0
 11
1491.574836880456
 21
28748.45599877136
 31
0.0
  0
LINE
  5
B1
102
{ACAD_REACTORS
330
78
102
}
330
2
100
AcDbEntity
  8
0
100
AcDbLine
 10
1758.272061242729
 20
28747.45599877137
 30
0.0
 11
1755.272061242729
 21
28749.45599877137
 31
0.0
  0
LINE
  5
B2
102
{ACAD_REACTORS
330
78
102
}
330
2
100
AcDbEntity
  8
0
100
AcDbLine
 10
1757.717361046503
 20
28746.62394847703
 30
0.0
 11
1754.969285604995
 21
28748.45599877136
 31
0.0
  0
LINE
  5
B3
102
{ACAD_REACTORS
330
78
102
}
330
2
100
AcDbEntity
  8
0
100
AcDbLine
 10
1488.272061242729
 20
28747.45599877137
 30
0.0
 11
1488.826761438955
 21
28746.62394847703
 31
0.0
  0
LINE
  5
B4
102
{ACAD_REACTORS
330
78
102
}
330
2
100
AcDbEntity
  8
0
100
AcDbLine
 10
1757.717361046503
 20
28746.62394847703
 30
0.0
 11
1758.272061242729
 21
28747.45599877137
 31
0.0
  0
ARC
  5
B5
102
{ACAD_REACTORS
330
78
102
}
330
2
100
AcDbEntity
  8
0
100
AcDbCircle
 10
1501.772061242725
 20
28746.95599877137
 30
0.0
 40
1.5
100
AcDbArc
 50
0.0
 51
90.0
  0
ARC
  5
B6
102
{ACAD_REACTORS
330
78
102
}
330
2
100
AcDbEntity
  8
0
100
AcDbCircle
 10
1501.772061242725
 20
28746.95599877137
 30
0.0
 40
2.5
100
AcDbArc
 50
0.0
 51
90.0
  0
ARC
  5
B7
102
{ACAD_REACTORS
330
78
102
}
330
2
100
AcDbEntity
  8
0
100
AcDbCircle
 10
1744.772061242729
 20
28746.95599877137
 30
0.0
 40
1.5
100
AcDbArc
 50
90.0
 51
179.9999999997915
  0
ARC
  5
B8
102
{ACAD_REACTORS
330
78
102
}
330
2
100
AcDbEntity
  8
0
100
AcDbCircle
 10
1744.772061242729
 20
28746.95599877137
 30
0.0
 40
2.5
100
AcDbArc
 50
90.0
 51
179.9999999997915
  0
LINE
  5
B9
102
{ACAD_REACTORS
330
7F
102
}
330
2
100
AcDbEntity
  8
0
100
AcDbLine
 10
1486.546800223867
 20
28747.62394847703
 30
0.0
 11
1486.54680022387
 21
28766.62394847703
 31
0.0
  0
LINE
  5
BA
102
{ACAD_REACTORS
330
7F
102
}
330
2
100
AcDbEntity
  8
0
100
AcDbLine
 10
1485.546800223867
 20
28747.62394847703
 30
0.0
 11
1485.54680022387
 21
28765.62394847703
 31
0.0
  0
ARC
  5
BB
102
{ACAD_REACTORS
330
7F
102
}
330
2
100
AcDbEntity
  8
0
100
AcDbCircle
 10
1487.546800223866
 20
28747.62394847703
 30
0.0
 40
1.0
100
AcDbArc
 50
180.0
 51
270.0
  0
ARC
  5
BC
102
{ACAD_REACTORS
330
7F
102
}
330
2
100
AcDbEntity
  8
0
100
AcDbCircle
 10
1487.546800223866
 20
28747.62394847703
 30
0.0
 40
2.0
100
AcDbArc
 50
180.0
 51
270.0
  0
ARC
  5
BD
102
{ACAD_REACTORS
330
7F
102
}
330
2
100
AcDbEntity
  8
0
100
AcDbCircle
 10
1485.54680022387
 20
28766.62394847703
 30
0.0
 40
1.0
100
AcDbArc
 50
0.0
 51
90.0
  0
ARC
  5
BE
102
{ACAD_REACTORS
330
7F
102
}
330
2
100
AcDbEntity
  8
0
100
AcDbCircle
 10
1761.997322261588
 20
28765.62394847703
 30
0.0
 40
1.0
100
AcDbArc
 50
90.0
 51
180.0
  0
LINE
  5
BF
102
{ACAD_REACTORS
330
7F
102
}
330
2
100
AcDbEntity
  8
0
100
AcDbLine
 10
1759.997322261588
 20
28747.62394847703
 30
0.0
 11
1759.997322261588
 21
28766.62394847703
 31
0.0
  0
LINE
  5
C0
102
{ACAD_REACTORS
330
7F
102
}
330
2
100
AcDbEntity
  8
0
100
AcDbLine
 10
1760.997322261588
 20
28747.62394847703
 30
0.0
 11
1760.997322261588
 21
28765.62394847703
 31
0.0
  0
ARC
  5
C1
102
{ACAD_REACTORS
330
7F
102
}
330
2
100
AcDbEntity
  8
0
100
AcDbCircle
 10
1758.997322261588
 20
28747.62394847703
 30
0.0
 40
1.0
100
AcDbArc
 50
270.0
 51
0.0
  0
ARC
  5
C2
102
{ACAD_REACTORS
330
7F
102
}
330
2
100
AcDbEntity
  8
0
100
AcDbCircle
 10
1758.997322261588
 20
28747.62394847703
 30
0.0
 40
2.0
100
AcDbArc
 50
270.0
 51
0.0
  0
ARC
  5
C3
102
{ACAD_REACTORS
330
7F
102
}
330
2
100
AcDbEntity
  8
0
100
AcDbCircle
 10
1760.997322261588
 20
28766.62394847703
 30
0.0
 40
1.0
100
AcDbArc
 50
90.0
 51
180.0
  0
LINE
  5
C4
330
2
100
AcDbEntity
  8
0
100
AcDbLine
 10
1490.046800223863
 20
28750.45599877136
 30
0.0
 11
1487.546800223866
 21
28755.45599877137
 31
0.0
  0
LINE
  5
C5
330
2
100
AcDbEntity
  8
0
100
AcDbLine
 10
1486.546800223867
 20
28755.45599877137
 30
0.0
 11
1489.546800223866
 21
28749.45599877137
 31
0.0
  0
LINE
  5
C6
330
2
100
AcDbEntity
  8
0
100
AcDbLine
 10
1526.861915124751
 20
28730.45599877137
 30
0.0
 11
1526.061915124752
 21
28729.85599877136
 31
0.0
  0
LINE
  5
C7
330
2
100
AcDbEntity
  8
0
100
AcDbLine
 10
1719.682207360704
 20
28730.45599877137
 30
0.0
 11
1720.482207360706
 21
28729.85599877137
 31
0.0
  0
LINE
  5
C8
330
2
100
AcDbEntity
  8
0
100
AcDbLine
 10
1756.497322261588
 20
28750.45599877136
 30
0.0
 11
1758.997322261588
 21
28755.45599877137
 31
0.0
  0
LINE
  5
C9
330
2
100
AcDbEntity
  8
0
100
AcDbLine
 10
1759.997322261588
 20
28755.45599877137
 30
0.0
 11
1756.997322261588
 21
28749.45599877137
 31
0.0
  0
LINE
  5
CA
330
2
100
AcDbEntity
  8
0
100
AcDbLine
 10
1526.061915124752
 20
28729.85599877136
 30
0.0
 11
1720.482207360703
 21
28729.85599877137
 31
0.0
  0
LINE
  5
CB
330
2
100
AcDbEntity
  8
0
100
AcDbLine
 10
1719.682207360704
 20
28730.45599877137
 30
0.0
 11
1526.861915124747
 21
28730.45599877137
 31
0.0
  0
LINE
  5
CC
102
{ACAD_REACTORS
330
71
102
}
330
2
100
AcDbEntity
  8
0
100
AcDbLine
 10
1756.497322261592
 20
28750.45599877136
 30
0.0
 11
1756.497322261592
 21
28751.45599877137
 31
0.0
  0
LINE
  5
CD
102
{ACAD_REACTORS
330
71
102
}
330
2
100
AcDbEntity
  8
0
100
AcDbLine
 10
1490.046800223863
 20
28750.45599877136
 30
0.0
 11
1490.046800223863
 21
28751.45599877137
 31
0.0
  0
DIMENSION
  5
CE
330
2
100
AcDbEntity
  8
0
100
AcDbDimension
280
     0
  2
*D0
 10
1459.869118283208
 20
28451.45599877137
 30
0.0
 11
1446.152824123146
 21
28601.45599877137
 31
0.0
 71
     5
 42
300.0
 73
     0
 74
     0
 75
     0
  3
ISO-25
100
AcDbAlignedDimension
 13
1490.046800223863
 23
28751.45599877137
 33
0.0
 14
1718.272061242729
 24
28451.45599877137
 34
0.0
 50
90.0
100
AcDbRotatedDimension
  0
LINE
  5
DD
102
{ACAD_REACTORS
330
78
330
71
102
}
330
2
100
AcDbEntity
  8
0
  6
CENTER
 62
     1
 48
152.4
100
AcDbLine
 10
1623.272061242729
 20
28435.45599877137
 30
0.0
 11
1623.272061242726
 21
28783.62394847703
 31
0.0
  0
LINE
  5
DF
330
2
100
AcDbEntity
  8
0
  6
CENTER
 62
     1
 48
152.4
100
AcDbLine
 10
1458.272061242725
 20
28983.42458582309
 30
0.0
 11
1788.272061242725
 21
28983.42458582309
 31
0.0
  0
LINE
  5
E0
330
2
100
AcDbEntity
  8
0
  6
CENTER
 62
     1
 48
152.4
100
AcDbLine
 10
1623.272061242726
 20
28818.4245858231
 30
0.0
 11
1623.272061242726
 21
29148.4245858231
 31
0.0
  0
DIMENSION
  5
E1
102
{ACAD_XDICTIONARY
360
E2
102
}
102
{ACAD_REACTORS
330
E3
102
}
330
2
100
AcDbEntity
  8
0
100
AcDbDimension
280
     0
  2
*D1
 10
1492.566445303324
 20
28909.83082275924
 30
0.0
 11
1824.283203880284
 21
29092.64658811916
 31
0.0
 70
     3
 71
     5
 42
299.9999999999927
 73
     0
 74
     0
 75
     0
  3
ISO-25
100
AcDbDiametricDimension
 15
1753.977677182136
 25
29057.01834888695
 35
0.0
 40
0.0
1001
ACAD
1000
DSTYLE
1002
{
1070
   288
1070
     1
1002
}
  0
LEADER
  5
EF
330
2
100
AcDbEntity
  8
0
100
AcDbLeader
  3
ISO-25
 76
     3
 10
1655.212907231326
 20
28743.45599877137
 30
0.0
 10
1787.368781358062
 20
28802.78059699329
 30
0.0
 10
1827.594296824202
 20
28802.78059699329
 30
0.0
1001
ACAD
1000
DSTYLE
1002
{
1070
    41
1040
12.0
1070
   147
1040
5.0
1070
    77
1070
     0
1002
}
  0
MTEXT
  5
F0
330
2
100
AcDbEntity
  8
0
100
AcDbMText
 10
1803.225796150509
 20
28828.06033459839
 30
0.0
 40
22.0
 41
39.74158983930829
 46
0.0
 71
     1
 72
     5
  1
1
  7
ADESK2
 73
     1
 44
1.0
  0
LEADER
  5
F2
330
2
100
AcDbEntity
  8
0
100
AcDbLeader
  3
ISO-25
 76
     3
 10
1760.997322261588
 20
28757.22561886507
 30
0.0
 10
1893.153196388324
 20
28816.550217087
 30
0.0
 10
1933.378711854464
 20
28816.550217087
 30
0.0
1001
ACAD
1000
DSTYLE
1002
{
1070
    41
1040
12.0
1070
   147
1040
5.0
1070
    77
1070
     0
1002
}
  0
MTEXT
  5
F3
330
2
100
AcDbEntity
  8
0
100
AcDbMText
 10
1909.010211180772
 20
28841.8299546921
 30
0.0
 40
22.0
 41
39.74158983930829
 46
0.0
 71
     1
 72
     5
  1
3
  7
ADESK2
 73
     1
 44
1.0
  0
LEADER
  5
F4
330
2
100
AcDbEntity
  8
0
100
AcDbLeader
  3
ISO-25
 76
     3
 10
1520.309776370828
 20
28739.1921837766
 30
0.0
 10
1652.465650497564
 20
28798.51678199852
 30
0.0
 10
1692.691165963704
 20
28798.51678199852
 30
0.0
1001
ACAD
1000
DSTYLE
1002
{
1070
    41
1040
12.0
1070
   147
1040
5.0
1070
    77
1070
     0
1002
}
  0
MTEXT
  5
F5
330
2
100
AcDbEntity
  8
0
100
AcDbMText
 10
1668.322665290012
 20
28823.79651960362
 30
0.0
 40
22.0
 41
39.74158983930829
 46
0.0
 71
     1
 72
     5
  1
2
  7
ADESK2
 73
     1
 44
1.0
  0
LEADER
  5
F6
330
2
100
AcDbEntity
  8
0
100
AcDbLeader
  3
ISO-25
 76
     3
 10
1703.635528070895
 20
28617.25496433763
 30
0.0
 10
1835.791402197632
 20
28676.57956255956
 30
0.0
 10
1876.016917663772
 20
28676.57956255956
 30
0.0
1001
ACAD
1000
DSTYLE
1002
{
1070
    41
1040
12.0
1070
   147
1040
5.0
1070
    77
1070
     0
1002
}
  0
MTEXT
  5
F7
330
2
100
AcDbEntity
  8
0
100
AcDbMText
 10
1851.648416990079
 20
28701.85930016466
 30
0.0
 40
22.0
 41
39.74158983930829
 46
0.0
 71
     1
 72
     5
  1
4
  7
ADESK2
 73
     1
 44
1.0
  0
CIRCLE
  5
F8
102
{ACAD_REACTORS
330
FB
102
}
330
2
100
AcDbEntity
  8
0
100
AcDbCircle
 10
1565.116883889411
 20
27661.1906367348
 30
0.0
 40
137.5
  0
DIMENSION
  5
F9
102
{ACAD_XDICTIONARY
360
FA
102
}
102
{ACAD_REACTORS
330
FB
102
}
330
2
100
AcDbEntity
  8
标注
 62
     0
370
   100
100
AcDbDimension
280
     0
  2
*D2
 10
1702.57555165541
 20
27657.81948618985
 30
0.0
 11
1582.888036343699
 21
27660.75480223084
 31
0.0
 70
   131
 71
     5
 42
274.9999999999996
 73
     0
 74
     0
 75
     0
  3
Standard
100
AcDbDiametricDimension
 15
1427.658216123412
 25
27664.56178727974
 35
0.0
 40
0.0
1001
ACAD
1000
DSTYLE
1002
{
1070
   288
1070
     1
1002
}
1001
ACAD_DSTYLE_DIMRADIAL_EXTENSION
1070
   387
1070
     1
1070
   388
1040
0.0
1070
   390
1040
0.0
  0
ENDSEC
  0
SECTION
  2
OBJECTS
  0
DICTIONARY
  5
B
330
0
100
AcDbDictionary
281
     1
  3
ACAD_COLOR
350
3C
  3
ACAD_GROUP
350
37
  3
ACAD_LAYOUT
350
11
  3
ACAD_MATERIAL
350
D
  3
ACAD_MLEADERSTYLE
350
3F
  3
ACAD_MLINESTYLE
350
38
  3
ACAD_PLOTSETTINGS
350
39
  3
ACAD_PLOTSTYLENAME
350
A
  3
ACAD_SCALELIST
350
3D
  3
ACAD_TABLESTYLE
350
3E
  3
ACAD_VISUALSTYLE
350
2A
  3
ACDB_RECOMPOSE_DATA
350
113
  3
AcDbVariableDictionary
350
108
  0
DICTIONARY
  5
2C
330
27
100
AcDbDictionary
280
     1
281
     1
  0
DICTIONARY
  5
1A
330
19
100
AcDbDictionary
280
     1
281
     1
  3
ACAD_LAYERFILTERS
360
1B
  3
ACAD_LAYERSTATES
360
1C
  3
ACLYDICTIONARY
360
1D
  0
DICTIONARY
  5
7
330
6
100
AcDbDictionary
280
     1
281
     1
  3
ADSK_XREC_LAYER_RECONCILED
360
8
  0
DICTIONARY
  5
41
330
40
100
AcDbDictionary
280
     1
281
     1
  3
ADSK_XREC_LAYER_RECONCILED
360
42
  0
DICTIONARY
  5
3
330
2
100
AcDbDictionary
280
     1
281
     1
  3
ACAD_SORTENTS
360
105
  0
DICTIONARY
  5
E2
330
E1
100
AcDbDictionary
280
     1
281
     1
  3
ACAD_DIMASSOC
360
E3
  0
DICTIONARY
  5
FA
330
F9
100
AcDbDictionary
280
     1
281
     1
  3
ACAD_DIMASSOC
360
FB
  0
DICTIONARY
  5
3C
102
{ACAD_REACTORS
330
B
102
}
330
B
100
AcDbDictionary
281
     1
  0
DICTIONARY
  5
37
102
{ACAD_REACTORS
330
B
102
}
330
B
100
AcDbDictionary
281
     1
  0
DICTIONARY
  5
11
102
{ACAD_REACTORS
330
B
102
}
330
B
100
AcDbDictionary
281
     1
  3
Model
350
10
  3
布局1
350
17
  0
DICTIONARY
  5
D
102
{ACAD_REACTORS
330
B
102
}
330
B
100
AcDbDictionary
281
     1
  3
ByBlock
350
3B
  3
ByLayer
350
3A
  3
Global
350
C
  0
DICTIONARY
  5
3F
102
{ACAD_REACTORS
330
B
102
}
330
B
100
AcDbDictionary
281
     1
  0
DICTIONARY
  5
38
102
{ACAD_REACTORS
330
B
102
}
330
B
100
AcDbDictionary
281
     1
  3
Standard
350
45
  0
DICTIONARY
  5
39
102
{ACAD_REACTORS
330
B
102
}
330
B
100
AcDbDictionary
281
     1
  0
ACDBDICTIONARYWDFLT
  5
A
102
{ACAD_REACTORS
330
B
102
}
330
B
100
AcDbDictionary
281
     1
  3
Normal
350
9
100
AcDbDictionaryWithDefault
340
9
  0
DICTIONARY
  5
3D
102
{ACAD_REACTORS
330
B
102
}
330
B
100
AcDbDictionary
281
     1
  3
A0
350
4A
  3
A1
350
4B
  3
A2
350
4C
  3
A3
350
4D
  3
A4
350
4E
  3
A5
350
4F
  3
A6
350
50
  3
A7
350
51
  3
A8
350
52
  3
A9
350
53
  3
B0
350
54
  3
B1
350
55
  3
B2
350
56
  3
B3
350
57
  3
B4
350
58
  3
B5
350
59
  3
B6
350
5A
  3
B7
350
5B
  3
B8
350
5C
  3
B9
350
5D
  3
C0
350
5E
  3
C1
350
5F
  3
C2
350
60
  3
C3
350
61
  3
C4
350
62
  3
C5
350
63
  3
C6
350
64
  3
C7
350
65
  3
C8
350
66
  3
C9
350
67
  3
D0
350
68
  3
D1
350
69
  3
D2
350
6A
  0
DICTIONARY
  5
3E
102
{ACAD_REACTORS
330
B
102
}
330
B
100
AcDbDictionary
281
     1
  3
Standard
350
46
  0
DICTIONARY
  5
2A
102
{ACAD_REACTORS
330
B
102
}
330
B
100
AcDbDictionary
281
     1
  3
2dWireframe
350
29
  3
3dWireframe
350
49
  3
Realistic
350
48
  0
XRECORD
  5
113
102
{ACAD_REACTORS
330
B
102
}
330
B
100
AcDbXrecord
280
     1
 90
        1
330
46
  0
DICTIONARY
  5
108
102
{ACAD_REACTORS
330
B
102
}
330
B
100
AcDbDictionary
281
     1
  3
CANNOSCALE
350
10E
  3
CMLEADERSTYLE
350
10A
  3
CTABLESTYLE
350
109
  3
CVIEWDETAILSTYLE
350
10B
  3
CVIEWSECTIONSTYLE
350
10C
  3
LAYEREVAL
350
110
  3
LAYERNOTIFY
350
111
  3
LIGHTINGUNITS
350
10F
  3
MSLTSCALE
350
10D
  0
DICTIONARY
  5
1B
102
{ACAD_REACTORS
330
1A
102
}
330
1A
100
AcDbDictionary
281
     1
  0
DICTIONARY
  5
1C
102
{ACAD_REACTORS
330
1A
102
}
330
1A
100
AcDbDictionary
281
     1
  0
DICTIONARY
  5
1D
102
{ACAD_REACTORS
330
1A
102
}
330
1A
100
AcDbDictionary
281
     1
1001
ACAD
1000
<All
  0
XRECORD
  5
8
102
{ACAD_REACTORS
330
7
102
}
330
7
100
AcDbXrecord
280
     1
290
     1
  0
XRECORD
  5
42
102
{ACAD_REACTORS
330
41
102
}
330
41
100
AcDbXrecord
280
     1
290
     1
  0
SORTENTSTABLE
  5
105
102
{ACAD_REACTORS
330
3
102
}
330
3
100
AcDbSortentsTable
330
2
  0
DIMASSOC
  5
E3
102
{ACAD_REACTORS
330
E2
102
}
330
E2
100
AcDbDimAssoc
330
E1
 90
        2
 70
     0
 71
     0
  1
AcDbOsnapPointRef
 72
     3
331
6B
 73
     2
 91
        0
 40
0.0
 10
0.0
 20
0.0
 30
0.0
 75
     0
  0
DIMASSOC
  5
FB
102
{ACAD_REACTORS
330
FA
102
}
330
FA
100
AcDbDimAssoc
330
F9
 90
        2
 70
     0
 71
     0
  1
AcDbOsnapPointRef
 72
     3
331
F8
 73
     2
 91
        0
 40
0.0
 10
0.0
 20
0.0
 30
0.0
 75
     0
  0
LAYOUT
  5
10
102
{ACAD_XDICTIONARY
360
12
102
}
102
{ACAD_REACTORS
330
11
102
}
330
11
100
AcDbPlotSettings
  1

  2
none_device
  4
ISO_A4_(210.00_x_297.00_MM)
  6

 40
7.5
 41
20.0
 42
7.5
 43
20.0
 44
210.0
 45
297.0
 46
11.54999923706054
 47
-13.65000009536743
 48
0.0
 49
0.0
140
0.0
141
0.0
142
1.0
143
8.704084754739808
 70
 11952
 72
     1
 73
     0
 74
     0
  7

 75
     0
147
0.1148885871608098
 76
     0
 77
     2
 78
   300
148
0.0
149
0.0
100
AcDbLayout
  1
Model
 70
     1
 71
     0
 10
0.0
 20
0.0
 11
12.0
 21
9.0
 12
0.0
 22
0.0
 32
0.0
 14
0.0
 24
0.0
 34
0.0
 15
0.0
 25
0.0
 35
0.0
146
0.0
 13
0.0
 23
0.0
 33
0.0
 16
1.0
 26
0.0
 36
0.0
 17
0.0
 27
1.0
 37
0.0
 76
     0
330
2
331
28
1001
ACAD_PSEXT
1000
None
1000
None
1000
Not applicable
1000
The layout will not be plotted unless a new plotter configuration name is selected.
1070
     0
  0
LAYOUT
  5
17
102
{ACAD_XDICTIONARY
360
18
102
}
102
{ACAD_REACTORS
330
11
102
}
330
11
100
AcDbPlotSettings
  1

  2
none_device
  4
ISO_A4_(210.00_x_297.00_MM)
  6

 40
7.5
 41
20.0
 42
7.5
 43
20.0
 44
210.0
 45
297.0
 46
0.0
 47
0.0
 48
0.0
 49
0.0
140
0.0
141
0.0
142
1.0
143
1.0
 70
   688
 72
     1
 73
     1
 74
     5
  7

 75
    16
147
1.0
 76
     0
 77
     2
 78
   300
148
0.0
149
0.0
100
AcDbLayout
  1
布局1
 70
     1
 71
     1
 10
-20.0
 20
-7.5
 11
277.0
 21
202.5
 12
0.0
 22
0.0
 32
0.0
 14
25.69999999999999
 24
19.5
 34
0.0
 15
231.3
 25
175.5
 35
0.0
146
0.0
 13
0.0
 23
0.0
 33
0.0
 16
1.0
 26
0.0
 36
0.0
 17
0.0
 27
1.0
 37
0.0
 76
     0
330
14
1001
ACAD_PSEXT
1000
无
1000
无
1000
不可用
1000
在选择新的绘图仪配置名称之前，不能打印该布局。
1070
     0
  0
MATERIAL
  5
3B
102
{ACAD_REACTORS
330
D
102
}
330
D
100
AcDbMaterial
  1
ByBlock
 73
     1
 78
     1
172
     1
176
     1
270
     1
274
     1
 94
       63
  0
MATERIAL
  5
3A
102
{ACAD_REACTORS
330
D
102
}
330
D
100
AcDbMaterial
  1
ByLayer
 73
     1
 78
     1
172
     1
176
     1
270
     1
274
     1
 94
       63
  0
MATERIAL
  5
C
102
{ACAD_REACTORS
330
D
102
}
330
D
100
AcDbMaterial
  1
Global
 73
     1
 78
     1
172
     1
176
     1
270
     1
274
     1
 94
       63
  0
MLINESTYLE
  5
45
102
{ACAD_REACTORS
330
38
102
}
330
38
100
AcDbMlineStyle
  2
STANDARD
 70
     0
  3

 62
   256
 51
90.0
 52
90.0
 71
     2
 49
0.5
 62
   256
  6
BYLAYER
 49
-0.5
 62
   256
  6
BYLAYER
  0
ACDBPLACEHOLDER
  5
9
102
{ACAD_REACTORS
330
A
102
}
330
A
  0
SCALE
  5
4A
102
{ACAD_REACTORS
330
3D
102
}
330
3D
100
AcDbScale
 70
     0
300
1:1
140
1.0
141
1.0
290
     1
  0
SCALE
  5
4B
102
{ACAD_REACTORS
330
3D
102
}
330
3D
100
AcDbScale
 70
     0
300
1:2
140
1.0
141
2.0
290
     0
  0
SCALE
  5
4C
102
{ACAD_REACTORS
330
3D
102
}
330
3D
100
AcDbScale
 70
     0
300
1:4
140
1.0
141
4.0
290
     0
  0
SCALE
  5
4D
102
{ACAD_REACTORS
330
3D
102
}
330
3D
100
AcDbScale
 70
     0
300
1:5
140
1.0
141
5.0
290
     0
  0
SCALE
  5
4E
102
{ACAD_REACTORS
330
3D
102
}
330
3D
100
AcDbScale
 70
     0
300
1:8
140
1.0
141
8.0
290
     0
  0
SCALE
  5
4F
102
{ACAD_REACTORS
330
3D
102
}
330
3D
100
AcDbScale
 70
     0
300
1:10
140
1.0
141
10.0
290
     0
  0
SCALE
  5
50
102
{ACAD_REACTORS
330
3D
102
}
330
3D
100
AcDbScale
 70
     0
300
1:16
140
1.0
141
16.0
290
     0
  0
SCALE
  5
51
102
{ACAD_REACTORS
330
3D
102
}
330
3D
100
AcDbScale
 70
     0
300
1:20
140
1.0
141
20.0
290
     0
  0
SCALE
  5
52
102
{ACAD_REACTORS
330
3D
102
}
330
3D
100
AcDbScale
 70
     0
300
1:30
140
1.0
141
30.0
290
     0
  0
SCALE
  5
53
102
{ACAD_REACTORS
330
3D
102
}
330
3D
100
AcDbScale
 70
     0
300
1:40
140
1.0
141
40.0
290
     0
  0
SCALE
  5
54
102
{ACAD_REACTORS
330
3D
102
}
330
3D
100
AcDbScale
 70
     0
300
1:50
140
1.0
141
50.0
290
     0
  0
SCALE
  5
55
102
{ACAD_REACTORS
330
3D
102
}
330
3D
100
AcDbScale
 70
     0
300
1:100
140
1.0
141
100.0
290
     0
  0
SCALE
  5
56
102
{ACAD_REACTORS
330
3D
102
}
330
3D
100
AcDbScale
 70
     0
300
2:1
140
2.0
141
1.0
290
     0
  0
SCALE
  5
57
102
{ACAD_REACTORS
330
3D
102
}
330
3D
100
AcDbScale
 70
     0
300
4:1
140
4.0
141
1.0
290
     0
  0
SCALE
  5
58
102
{ACAD_REACTORS
330
3D
102
}
330
3D
100
AcDbScale
 70
     0
300
8:1
140
8.0
141
1.0
290
     0
  0
SCALE
  5
59
102
{ACAD_REACTORS
330
3D
102
}
330
3D
100
AcDbScale
 70
     0
300
10:1
140
10.0
141
1.0
290
     0
  0
SCALE
  5
5A
102
{ACAD_REACTORS
330
3D
102
}
330
3D
100
AcDbScale
 70
     0
300
100:1
140
100.0
141
1.0
290
     0
  0
SCALE
  5
5B
102
{ACAD_REACTORS
330
3D
102
}
330
3D
100
AcDbScale
 70
     0
300
1/128" = 1'-0"
140
0.0078125
141
12.0
290
     0
  0
SCALE
  5
5C
102
{ACAD_REACTORS
330
3D
102
}
330
3D
100
AcDbScale
 70
     0
300
1/64" = 1'-0"
140
0.015625
141
12.0
290
     0
  0
SCALE
  5
5D
102
{ACAD_REACTORS
330
3D
102
}
330
3D
100
AcDbScale
 70
     0
300
1/32" = 1'-0"
140
0.03125
141
12.0
290
     0
  0
SCALE
  5
5E
102
{ACAD_REACTORS
330
3D
102
}
330
3D
100
AcDbScale
 70
     0
300
1/16" = 1'-0"
140
0.0625
141
12.0
290
     0
  0
SCALE
  5
5F
102
{ACAD_REACTORS
330
3D
102
}
330
3D
100
AcDbScale
 70
     0
300
3/32" = 1'-0"
140
0.09375
141
12.0
290
     0
  0
SCALE
  5
60
102
{ACAD_REACTORS
330
3D
102
}
330
3D
100
AcDbScale
 70
     0
300
1/8" = 1'-0"
140
0.125
141
12.0
290
     0
  0
SCALE
  5
61
102
{ACAD_REACTORS
330
3D
102
}
330
3D
100
AcDbScale
 70
     0
300
3/16" = 1'-0"
140
0.1875
141
12.0
290
     0
  0
SCALE
  5
62
102
{ACAD_REACTORS
330
3D
102
}
330
3D
100
AcDbScale
 70
     0
300
1/4" = 1'-0"
140
0.25
141
12.0
290
     0
  0
SCALE
  5
63
102
{ACAD_REACTORS
330
3D
102
}
330
3D
100
AcDbScale
 70
     0
300
3/8" = 1'-0"
140
0.375
141
12.0
290
     0
  0
SCALE
  5
64
102
{ACAD_REACTORS
330
3D
102
}
330
3D
100
AcDbScale
 70
     0
300
1/2" = 1'-0"
140
0.5
141
12.0
290
     0
  0
SCALE
  5
65
102
{ACAD_REACTORS
330
3D
102
}
330
3D
100
AcDbScale
 70
     0
300
3/4" = 1'-0"
140
0.75
141
12.0
290
     0
  0
SCALE
  5
66
102
{ACAD_REACTORS
330
3D
102
}
330
3D
100
AcDbScale
 70
     0
300
1" = 1'-0"
140
1.0
141
12.0
290
     0
  0
SCALE
  5
67
102
{ACAD_REACTORS
330
3D
102
}
330
3D
100
AcDbScale
 70
     0
300
1-1/2" = 1'-0"
140
1.5
141
12.0
290
     0
  0
SCALE
  5
68
102
{ACAD_REACTORS
330
3D
102
}
330
3D
100
AcDbScale
 70
     0
300
3" = 1'-0"
140
3.0
141
12.0
290
     0
  0
SCALE
  5
69
102
{ACAD_REACTORS
330
3D
102
}
330
3D
100
AcDbScale
 70
     0
300
6" = 1'-0"
140
6.0
141
12.0
290
     0
  0
SCALE
  5
6A
102
{ACAD_REACTORS
330
3D
102
}
330
3D
100
AcDbScale
 70
     0
300
1'-0" = 1'-0"
140
12.0
141
12.0
290
     0
  0
TABLESTYLE
  5
46
102
{ACAD_XDICTIONARY
360
47
102
}
102
{ACAD_REACTORS
330
3E
102
}
330
3E
100
AcDbTableStyle
280
     0
  3
Standard
 70
     0
 71
     0
 40
1.5
 41
1.5
280
     0
281
     0
  7
Standard
140
4.5
170
     2
 62
     0
 63
     7
283
     0
 90
      512
 91
        0
  1

274
    -2
284
     1
 64
     0
275
    -2
285
     1
 65
     0
276
    -2
286
     1
 66
     0
277
    -2
287
     1
 67
     0
278
    -2
288
     1
 68
     0
279
    -2
289
     1
 69
     0
  7
Standard
140
6.0
170
     5
 62
     0
 63
     7
283
     0
 90
      512
 91
        0
  1

274
    -2
284
     1
 64
     0
275
    -2
285
     1
 65
     0
276
    -2
286
     1
 66
     0
277
    -2
287
     1
 67
     0
278
    -2
288
     1
 68
     0
279
    -2
289
     1
 69
     0
  7
Standard
140
4.5
170
     5
 62
     0
 63
     7
283
     0
 90
      512
 91
        0
  1

274
    -2
284
     1
 64
     0
275
    -2
285
     1
 65
     0
276
    -2
286
     1
 66
     0
277
    -2
287
     1
 67
     0
278
    -2
288
     1
 68
     0
279
    -2
289
     1
 69
     0
  0
VISUALSTYLE
  5
29
102
{ACAD_REACTORS
330
2A
102
}
330
2A
100
AcDbVisualStyle
  2
2dWireframe
 70
     4
177
     3
291
     0
 70
    58
 90
        0
176
     1
 90
        2
176
     1
 90
        1
176
     1
 90
        0
176
     1
 40
0.6
176
     1
 40
30.0
176
     1
 62
     7
420
 16777215
176
     1
 90
        1
176
     1
 90
        4
176
     1
 62
     7
176
     1
 62
   257
176
     1
 90
        1
176
     1
 90
        1
176
     1
 40
1.0
176
     1
 90
        0
176
     1
 62
   257
176
     1
 40
1.0
176
     1
 90
        1
176
     1
 90
        6
176
     1
 90
        2
176
     1
 62
     7
176
     1
 90
        5
176
     1
 90
        0
176
     1
 90
        0
176
     1
290
     0
176
     1
 90
        1
176
     1
 40
0.0
176
     1
 90
        0
176
     1
290
     1
176
     1
290
     1
176
     1
290
     0
176
     1
290
     0
176
     1
290
     0
176
     1
290
     0
176
     1
290
     0
176
     1
290
     0
176
     1
290
     0
176
     1
 90
       50
176
     1
 40
0.0
176
     1
 40
1.0
176
     1
 90
        0
176
     1
 62
    18
420
        0
176
     1
 90
       50
176
     1
 90
        3
176
     1
 62
     5
420
      255
176
     1
290
     0
176
     1
 90
       50
176
     1
 90
       50
176
     1
 90
       50
176
     1
290
     0
176
     1
 90
       50
176
     1
 62
   256
176
     0
 40
1.0
176
     0
 90
        2
176
     1
  1
strokes_ogs.tif
176
     1
290
     0
176
     1
 40
1.0
176
     1
 40
1.0
176
     1
  0
VISUALSTYLE
  5
49
102
{ACAD_REACTORS
330
2A
102
}
330
2A
100
AcDbVisualStyle
  2
3dWireframe
 70
     5
177
     3
291
     0
 70
    58
 90
        0
176
     1
 90
        2
176
     1
 90
        1
176
     1
 90
        0
176
     1
 40
0.6
176
     1
 40
30.0
176
     1
 62
     7
420
 16777215
176
     1
 90
        1
176
     1
 90
        4
176
     1
 62
     7
176
     1
 62
   257
176
     1
 90
        1
176
     1
 90
        1
176
     1
 40
1.0
176
     1
 90
        0
176
     1
 62
   257
176
     1
 40
1.0
176
     1
 90
        1
176
     1
 90
        6
176
     1
 90
        2
176
     1
 62
     7
176
     1
 90
        5
176
     1
 90
        0
176
     1
 90
        0
176
     1
290
     0
176
     1
 90
        1
176
     1
 40
0.0
176
     1
 90
        0
176
     1
290
     0
176
     1
290
     1
176
     1
290
     1
176
     1
290
     0
176
     1
290
     0
176
     1
290
     0
176
     1
290
     0
176
     1
290
     0
176
     1
290
     0
176
     1
 90
       50
176
     1
 40
0.0
176
     1
 40
1.0
176
     1
 90
        0
176
     1
 62
    18
420
        0
176
     1
 90
       50
176
     1
 90
        3
176
     1
 62
     5
420
      255
176
     1
290
     0
176
     1
 90
       50
176
     1
 90
       50
176
     1
 90
       50
176
     1
290
     0
176
     1
 90
       50
176
     1
 62
   256
176
     0
 40
1.0
176
     0
 90
        2
176
     1
  1
strokes_ogs.tif
176
     1
290
     0
176
     1
 40
1.0
176
     1
 40
1.0
176
     1
  0
VISUALSTYLE
  5
48
102
{ACAD_REACTORS
330
2A
102
}
330
2A
100
AcDbVisualStyle
  2
Realistic
 70
     8
177
     3
291
     0
 70
    58
 90
        2
176
     1
 90
        2
176
     1
 90
        1
176
     1
 90
        0
176
     1
 40
0.6
176
     1
 40
30.0
176
     1
 62
     7
420
 16777215
176
     1
 90
        1
176
     1
 90
        0
176
     1
 62
     7
176
     1
 62
   257
176
     1
 90
        1
176
     1
 90
        1
176
     1
 40
1.0
176
     1
 90
        8
176
     1
 62
     8
420
  7895160
176
     1
 40
1.0
176
     1
 90
        1
176
     1
 90
        6
176
     1
 90
        2
176
     1
 62
     7
176
     1
 90
        5
176
     1
 90
        0
176
     1
 90
        0
176
     1
290
     0
176
     1
 90
       13
176
     1
 40
0.0
176
     1
 90
        0
176
     1
290
     0
176
     1
290
     1
176
     1
290
     1
176
     1
290
     0
176
     1
290
     0
176
     1
290
     0
176
     1
290
     0
176
     1
290
     0
176
     1
290
     0
176
     1
 90
       50
176
     1
 40
0.0
176
     1
 40
1.0
176
     1
 90
        0
176
     1
 62
    18
420
        0
176
     1
 90
       50
176
     1
 90
        3
176
     1
 62
     5
420
      255
176
     1
290
     0
176
     1
 90
       50
176
     1
 90
       50
176
     1
 90
       50
176
     1
290
     0
176
     1
 90
       50
176
     1
 62
   256
176
     0
 40
1.0
176
     0
 90
        2
176
     1
  1
strokes_ogs.tif
176
     1
290
     0
176
     1
 40
1.0
176
     1
 40
1.0
176
     1
  0
DICTIONARYVAR
  5
10E
102
{ACAD_REACTORS
330
108
102
}
330
108
100
DictionaryVariables
280
     0
  1
1:1
  0
DICTIONARYVAR
  5
10A
102
{ACAD_REACTORS
330
108
102
}
330
108
100
DictionaryVariables
280
     0
  1
STANDARD
  0
DICTIONARYVAR
  5
109
102
{ACAD_REACTORS
330
108
102
}
330
108
100
DictionaryVariables
280
     0
  1
STANDARD
  0
DICTIONARYVAR
  5
10B
102
{ACAD_REACTORS
330
108
102
}
330
108
100
DictionaryVariables
280
     0
  1

  0
DICTIONARYVAR
  5
10C
102
{ACAD_REACTORS
330
108
102
}
330
108
100
DictionaryVariables
280
     0
  1

  0
DICTIONARYVAR
  5
110
102
{ACAD_REACTORS
330
108
102
}
330
108
100
DictionaryVariables
280
     0
  1
1
  0
DICTIONARYVAR
  5
111
102
{ACAD_REACTORS
330
108
102
}
330
108
100
DictionaryVariables
280
     0
  1
15
  0
DICTIONARYVAR
  5
10F
102
{ACAD_REACTORS
330
108
102
}
330
108
100
DictionaryVariables
280
     0
  1
0
  0
DICTIONARYVAR
  5
10D
102
{ACAD_REACTORS
330
108
102
}
330
108
100
DictionaryVariables
280
     0
  1
0
  0
DICTIONARY
  5
12
330
10
100
AcDbDictionary
280
     1
281
     1
  0
DICTIONARY
  5
18
330
17
100
AcDbDictionary
280
     1
281
     1
  0
DICTIONARY
  5
47
330
46
100
AcDbDictionary
280
     1
281
     1
  3
ACAD_ROUNDTRIP_2008_TABLESTYLE_CELLSTYLEMAP
360
112
  0
CELLSTYLEMAP
  5
112
102
{ACAD_REACTORS
330
47
102
}
330
47
100
AcDbCellStyleMap
 90
        3
300
CELLSTYLE
  1
TABLEFORMAT_BEGIN
 90
        5
170
     1
 91
        0
 92
    32768
 62
   257
 93
        1
300
CONTENTFORMAT
  1
CONTENTFORMAT_BEGIN
 90
        0
 91
        0
 92
      512
 93
        0
300

 40
0.0
140
1.0
 94
        5
 62
     0
340
20
144
6.0
309
CONTENTFORMAT_END
171
     1
301
MARGIN
  1
CELLMARGIN_BEGIN
 40
1.5
 40
1.5
 40
1.5
 40
1.5
 40
0.18
 40
0.18
309
CELLMARGIN_END
 94
        6
 95
        1
302
GRIDFORMAT
  1
GRIDFORMAT_BEGIN
 90
        0
 91
        1
 62
     0
 92
       -2
340
0
 93
        0
 40
0.045
309
GRIDFORMAT_END
 95
        2
302
GRIDFORMAT
  1
GRIDFORMAT_BEGIN
 90
        0
 91
        1
 62
     0
 92
       -2
340
0
 93
        0
 40
0.045
309
GRIDFORMAT_END
 95
        4
302
GRIDFORMAT
  1
GRIDFORMAT_BEGIN
 90
        0
 91
        1
 62
     0
 92
       -2
340
0
 93
        0
 40
0.045
309
GRIDFORMAT_END
 95
        8
302
GRIDFORMAT
  1
GRIDFORMAT_BEGIN
 90
        0
 91
        1
 62
     0
 92
       -2
340
0
 93
        0
 40
0.045
309
GRIDFORMAT_END
 95
       16
302
GRIDFORMAT
  1
GRIDFORMAT_BEGIN
 90
        0
 91
        1
 62
     0
 92
       -2
340
0
 93
        0
 40
0.045
309
GRIDFORMAT_END
 95
       32
302
GRIDFORMAT
  1
GRIDFORMAT_BEGIN
 90
        0
 91
        1
 62
     0
 92
       -2
340
0
 93
        0
 40
0.045
309
GRIDFORMAT_END
309
TABLEFORMAT_END
  1
CELLSTYLE_BEGIN
 90
        1
 91
        1
300
_TITLE
309
CELLSTYLE_END
300
CELLSTYLE
  1
TABLEFORMAT_BEGIN
 90
        5
170
     1
 91
        0
 92
        0
 62
   257
 93
        1
300
CONTENTFORMAT
  1
CONTENTFORMAT_BEGIN
 90
        0
 91
        0
 92
      512
 93
        0
300

 40
0.0
140
1.0
 94
        5
 62
     0
340
20
144
4.5
309
CONTENTFORMAT_END
171
     1
301
MARGIN
  1
CELLMARGIN_BEGIN
 40
1.5
 40
1.5
 40
1.5
 40
1.5
 40
0.18
 40
0.18
309
CELLMARGIN_END
 94
        6
 95
        1
302
GRIDFORMAT
  1
GRIDFORMAT_BEGIN
 90
        0
 91
        1
 62
     0
 92
       -2
340
0
 93
        0
 40
0.045
309
GRIDFORMAT_END
 95
        2
302
GRIDFORMAT
  1
GRIDFORMAT_BEGIN
 90
        0
 91
        1
 62
     0
 92
       -2
340
0
 93
        0
 40
0.045
309
GRIDFORMAT_END
 95
        4
302
GRIDFORMAT
  1
GRIDFORMAT_BEGIN
 90
        0
 91
        1
 62
     0
 92
       -2
340
0
 93
        0
 40
0.045
309
GRIDFORMAT_END
 95
        8
302
GRIDFORMAT
  1
GRIDFORMAT_BEGIN
 90
        0
 91
        1
 62
     0
 92
       -2
340
0
 93
        0
 40
0.045
309
GRIDFORMAT_END
 95
       16
302
GRIDFORMAT
  1
GRIDFORMAT_BEGIN
 90
        0
 91
        1
 62
     0
 92
       -2
340
0
 93
        0
 40
0.045
309
GRIDFORMAT_END
 95
       32
302
GRIDFORMAT
  1
GRIDFORMAT_BEGIN
 90
        0
 91
        1
 62
     0
 92
       -2
340
0
 93
        0
 40
0.045
309
GRIDFORMAT_END
309
TABLEFORMAT_END
  1
CELLSTYLE_BEGIN
 90
        2
 91
        1
300
_HEADER
309
CELLSTYLE_END
300
CELLSTYLE
  1
TABLEFORMAT_BEGIN
 90
        5
170
     1
 91
        0
 92
        0
 62
   257
 93
        1
300
CONTENTFORMAT
  1
CONTENTFORMAT_BEGIN
 90
        0
 91
        0
 92
      512
 93
        0
300

 40
0.0
140
1.0
 94
        2
 62
     0
340
20
144
4.5
309
CONTENTFORMAT_END
171
     1
301
MARGIN
  1
CELLMARGIN_BEGIN
 40
1.5
 40
1.5
 40
1.5
 40
1.5
 40
0.18
 40
0.18
309
CELLMARGIN_END
 94
        6
 95
        1
302
GRIDFORMAT
  1
GRIDFORMAT_BEGIN
 90
        0
 91
        1
 62
     0
 92
       -2
340
0
 93
        0
 40
0.045
309
GRIDFORMAT_END
 95
        2
302
GRIDFORMAT
  1
GRIDFORMAT_BEGIN
 90
        0
 91
        1
 62
     0
 92
       -2
340
0
 93
        0
 40
0.045
309
GRIDFORMAT_END
 95
        4
302
GRIDFORMAT
  1
GRIDFORMAT_BEGIN
 90
        0
 91
        1
 62
     0
 92
       -2
340
0
 93
        0
 40
0.045
309
GRIDFORMAT_END
 95
        8
302
GRIDFORMAT
  1
GRIDFORMAT_BEGIN
 90
        0
 91
        1
 62
     0
 92
       -2
340
0
 93
        0
 40
0.045
309
GRIDFORMAT_END
 95
       16
302
GRIDFORMAT
  1
GRIDFORMAT_BEGIN
 90
        0
 91
        1
 62
     0
 92
       -2
340
0
 93
        0
 40
0.045
309
GRIDFORMAT_END
 95
       32
302
GRIDFORMAT
  1
GRIDFORMAT_BEGIN
 90
        0
 91
        1
 62
     0
 92
       -2
340
0
 93
        0
 40
0.045
309
GRIDFORMAT_END
309
TABLEFORMAT_END
  1
CELLSTYLE_BEGIN
 90
        3
 91
        2
300
_DATA
309
CELLSTYLE_END
  0
ENDSEC
  0
SECTION
  2
ACDSDATA
 70
     2
 71
     6
  0
ACDSSCHEMA
 90
        0
  1
AcDb_Thumbnail_Schema
  2
AcDbDs::ID
280
    10
 91
        8
  2
Thumbnail_Data
280
    15
 91
        0
101
ACDSRECORD
 95
        0
 90
        1
  2
AcDbDs::TreatedAsObjectData
280
     1
291
     1
101
ACDSRECORD
 95
        0
 90
        2
  2
AcDbDs::Legacy
280
     1
291
     1
101
ACDSRECORD
  1
AcDbDs::ID
 90
        3
  2
AcDs:Indexable
280
     1
291
     1
101
ACDSRECORD
  1
AcDbDs::ID
 90
        4
  2
AcDbDs::HandleAttribute
280
     7
282
     1
  0
ACDSSCHEMA
 90
        1
  1
AcDbDs::TreatedAsObjectDataSchema
  2
AcDbDs::TreatedAsObjectData
280
     1
 91
        0
  0
ACDSSCHEMA
 90
        2
  1
AcDbDs::LegacySchema
  2
AcDbDs::Legacy
280
     1
 91
        0
  0
ACDSSCHEMA
 90
        3
  1
AcDbDs::IndexedPropertySchema
  2
AcDs:Indexable
280
     1
 91
        0
  0
ACDSSCHEMA
 90
        4
  1
AcDbDs::HandleAttributeSchema
  2
AcDbDs::HandleAttribute
280
     7
 91
        1
284
     1
  0
ACDSRECORD
 90
        0
  2
AcDbDs::ID
280
    10
320
10
  2
Thumbnail_Data
280
    15
 94
     3088
310
89504E470D0A1A0A0000000D49484452000001000000005E0803000000FB5F3A6700000300504C5445212830000000C8C8C80000000000000000000000000000000000000000000000000000330000660000990000CC0000FF0033000033330033660033990033CC0033FF0066000066330066660066990066CC0066FF0099
310
000099330099660099990099CC0099FF00CC0000CC3300CC6600CC9900CCCC00CCFF00FF0000FF3300FF6600FF9900FFCC00FFFF3300003300333300663300993300CC3300FF3333003333333333663333993333CC3333FF3366003366333366663366993366CC3366FF3399003399333399663399993399CC3399FF33CC00
310
33CC3333CC6633CC9933CCCC33CCFF33FF0033FF3333FF6633FF9933FFCC33FFFF6600006600336600666600996600CC6600FF6633006633336633666633996633CC6633FF6666006666336666666666996666CC6666FF6699006699336699666699996699CC6699FF66CC0066CC3366CC6666CC9966CCCC66CCFF66FF0066
310
FF3366FF6666FF9966FFCC66FFFF9900009900339900669900999900CC9900FF9933009933339933669933999933CC9933FF9966009966339966669966999966CC9966FF9999009999339999669999999999CC9999FF99CC0099CC3399CC6699CC9999CCCC99CCFF99FF0099FF3399FF6699FF9999FFCC99FFFFCC0000CC00
310
33CC0066CC0099CC00CCCC00FFCC3300CC3333CC3366CC3399CC33CCCC33FFCC6600CC6633CC6666CC6699CC66CCCC66FFCC9900CC9933CC9966CC9999CC99CCCC99FFCCCC00CCCC33CCCC66CCCC99CCCCCCCCCCFFCCFF00CCFF33CCFF66CCFF99CCFFCCCCFFFFFF0000FF0033FF0066FF0099FF00CCFF00FFFF3300FF3333
310
FF3366FF3399FF33CCFF33FFFF6600FF6633FF6666FF6699FF66CCFF66FFFF9900FF9933FF9966FF9999FF99CCFF99FFFFCC00FFCC33FFCC66FFCC99FFCCCCFFCCFFFFFF00FFFF33FFFF66FFFF99FFFFCCFFFFFF0000000D0D0D1A1A1A2828283535354343435050505D5D5D6B6B6B787878868686939393A1A1A1AEAEAEBB
310
BBBBC9C9C9D6D6D6E4E4E4F1F1F1FFFFFF000000000000000000000000000000000000000000000000000000000000B21171F6000003DF4944415478DAED5A6D6EEC200CF40DB8FF6572125FA0FDEFFF2FE04F20BBADDA5709128FDADD40B652990C1EDB2C4022F16C9472FE386C364C7D73B02D0320FF3B9DD0CBD2C678CE
310
60A903E2019D039ED53B7A0D5B135097C68B340584659E9F40FAB4C1F9F6813220C5C604505DD3B9A0F3EA7C7502785D6DAAA818503ECCE4A03CFF36DE9700BCDA02A200E2A9BAD04FD9024C0DCA874D01B0B702E27ED0777EAE1A2358233C40B99601F57F992EF06C022476DAFEB18B6E4255B38E0DCA7F6642A6B82BEA00
310
83F39DEB0B77FACD63E6D11100B26A7D5D8D000D6A1863C051412DBC175B4BB3C168901E058D80F6FC919FB47807B02A981E585201CDCC7A02888C80A600B504573813C07C44057400F945BD04768DB51430995923A03270C0F09C8B6D73D786E701BA565700CC5B006939054C66565939DCECCCFA3C2B526DF072D0096872
310
E2A8515FCF89BAC1A02D1D8406BAAF0B4C9B0034EE9D9768AF0BE64317FF54371507F47AE0AF3C1D27C6CB8514D072FEA0803AD09942F139BF1E583AFD1DAC1904A30B58746BB5C2D1E2A144C4A134BC4139EC09CB488016432D27387F406DD02B23ECF2808D09E0D014084099954CF10836F8C924A8029A43ECAF009CB780
310
95C38730009EFB68A18CBB97C3626634DB203EA4277861793FB7C1EC074C2E27D1634D078C3688B30BB414D6125E733EF03E68710D28012DED8D0480544038DF5BB918F24A4E5C2012E0B58015BDBB13808399A9023094C375A1AA00F970B176B11370BC20801627E04B05580B4014A075229FA0380143AA6F04C0BA045C76
310
85A11D15D04539FCF62F2FB6C0BA75D09FB84012306D81C509D03D0E6FBBC29C2C6B23983B7CC39D9779006D9007A0F66C420CA00F73FB582E17E9EBEA80A02360CB62484A9ADA168E2EC067019208711B54E25EB441BFB37335883054F5FC8E187ABFEA7CD2E4A5A800DA5F0176DE1909204F84A2F503C67EF14DCAE1FF5B
310
0C7538D68D7FB11F40130124735F0C0A5DE4019EF9D6F55B26B8EC1698F2B9D1063BE73317A09799203A01B03E017A7635B6C4D4DFB41AC41804F58E2CD10940F2BC07E7D3818509188BA110F7484FF54717B82080EC082C2A00965700FB40AF00757BED07C444E82501E181C7D5EFA00078AF000918170A00BC260060832D
310
F0F736486BDBE09BDE6E768575EAAE67015D393C7E43844FF6F9D4B3B806B41AEA22C6EE046867772240EBA3E265BE1F88DE8C00AB703B05C8947E2DC66D001EA300B8DC02D09C0FEE1303AEBAC261EA8B4EF0E6EB7FBA0BDCD1D87EB205B6FFA2CBAFF300C0BDBFEAF46B05603CE17BAA02E8D90AB88DB1A50BFCAC1C8644
310
2291482412894422914824128944229148241289442291482412897BE21FC3D2C181EDD4C80F0000000049454E44AE426082AB21431E80541DFB5AA44046698396694C87044D9D12633100B50720B5D32A046CA9C12D00F9CF5B9A1000B21602BAB4D32180D47A00346D143339608AA12986BE1043F6C639FF83849510F05E
310
6D5BF61CF007BBE9EE9843B4FDAE77002881BD2839A8027E316EFC080010E03B00600780488EB2E13B3C00A4392400EA35EF8539600298CBE04B00CC4A700E984DB039E698638E39E678E7F80FD0EAF000CE6AA06B0000000049454E44AE42608254F282C9029C3BB50420FF97A517AA844E1B401637811F61980190444E60
310
D9BFD35209004A002EEF0131857B0280DEF7808CA10CBC4099231E6DE89C4E05186EB79C4C273543F1A32087AA87634E3C2354247861C10B28D17656E66B399F09D4DC144B9A9904BA3A41BE1D07AC08BD835AED38A09087A7220E3543228E46E75F1D79DA7083CA11AF00907A239DB38E03168411452D072AE939391A9D41
310
9E7683AED7A7B61790B158DA50D30DC2348042504BE2636A0A731CF01600A2BE9A733974837A9B1E0360DF396CA994540B00C1E8F523326F8803AA5F16000C744E13C0B8A55254E70723D2A379F9FC78D80ADD7B01AC5AC0C89AAB4028C8C36EF068D9210ED097A683D302E0840568F5D5999A756B1334EC7E62130C2DF057
310
8EB996482A959955573D1AB11D078C8F228FBB3505A0DB58CF0DEA4AB6F7BF3A1FB033962F4888FC848CD00DE006706DA55B1768BE3EE644D9BADBBEC8B77B48D5B8CD6702B8CB5D3EB97C8F17B8D4117C651CE075CE07AD34C47E6747EAA4C71BFBFE36001BB7FB3B0076E3B34B83C11DAF8ABF1080E1D71F0BA3C6C651D7
310
DF02C00C6D16DA780700A559B11E447048D54C003083B44E923BE594D41B4273C66B0540B104F6DE2728EF67F4C99D0C00CA74ED18801DA6B64ECE25F12DBC361548254AB72C20533C6901247DA8F2D56300E0729A7302404E2852FE29FEBF0DC09D01A0327CEA44F0E1BC7E1300CF7B3C3E380B0038D11B6DA11009573641
310
EA1FF35A04404A211DEC01FA4497A4C8BB395EB5D9387912A5A98DF40BC6974A52FC1109D3F332A70048F71B1A470D80F2B89321CE01187CAB5D7283AD37349F7383D3004084BEA117303EEF9D379CF402E8CEBE57588D9A9AA7D9C64B601C0758808ADD7F17803BF75A5DE505C40D1E17E67813DC0C84F4EEBF1B08B9732F
310
562EDC600E848EDD9A8D03681580218ECD00F80FFCCA34FB22FED71E0000000049454E44AE426082E09220F07EE34716487C3D00DF78FC0FC44B3A62B4C2B0830000000049454E44AE42608202604C066904C036B8BECFEA63A6F44200E4F233003801207375E978465C7A4027F3DE0338E10A792CD05E901DCF095F0D8138
310
579801602140D1A8E59D951610AAE8DEEF6A68C8006BC7D26B43C013F0EE014EF78510C8C62B8FB68610200F005835625C0368CA2A378700C569F9C4CF40FB93D14A05D701004C00A8CE7B19EBBB120278BB33E70098A1029367836F51E19FA2BD6FA305DE0A80BFCD046F90ED878C5F7876F8D5FF33E8073CE0DD8FDD5AE0
310
171C9DCC432C8F0B298D6DBB8EF763C8DB8BF545ECEDE93C40B8909179CDD90145008CF747007804DCF37F7E5E02008E1EC0143FB6EEF764FE0080F47BFD460FE8091DFFCF6BBA1448ED3A81F71F9EEB6FEAE77F65081897752180931070D2DF42A073E15F0980FEA31F98787B0A0179D4011300FC7CF36F0D814CE6AF3055
310
A790C32ED007F88D00ECD302BF0080BFC004FF01B681ADE50E1690DA0000000049454E44AE426082
  0
ACDSRECORD
 90
        0
  2
AcDbDs::ID
280
    10
320
17
  2
Thumbnail_Data
280
    15
 94
     1943
310
89504E470D0A1A0A0000000D49484452000000B80000007F08030000006B00F8F900000300504C5445FFFFFF000000FFFFFF0000000000000000000000000000000000000000000000000000330000660000990000CC0000FF0033000033330033660033990033CC0033FF0066000066330066660066990066CC0066FF0099
310
000099330099660099990099CC0099FF00CC0000CC3300CC6600CC9900CCCC00CCFF00FF0000FF3300FF6600FF9900FFCC00FFFF3300003300333300663300993300CC3300FF3333003333333333663333993333CC3333FF3366003366333366663366993366CC3366FF3399003399333399663399993399CC3399FF33CC00
310
33CC3333CC6633CC9933CCCC33CCFF33FF0033FF3333FF6633FF9933FFCC33FFFF6600006600336600666600996600CC6600FF6633006633336633666633996633CC6633FF6666006666336666666666996666CC6666FF6699006699336699666699996699CC6699FF66CC0066CC3366CC6666CC9966CCCC66CCFF66FF0066
310
FF3366FF6666FF9966FFCC66FFFF9900009900339900669900999900CC9900FF9933009933339933669933999933CC9933FF9966009966339966669966999966CC9966FF9999009999339999669999999999CC9999FF99CC0099CC3399CC6699CC9999CCCC99CCFF99FF0099FF3399FF6699FF9999FFCC99FFFFCC0000CC00
310
33CC0066CC0099CC00CCCC00FFCC3300CC3333CC3366CC3399CC33CCCC33FFCC6600CC6633CC6666CC6699CC66CCCC66FFCC9900CC9933CC9966CC9999CC99CCCC99FFCCCC00CCCC33CCCC66CCCC99CCCCCCCCCCFFCCFF00CCFF33CCFF66CCFF99CCFFCCCCFFFFFF0000FF0033FF0066FF0099FF00CCFF00FFFF3300FF3333
310
FF3366FF3399FF33CCFF33FFFF6600FF6633FF6666FF6699FF66CCFF66FFFF9900FF9933FF9966FF9999FF99CCFF99FFFFCC00FFCC33FFCC66FFCC99FFCCCCFFCCFFFFFF00FFFF33FFFF66FFFF99FFFFCCFFFFFF0000000D0D0D1A1A1A2828283535354343435050505D5D5D6B6B6B787878868686939393A1A1A1AEAEAEBB
310
BBBBC9C9C9D6D6D6E4E4E4F1F1F1FFFFFF000000000000000000000000000000000000000000000000000000000000790CAC0F000004524944415478DAED9C5B92E3200C457B03296DC3FB5F801673FF7A01FE1F03120870E2C476067B46547742223F0E422F70557E30DFAEE127340777F01DE0D0D67FB329998F48DEB8CD
310
6BF00B6BD9C11DDCC11DFC2F827BE674F0FF0D1C03DB31F06B441107BF1E38AE0B0E0777700777700777700777F017470344F7D4F8427E4F70BA32F8FE7A1C331E783CEEB09000D82C0C69017F00B70067669415757C7FDC0E9C22F8E31E1ADFD843F0C5F279E0D12D97170AFFF1134BA324E4F4B27CE2245B5E108F260AA7
310
8C0347200978020E0154F0481EC09380C24029B591E02117051A8E1A8F5A8D2A65FD1407B5BC0938A21F07DE059CBF028EF74D25AA51512366D2384B37998A50733A7289F6BBC1712278C281804350A59B3F41A640344E34103C6917195C5B724716764E1ACFF331BE1E57D4A4D50C9E2C1E6520622A024E9F45D9AF2C2432
310
99D8B8D8B4A012178D4B1894195A44F1148CD3B844BCA871FC26EB50E7D481A461B0E81C31A0F058E7FC65D65092C025EB041B9F72CED1381E2A996446F360F01C9D610260F994C849C0A72906F8B47E1AADF11CF08A03E65CC91A56248FE626E043C361059EBB098E21F1A68A2AA04F97DA5F0297C229C771709F39D539A3
310
3064CDF1FB2A14DC2DFC49CA11238E1A5F64596C8EBC88C6818F33E11576B2A434F12DB8A1FB2ABEE63C177C9AB45364B9BB261C0F3EED019FB687504E9ABE028E6A87D944402E256E125AD9D41E34B5DF404B16E97077E1A3E069FD55DF25769545C16571660F2B747969CF65CF9A6C07FDD00E8287CBE64283CAE63E7306
310
4F5054C0739AE49AAE9928A31A7DD323F83078BABE5ED53C95985445508D970D13D98BB0F68056E38C6A324A49B00F1C7D39654DC5541CD96896D42F1A2FE07AFC1B1A97D3D4E09E837F98391B533170DAD3C1982DD04C513055E36A6C6826B19993E3E05C598175CE1EDCCC06D3BA618411C8A5A8BAE4B6A9EC02CFCE9627
310
543625D69D93559D9D6198A88297CED9D7707BC0B37AD9C0C982271B74B9756F2A2BCE59AC4FC06B8DCB3383A31ACF536F6D1CB55B113F3795F9453894B8D5D838D1291A2FA6626C5C2759BEB3326C6B5CE747C6DB829F632A26031A1B6F7465ED1F5D1CD76DAF671AA7169CCE01A795A802420DCE2DB80DF6B245DED72A12
310
0E8B734E279A8AE4982A0141328FDED280E7606D071CB7548AC689AAA8424D02024E76CE5248E94EB79A4F1D2A3B8DD393EA50AF124DC9809FEB9C553D4273F5DDA2A3E97991A57B0205BCD5B88027C1D9CE694C25F74AE62C95E976386C8BACF8F80B79B0A7D978EF9C2BB9B0C8A80D874017C7A90A87F149184ECF9CDCDA
310
C00AB89575AB9915F0B5871CFB13D0FC1ADCDC8DDAC95F5DD6992AF33538911638672D24DE867B094EB4A5F1B8857A3DF04D51798E7833F066957F5BF0D9C11DDCC13FCA9C23C1E1E0D706BFCE13090777700777700777700777F0CDB30782CF0E7E6DF0BBFE68C6459B833BF86E70FF9D2C0777700777F0BA36795EAD3C95
310
CC4724477F8CD433A783FF93E0376C81FB0FE8D566DAC99D001A0000000049454E44AE426082
  0
ENDSEC
  0
EOF
