  0
SECTION
  2
HEADER
  9
$ACADVER
  1
AC1027
  9
$ACADMAINTVER
 70
    55
  9
$DWGCODEPAGE
  3
ANSI_936
  9
$REQUIREDVERSIONS
160
                 0
  9
$INSBASE
 10
0.0
 20
0.0
 30
0.0
  9
$EXTMIN
 10
-34607.30634793638
 20
16112.5105673383
 30
0.0
  9
$EXTMAX
 10
-1202.65293636074
 20
36148.28396290183
 30
506.0
  9
$LIMMIN
 10
0.0
 20
0.0
  9
$LIMMAX
 10
420.0
 20
297.0
  9
$ORTHOMODE
 70
     0
  9
$REGENMODE
 70
     1
  9
$FILLMODE
 70
     1
  9
$QTEXTMODE
 70
     0
  9
$MIRRTEXT
 70
     0
  9
$LTSCALE
 40
1.0
  9
$ATTMODE
 70
     1
  9
$TEXTSIZE
 40
2.5
  9
$TRACEWID
 40
1.0
  9
$TEXTSTYLE
  7
样式 2
  9
$CLAYER
  8
标注
  9
$CELTYPE
  6
ByLayer
  9
$CECOLOR
 62
     0
  9
$CELTSCALE
 40
1.0
  9
$DISPSILH
 70
     0
  9
$DIMSCALE
 40
1.0
  9
$DIMASZ
 40
25.0
  9
$DIMEXO
 40
2.0
  9
$DIMDLI
 40
0.38
  9
$DIMRND
 40
0.0
  9
$DIMDLE
 40
0.0
  9
$DIMEXE
 40
0.18
  9
$DIMTP
 40
0.0
  9
$DIMTM
 40
0.0
  9
$DIMTXT
 40
25.0
  9
$DIMCEN
 40
0.0
  9
$DIMTSZ
 40
0.0
  9
$DIMTOL
 70
     0
  9
$DIMLIM
 70
     0
  9
$DIMTIH
 70
     0
  9
$DIMTOH
 70
     0
  9
$DIMSE1
 70
     0
  9
$DIMSE2
 70
     0
  9
$DIMTAD
 70
     0
  9
$DIMZIN
 70
     0
  9
$DIMBLK
  1

  9
$DIMASO
 70
     1
  9
$DIMSHO
 70
     1
  9
$DIMPOST
  1

  9
$DIMAPOST
  1

  9
$DIMALT
 70
     1
  9
$DIMALTD
 70
     2
  9
$DIMALTF
 40
0.03937
  9
$DIMLFAC
 40
1.0
  9
$DIMTOFL
 70
     0
  9
$DIMTVP
 40
0.0
  9
$DIMTIX
 70
     0
  9
$DIMSOXD
 70
     0
  9
$DIMSAH
 70
     0
  9
$DIMBLK1
  1

  9
$DIMBLK2
  1

  9
$DIMSTYLE
  2
Standard
  9
$DIMCLRD
 70
     2
  9
$DIMCLRE
 70
     2
  9
$DIMCLRT
 70
     2
  9
$DIMTFAC
 40
1.0
  9
$DIMGAP
 40
1.0
  9
$DIMJUST
 70
     0
  9
$DIMSD1
 70
     0
  9
$DIMSD2
 70
     0
  9
$DIMTOLJ
 70
     1
  9
$DIMTZIN
 70
     0
  9
$DIMALTZ
 70
     0
  9
$DIMALTTZ
 70
     0
  9
$DIMUPT
 70
     0
  9
$DIMDEC
 70
     2
  9
$DIMTDEC
 70
     2
  9
$DIMALTU
 70
     2
  9
$DIMALTTD
 70
     2
  9
$DIMTXSTY
  7
Standard
  9
$DIMAUNIT
 70
     0
  9
$DIMADEC
 70
     0
  9
$DIMALTRND
 40
0.0
  9
$DIMAZIN
 70
     0
  9
$DIMDSEP
 70
    46
  9
$DIMATFIT
 70
     3
  9
$DIMFRAC
 70
     0
  9
$DIMLDRBLK
  1

  9
$DIMLUNIT
 70
     2
  9
$DIMLWD
 70
    -1
  9
$DIMLWE
 70
    -1
  9
$DIMTMOVE
 70
     0
  9
$DIMFXL
 40
1.0
  9
$DIMFXLON
 70
     0
  9
$DIMJOGANG
 40
0.7853981633974483
  9
$DIMTFILL
 70
     0
  9
$DIMTFILLCLR
 70
     2
  9
$DIMARCSYM
 70
     0
  9
$DIMLTYPE
  6
ByLayer
  9
$DIMLTEX1
  6
ByLayer
  9
$DIMLTEX2
  6
ByLayer
  9
$DIMTXTDIRECTION
 70
     0
  9
$LUNITS
 70
     2
  9
$LUPREC
 70
     3
  9
$SKETCHINC
 40
1.0
  9
$FILLETRAD
 40
30.0
  9
$AUNITS
 70
     0
  9
$AUPREC
 70
     0
  9
$MENU
  1
.
  9
$ELEVATION
 40
0.0
  9
$PELEVATION
 40
0.0
  9
$THICKNESS
 40
0.0
  9
$LIMCHECK
 70
     0
  9
$CHAMFERA
 40
10.0
  9
$CHAMFERB
 40
10.0
  9
$CHAMFERC
 40
0.0
  9
$CHAMFERD
 40
0.0
  9
$SKPOLY
 70
     0
  9
$TDCREATE
 40
2455815.639909213
  9
$TDUCREATE
 40
2455815.306575880
  9
$TDUPDATE
 40
2457273.679684352
  9
$TDUUPDATE
 40
2457273.346351019
  9
$TDINDWG
 40
25.3450642708
  9
$TDUSRTIMER
 40
25.3450628241
  9
$USRTIMER
 70
     1
  9
$ANGBASE
 50
0.0
  9
$ANGDIR
 70
     0
  9
$PDMODE
 70
     0
  9
$PDSIZE
 40
0.0
  9
$PLINEWID
 40
0.0
  9
$SPLFRAME
 70
     0
  9
$SPLINETYPE
 70
     6
  9
$SPLINESEGS
 70
     8
  9
$HANDSEED
  5
200
  9
$SURFTAB1
 70
     6
  9
$SURFTAB2
 70
     6
  9
$SURFTYPE
 70
     6
  9
$SURFU
 70
     6
  9
$SURFV
 70
     6
  9
$UCSBASE
  2

  9
$UCSNAME
  2

  9
$UCSORG
 10
0.0
 20
0.0
 30
0.0
  9
$UCSXDIR
 10
1.0
 20
0.0
 30
0.0
  9
$UCSYDIR
 10
0.0
 20
1.0
 30
0.0
  9
$UCSORTHOREF
  2

  9
$UCSORTHOVIEW
 70
     0
  9
$UCSORGTOP
 10
0.0
 20
0.0
 30
0.0
  9
$UCSORGBOTTOM
 10
0.0
 20
0.0
 30
0.0
  9
$UCSORGLEFT
 10
0.0
 20
0.0
 30
0.0
  9
$UCSORGRIGHT
 10
0.0
 20
0.0
 30
0.0
  9
$UCSORGFRONT
 10
0.0
 20
0.0
 30
0.0
  9
$UCSORGBACK
 10
0.0
 20
0.0
 30
0.0
  9
$PUCSBASE
  2

  9
$PUCSNAME
  2

  9
$PUCSORG
 10
0.0
 20
0.0
 30
0.0
  9
$PUCSXDIR
 10
1.0
 20
0.0
 30
0.0
  9
$PUCSYDIR
 10
0.0
 20
1.0
 30
0.0
  9
$PUCSORTHOREF
  2

  9
$PUCSORTHOVIEW
 70
     0
  9
$PUCSORGTOP
 10
0.0
 20
0.0
 30
0.0
  9
$PUCSORGBOTTOM
 10
0.0
 20
0.0
 30
0.0
  9
$PUCSORGLEFT
 10
0.0
 20
0.0
 30
0.0
  9
$PUCSORGRIGHT
 10
0.0
 20
0.0
 30
0.0
  9
$PUCSORGFRONT
 10
0.0
 20
0.0
 30
0.0
  9
$PUCSORGBACK
 10
0.0
 20
0.0
 30
0.0
  9
$USERI1
 70
     0
  9
$USERI2
 70
     0
  9
$USERI3
 70
     0
  9
$USERI4
 70
     0
  9
$USERI5
 70
     0
  9
$USERR1
 40
0.0
  9
$USERR2
 40
0.0
  9
$USERR3
 40
0.0
  9
$USERR4
 40
0.0
  9
$USERR5
 40
2.5
  9
$WORLDVIEW
 70
     1
  9
$SHADEDGE
 70
     3
  9
$SHADEDIF
 70
    70
  9
$TILEMODE
 70
     1
  9
$MAXACTVP
 70
    64
  9
$PINSBASE
 10
0.0
 20
0.0
 30
0.0
  9
$PLIMCHECK
 70
     0
  9
$PEXTMIN
 10
25.69999999999999
 20
19.5
 30
0.0
  9
$PEXTMAX
 10
231.3
 20
175.5
 30
0.0
  9
$PLIMMIN
 10
-20.0
 20
-7.5
  9
$PLIMMAX
 10
277.0
 20
202.5
  9
$UNITMODE
 70
     0
  9
$VISRETAIN
 70
     1
  9
$PLINEGEN
 70
     0
  9
$PSLTSCALE
 70
     1
  9
$TREEDEPTH
 70
  3020
  9
$CMLSTYLE
  2
Standard
  9
$CMLJUST
 70
     0
  9
$CMLSCALE
 40
20.0
  9
$PROXYGRAPHICS
 70
     1
  9
$MEASUREMENT
 70
     1
  9
$CELWEIGHT
370
    -1
  9
$ENDCAPS
280
     0
  9
$JOINSTYLE
280
     0
  9
$LWDISPLAY
290
     0
  9
$INSUNITS
 70
     4
  9
$HYPERLINKBASE
  1

  9
$STYLESHEET
  1

  9
$XEDIT
290
     1
  9
$CEPSNTYPE
380
     0
  9
$PSTYLEMODE
290
     1
  9
$FINGERPRINTGUID
  2
{ADDA02CD-9101-43FE-84F5-871471D966FE}
  9
$VERSIONGUID
  2
{A392AE7D-2D92-4E34-8A73-AC31E1BFDDAA}
  9
$EXTNAMES
290
     1
  9
$PSVPSCALE
 40
0.0
  9
$OLESTARTUP
290
     0
  9
$SORTENTS
280
   127
  9
$INDEXCTL
280
     0
  9
$HIDETEXT
280
     1
  9
$XCLIPFRAME
280
     0
  9
$HALOGAP
280
     0
  9
$OBSCOLOR
 70
   257
  9
$OBSLTYPE
280
     0
  9
$INTERSECTIONDISPLAY
280
     0
  9
$INTERSECTIONCOLOR
 70
   257
  9
$DIMASSOC
280
     2
  9
$PROJECTNAME
  1

  9
$CAMERADISPLAY
290
     0
  9
$LENSLENGTH
 40
50.0
  9
$CAMERAHEIGHT
 40
0.0
  9
$STEPSPERSEC
 40
2.0
  9
$STEPSIZE
 40
6.0
  9
$3DDWFPREC
 40
2.0
  9
$PSOLWIDTH
 40
5.0
  9
$PSOLHEIGHT
 40
80.0
  9
$LOFTANG1
 40
1.570796326794896
  9
$LOFTANG2
 40
1.570796326794896
  9
$LOFTMAG1
 40
0.0
  9
$LOFTMAG2
 40
0.0
  9
$LOFTPARAM
 70
     7
  9
$LOFTNORMALS
280
     1
  9
$LATITUDE
 40
37.795
  9
$LONGITUDE
 40
-122.394
  9
$NORTHDIRECTION
 40
0.0
  9
$TIMEZONE
 70
 -8000
  9
$LIGHTGLYPHDISPLAY
280
     1
  9
$TILEMODELIGHTSYNCH
280
     1
  9
$CMATERIAL
347
3A
  9
$SOLIDHIST
280
     1
  9
$SHOWHIST
280
     1
  9
$DWFFRAME
280
     2
  9
$DGNFRAME
280
     0
  9
$REALWORLDSCALE
290
     1
  9
$INTERFERECOLOR
 62
     1
  9
$INTERFEREOBJVS
345
48
  9
$INTERFEREVPVS
346
49
  9
$CSHADOW
280
     0
  9
$SHADOWPLANELOCATION
 40
0.0
  0
ENDSEC
  0
SECTION
  2
CLASSES
  0
CLASS
  1
ACDBDICTIONARYWDFLT
  2
AcDbDictionaryWithDefault
  3
ObjectDBX Classes
 90
        0
 91
        1
280
     0
281
     0
  0
CLASS
  1
DICTIONARYVAR
  2
AcDbDictionaryVar
  3
ObjectDBX Classes
 90
        0
 91
        9
280
     0
281
     0
  0
CLASS
  1
TABLESTYLE
  2
AcDbTableStyle
  3
ObjectDBX Classes
 90
     4095
 91
        1
280
     0
281
     0
  0
CLASS
  1
MATERIAL
  2
AcDbMaterial
  3
ObjectDBX Classes
 90
     1153
 91
        3
280
     0
281
     0
  0
CLASS
  1
VISUALSTYLE
  2
AcDbVisualStyle
  3
ObjectDBX Classes
 90
     4095
 91
        3
280
     0
281
     0
  0
CLASS
  1
ACAD_EVALUATION_GRAPH
  2
AcDbEvalGraph
  3
ObjectDBX Classes
 90
     1153
 91
        0
280
     0
281
     0
  0
CLASS
  1
BLOCKLOOKUPPARAMETER
  2
AcDbBlockLookupParameter
  3
ObjectDBX Classes
 90
     1153
 91
        0
280
     0
281
     0
  0
CLASS
  1
BLOCKLOOKUPGRIP
  2
AcDbBlockLookupGrip
  3
ObjectDBX Classes
 90
     1153
 91
        0
280
     0
281
     0
  0
CLASS
  1
BLOCKGRIPLOCATIONCOMPONENT
  2
AcDbBlockGripExpr
  3
ObjectDBX Classes
 90
     1153
 91
        0
280
     0
281
     0
  0
CLASS
  1
BLOCKLOOKUPACTION
  2
AcDbBlockLookupAction
  3
ObjectDBX Classes
 90
     1153
 91
        0
280
     0
281
     0
  0
CLASS
  1
BLOCKLINEARPARAMETER
  2
AcDbBlockLinearParameter
  3
ObjectDBX Classes
 90
     1153
 91
        0
280
     0
281
     0
  0
CLASS
  1
BLOCKSCALEACTION
  2
AcDbBlockScaleAction
  3
ObjectDBX Classes
 90
     1153
 91
        0
280
     0
281
     0
  0
CLASS
  1
ACDB_DYNAMICBLOCKPURGEPREVENTER_VERSION
  2
AcDbDynamicBlockPurgePreventer
  3
ObjectDBX Classes
 90
     1153
 91
        0
280
     0
281
     0
  0
CLASS
  1
ACDB_BLOCKREPRESENTATION_DATA
  2
AcDbBlockRepresentationData
  3
ObjectDBX Classes
 90
     1153
 91
        0
280
     0
281
     0
  0
CLASS
  1
BLOCKSTRETCHACTION
  2
AcDbBlockStretchAction
  3
ObjectDBX Classes
 90
     1153
 91
        0
280
     0
281
     0
  0
CLASS
  1
BLOCKMOVEACTION
  2
AcDbBlockMoveAction
  3
ObjectDBX Classes
 90
     1153
 91
        0
280
     0
281
     0
  0
CLASS
  1
BLOCKVISIBILITYPARAMETER
  2
AcDbBlockVisibilityParameter
  3
ObjectDBX Classes
 90
     1153
 91
        0
280
     0
281
     0
  0
CLASS
  1
SORTENTSTABLE
  2
AcDbSortentsTable
  3
ObjectDBX Classes
 90
        0
 91
        2
280
     0
281
     0
  0
CLASS
  1
BLOCKVISIBILITYGRIP
  2
AcDbBlockVisibilityGrip
  3
ObjectDBX Classes
 90
     1153
 91
        0
280
     0
281
     0
  0
CLASS
  1
BLOCKFLIPPARAMETER
  2
AcDbBlockFlipParameter
  3
ObjectDBX Classes
 90
     1153
 91
        0
280
     0
281
     0
  0
CLASS
  1
BLOCKFLIPGRIP
  2
AcDbBlockFlipGrip
  3
ObjectDBX Classes
 90
     1153
 91
        0
280
     0
281
     0
  0
CLASS
  1
BLOCKFLIPACTION
  2
AcDbBlockFlipAction
  3
ObjectDBX Classes
 90
     1153
 91
        0
280
     0
281
     0
  0
CLASS
  1
BLOCKALIGNMENTPARAMETER
  2
AcDbBlockAlignmentParameter
  3
ObjectDBX Classes
 90
     1153
 91
        0
280
     0
281
     0
  0
CLASS
  1
BLOCKALIGNMENTGRIP
  2
AcDbBlockAlignmentGrip
  3
ObjectDBX Classes
 90
     1153
 91
        0
280
     0
281
     0
  0
CLASS
  1
BLOCKPOINTPARAMETER
  2
AcDbBlockPointParameter
  3
ObjectDBX Classes
 90
     1153
 91
        0
280
     0
281
     0
  0
CLASS
  1
BLOCKLINEARGRIP
  2
AcDbBlockLinearGrip
  3
ObjectDBX Classes
 90
     1153
 91
        0
280
     0
281
     0
  0
CLASS
  1
BLOCKBASEPOINTPARAMETER
  2
AcDbBlockBasepointParameter
  3
ObjectDBX Classes
 90
     1153
 91
        0
280
     0
281
     0
  0
CLASS
  1
BLOCKARRAYACTION
  2
AcDbBlockArrayAction
  3
ObjectDBX Classes
 90
     1153
 91
        0
280
     0
281
     0
  0
CLASS
  1
BLOCKROTATIONPARAMETER
  2
AcDbBlockRotationParameter
  3
ObjectDBX Classes
 90
     1153
 91
        0
280
     0
281
     0
  0
CLASS
  1
BLOCKROTATIONGRIP
  2
AcDbBlockRotationGrip
  3
ObjectDBX Classes
 90
     1153
 91
        0
280
     0
281
     0
  0
CLASS
  1
BLOCKROTATEACTION
  2
AcDbBlockRotateAction
  3
ObjectDBX Classes
 90
     1153
 91
        0
280
     0
281
     0
  0
CLASS
  1
BLOCKPOLARPARAMETER
  2
AcDbBlockPolarParameter
  3
ObjectDBX Classes
 90
     1153
 91
        0
280
     0
281
     0
  0
CLASS
  1
BLOCKPOLARGRIP
  2
AcDbBlockPolarGrip
  3
ObjectDBX Classes
 90
     1153
 91
        0
280
     0
281
     0
  0
CLASS
  1
BLOCKPOLARSTRETCHACTION
  2
AcDbBlockPolarStretchAction
  3
ObjectDBX Classes
 90
     1153
 91
        0
280
     0
281
     0
  0
CLASS
  1
BLOCKXYPARAMETER
  2
AcDbBlockXYParameter
  3
ObjectDBX Classes
 90
     1153
 91
        0
280
     0
281
     0
  0
CLASS
  1
BLOCKXYGRIP
  2
AcDbBlockXYGrip
  3
ObjectDBX Classes
 90
     1153
 91
        0
280
     0
281
     0
  0
CLASS
  1
ACAD_TABLE
  2
AcDbTable
  3
ObjectDBX Classes
 90
     1025
 91
        0
280
     0
281
     1
  0
CLASS
  1
DIMASSOC
  2
AcDbDimAssoc
  3
"AcDbDimAssoc|Product Desc:     AcDim ARX App For Dimension|Company:          Autodesk, Inc.|WEB Address:      www.autodesk.com"
 90
        0
 91
       21
280
     0
281
     0
  0
CLASS
  1
LARGE_RADIAL_DIMENSION
  2
AcDbRadialDimensionLarge
  3
ObjectDBX Classes
 90
     1025
 91
        0
280
     0
281
     1
  0
CLASS
  1
SCALE
  2
AcDbScale
  3
ObjectDBX Classes
 90
     1153
 91
       33
280
     0
281
     0
  0
CLASS
  1
MLEADERSTYLE
  2
AcDbMLeaderStyle
  3
ACDB_MLEADERSTYLE_CLASS
 90
     4095
 91
        0
280
     0
281
     0
  0
CLASS
  1
VLO-VL
  2
vlo_VL
  3
VL|AutoLISP based application
 90
      129
 91
        0
280
     1
281
     0
  0
CLASS
  1
CELLSTYLEMAP
  2
AcDbCellStyleMap
  3
ObjectDBX Classes
 90
     1152
 91
        1
280
     0
281
     0
  0
CLASS
  1
RASTERVARIABLES
  2
AcDbRasterVariables
  3
ISM
 90
        0
 91
        0
280
     0
281
     0
  0
CLASS
  1
IMAGEDEF
  2
AcDbRasterImageDef
  3
ISM
 90
        0
 91
        0
280
     0
281
     0
  0
CLASS
  1
IMAGEDEF_REACTOR
  2
AcDbRasterImageDefReactor
  3
ISM
 90
        1
 91
        0
280
     0
281
     0
  0
CLASS
  1
IMAGE
  2
AcDbRasterImage
  3
ISM
 90
     2175
 91
        0
280
     0
281
     1
  0
CLASS
  1
ACDBSECTIONVIEWSTYLE
  2
AcDbSectionViewStyle
  3
ObjectDBX Classes
 90
     1025
 91
        0
280
     0
281
     0
  0
CLASS
  1
ACDBDETAILVIEWSTYLE
  2
AcDbDetailViewStyle
  3
ObjectDBX Classes
 90
     1025
 91
        0
280
     0
281
     0
  0
CLASS
  1
SOLID_BACKGROUND
  2
AcDbSolidBackground
  3
SCENEOE
 90
     4095
 91
        0
280
     1
281
     0
  0
CLASS
  1
NPOCOLLECTION
  2
AcDbImpNonPersistentObjectsCollection
  3
ObjectDBX Classes
 90
     1153
 91
        0
280
     0
281
     0
  0
ENDSEC
  0
SECTION
  2
TABLES
  0
TABLE
  2
VPORT
  5
27
102
{ACAD_XDICTIONARY
360
2C
102
}
330
0
100
AcDbSymbolTable
 70
     1
  0
VPORT
  5
28
330
27
100
AcDbSymbolTableRecord
100
AcDbViewportTableRecord
  2
*Active
 70
     0
 10
0.0
 20
0.0
 11
1.0
 21
1.0
 12
-32407.78137113942
 22
26226.30805320929
 13
0.0
 23
0.0
 14
10.0
 24
10.0
 15
10.0
 25
10.0
 16
0.0
 26
0.0
 36
1.0
 17
0.0
 27
0.0
 37
0.0
 40
2927.476014490575
 41
2.720081135902637
 42
50.0
 43
0.0
 44
0.0
 50
0.0
 51
0.0
 71
     0
 72
  1000
 73
     1
 74
     3
 75
     0
 76
     1
 77
     0
 78
     0
281
     0
 65
     1
110
0.0
120
0.0
130
0.0
111
1.0
121
0.0
131
0.0
112
0.0
122
1.0
132
0.0
 79
     0
146
0.0
348
29
 60
     2
 61
     5
292
     1
282
     1
141
0.0
142
0.0
 63
   250
421
  3355443
1001
ACAD_NAV_VCDISPLAY
1070
     3
  0
ENDTAB
  0
TABLE
  2
LTYPE
  5
22
330
0
100
AcDbSymbolTable
 70
     2
  0
LTYPE
  5
23
330
22
100
AcDbSymbolTableRecord
100
AcDbLinetypeTableRecord
  2
ByBlock
 70
     0
  3

 72
    65
 73
     0
 40
0.0
  0
LTYPE
  5
24
330
22
100
AcDbSymbolTableRecord
100
AcDbLinetypeTableRecord
  2
ByLayer
 70
     0
  3

 72
    65
 73
     0
 40
0.0
  0
LTYPE
  5
E
330
22
100
AcDbSymbolTableRecord
100
AcDbLinetypeTableRecord
  2
Continuous
 70
     0
  3
Solid line
 72
    65
 73
     0
 40
0.0
  0
LTYPE
  5
8C
330
22
100
AcDbSymbolTableRecord
100
AcDbLinetypeTableRecord
  2
HIDDEN2
 70
     0
  3
Hidden (.5x) _ _ _ _ _ _ _ _ _ _ _ _ _ _ _ _ _
 72
    65
 73
     2
 40
0.1875
 49
0.125
 74
     0
 49
-0.0625
 74
     0
  0
ENDTAB
  0
TABLE
  2
LAYER
  5
19
102
{ACAD_XDICTIONARY
360
1A
102
}
330
0
100
AcDbSymbolTable
 70
     5
  0
LAYER
  5
6
102
{ACAD_XDICTIONARY
360
7
102
}
330
19
100
AcDbSymbolTableRecord
100
AcDbLayerTableRecord
  2
0
 70
     0
 62
     7
  6
Continuous
370
    -3
390
9
347
C
348
0
  0
LAYER
  5
A8
330
19
100
AcDbSymbolTableRecord
100
AcDbLayerTableRecord
  2
Defpoints
 70
     0
 62
     8
  6
Continuous
290
     0
370
    -3
390
9
347
C
348
0
  0
LAYER
  5
40
102
{ACAD_XDICTIONARY
360
41
102
}
330
19
100
AcDbSymbolTableRecord
100
AcDbLayerTableRecord
  2
标注
 70
     0
 62
     1
  6
Continuous
370
    -3
390
9
347
C
348
0
1001
AcAecLayerStandard
1000

1000

  0
LAYER
  5
89
102
{ACAD_XDICTIONARY
360
8A
102
}
330
19
100
AcDbSymbolTableRecord
100
AcDbLayerTableRecord
  2
虚线
 70
     0
 62
   252
  6
HIDDEN2
370
    -3
390
9
347
C
348
0
1001
AcAecLayerStandard
1000

1000

  0
LAYER
  5
1E5
102
{ACAD_XDICTIONARY
360
1E6
102
}
330
19
100
AcDbSymbolTableRecord
100
AcDbLayerTableRecord
  2
填充层
 70
     0
 62
     7
  6
Continuous
370
    -3
390
9
347
C
348
0
1001
AcAecLayerStandard
1000

1000

  0
ENDTAB
  0
TABLE
  2
STYLE
  5
1F
330
0
100
AcDbSymbolTable
 70
     2
  0
STYLE
  5
20
330
1F
100
AcDbSymbolTableRecord
100
AcDbTextStyleTableRecord
  2
Standard
 70
     0
 40
0.0
 41
0.7800000000000001
 50
0.0
 71
     0
 42
2.5
  3
times.ttf
  4

1001
ACAD
1000
Times New Roman
1071
       18
  0
STYLE
  5
44
330
1F
100
AcDbSymbolTableRecord
100
AcDbTextStyleTableRecord
  2
样式 2
 70
     0
 40
0.0
 41
0.7800000000000001
 50
0.0
 71
     0
 42
2.5
  3
@Dotum.shx
  4

  0
ENDTAB
  0
TABLE
  2
VIEW
  5
25
330
0
100
AcDbSymbolTable
 70
     0
  0
ENDTAB
  0
TABLE
  2
UCS
  5
26
330
0
100
AcDbSymbolTable
 70
     0
  0
ENDTAB
  0
TABLE
  2
APPID
  5
2D
330
0
100
AcDbSymbolTable
 70
     7
  0
APPID
  5
1E
330
2D
100
AcDbSymbolTableRecord
100
AcDbRegAppTableRecord
  2
ACAD
 70
     0
  0
APPID
  5
13
330
2D
100
AcDbSymbolTableRecord
100
AcDbRegAppTableRecord
  2
ACAD_PSEXT
 70
     0
  0
APPID
  5
43
330
2D
100
AcDbSymbolTableRecord
100
AcDbRegAppTableRecord
  2
AcAecLayerStandard
 70
     0
  0
APPID
  5
30
330
2D
100
AcDbSymbolTableRecord
100
AcDbRegAppTableRecord
  2
ACAD_DSTYLE_DIMJAG
 70
     0
  0
APPID
  5
31
330
2D
100
AcDbSymbolTableRecord
100
AcDbRegAppTableRecord
  2
ACAD_DSTYLE_DIMTALN
 70
     0
  0
APPID
  5
D7
330
2D
100
AcDbSymbolTableRecord
100
AcDbRegAppTableRecord
  2
ACAD_DSTYLE_DIMRADIAL_EXTENSION
 70
     0
  0
APPID
  5
2B
330
2D
100
AcDbSymbolTableRecord
100
AcDbRegAppTableRecord
  2
ACAD_NAV_VCDISPLAY
 70
     0
  0
ENDTAB
  0
TABLE
  2
DIMSTYLE
  5
2E
330
0
100
AcDbSymbolTable
 70
     5
100
AcDbDimStyleTable
 71
     5
340
2F
340
32
340
33
340
34
340
35
  0
DIMSTYLE
105
2F
102
{ACAD_REACTORS
330
9B
330
AC
330
BC
330
CC
330
E3
330
EE
330
F9
330
104
330
10F
330
11A
330
126
330
134
330
144
330
152
330
162
330
172
330
182
330
192
330
1A2
330
1B2
330
1C2
330
1D2
330
D8
102
}
330
2E
100
AcDbSymbolTableRecord
100
AcDbDimStyleTableRecord
  2
Standard
 70
     0
 41
25.0
 42
2.0
 70
     2
 73
     0
 74
     0
140
25.0
141
0.0
143
0.03937
147
1.0
170
     1
176
     2
177
     2
178
     2
271
     2
272
     2
340
20
345
24
346
24
347
24
371
    -1
372
    -1
1001
ACAD_DSTYLE_DIMJAG
1070
   388
1040
1.5
1001
ACAD_DSTYLE_DIMTALN
1070
   392
1070
     0
  0
DIMSTYLE
105
35
330
2E
100
AcDbSymbolTableRecord
100
AcDbDimStyleTableRecord
  2
ISO-60
 70
     0
 41
55.0
 42
5.0
 43
3.75
 44
1.25
 73
     0
 77
     1
 78
     8
140
60.0
141
2.5
143
0.03937007874016
147
5.0
171
     3
271
     0
272
     0
274
     3
283
     0
284
     8
340
20
  0
DIMSTYLE
105
34
330
2E
100
AcDbSymbolTableRecord
100
AcDbDimStyleTableRecord
  2
0-ISO-40
 70
     0
 41
35.0
 42
5.0
 43
3.75
 44
1.25
 73
     0
 77
     1
 78
     8
140
40.0
141
2.5
143
0.03937007874016
147
5.0
171
     3
172
     1
176
   256
177
   256
178
   256
271
     2
272
     2
274
     3
283
     0
284
     8
340
20
345
24
346
24
347
24
371
    -1
372
    -1
  0
DIMSTYLE
105
32
330
2E
100
AcDbSymbolTableRecord
100
AcDbDimStyleTableRecord
  2
ISO-35
 70
     0
 41
30.0
 42
8.0
 43
3.75
 44
1.25
 73
     0
 77
     1
 78
     8
140
35.0
141
2.5
143
0.03937007874016
147
3.0
171
     3
176
   256
177
   256
178
   256
271
     2
272
     2
274
     3
283
     0
284
     8
340
20
345
24
346
24
347
24
371
    -1
372
    -1
  0
DIMSTYLE
105
33
330
2E
100
AcDbSymbolTableRecord
100
AcDbDimStyleTableRecord
  2
ISO-45
 70
     0
 41
35.0
 42
2.0
 43
3.75
 44
2.0
 73
     0
 77
     1
 78
     8
140
45.0
141
2.5
143
0.03937007874016
147
3.0
171
     3
176
   256
177
   256
178
   256
271
     2
272
     2
274
     3
283
     0
284
     8
340
20
345
24
346
24
347
24
371
    -1
372
    -1
  0
ENDTAB
  0
TABLE
  2
BLOCK_RECORD
  5
1
330
0
100
AcDbSymbolTable
 70
    23
  0
BLOCK_RECORD
  5
2
102
{ACAD_XDICTIONARY
360
3
102
}
330
1
100
AcDbSymbolTableRecord
100
AcDbBlockTableRecord
  2
*Model_Space
340
10
 70
     0
280
     1
281
     0
  0
BLOCK_RECORD
  5
14
330
1
100
AcDbSymbolTableRecord
100
AcDbBlockTableRecord
  2
*Paper_Space
340
17
 70
     0
280
     1
281
     0
  0
BLOCK_RECORD
  5
9E
330
1
100
AcDbSymbolTableRecord
100
AcDbBlockTableRecord
  2
*D0
340
0
 70
     0
280
     1
281
     0
  0
BLOCK_RECORD
  5
AF
330
1
100
AcDbSymbolTableRecord
100
AcDbBlockTableRecord
  2
*D1
340
0
 70
     0
280
     1
281
     0
  0
BLOCK_RECORD
  5
BF
330
1
100
AcDbSymbolTableRecord
100
AcDbBlockTableRecord
  2
*D2
340
0
 70
     0
280
     1
281
     0
  0
BLOCK_RECORD
  5
CF
330
1
100
AcDbSymbolTableRecord
100
AcDbBlockTableRecord
  2
*D3
340
0
 70
     0
280
     1
281
     0
  0
BLOCK_RECORD
  5
DB
330
1
100
AcDbSymbolTableRecord
100
AcDbBlockTableRecord
  2
*D4
340
0
 70
     0
280
     1
281
     0
  0
BLOCK_RECORD
  5
E6
330
1
100
AcDbSymbolTableRecord
100
AcDbBlockTableRecord
  2
*D5
340
0
 70
     0
280
     1
281
     0
  0
BLOCK_RECORD
  5
F1
330
1
100
AcDbSymbolTableRecord
100
AcDbBlockTableRecord
  2
*D6
340
0
 70
     0
280
     1
281
     0
  0
BLOCK_RECORD
  5
FC
330
1
100
AcDbSymbolTableRecord
100
AcDbBlockTableRecord
  2
*D7
340
0
 70
     0
280
     1
281
     0
  0
BLOCK_RECORD
  5
107
330
1
100
AcDbSymbolTableRecord
100
AcDbBlockTableRecord
  2
*D8
340
0
 70
     0
280
     1
281
     0
  0
BLOCK_RECORD
  5
112
330
1
100
AcDbSymbolTableRecord
100
AcDbBlockTableRecord
  2
*D9
340
0
 70
     0
280
     1
281
     0
  0
BLOCK_RECORD
  5
11D
330
1
100
AcDbSymbolTableRecord
100
AcDbBlockTableRecord
  2
*D10
340
0
 70
     0
280
     1
281
     0
  0
BLOCK_RECORD
  5
127
330
1
100
AcDbSymbolTableRecord
100
AcDbBlockTableRecord
  2
*D11
340
0
 70
     0
280
     1
281
     0
  0
BLOCK_RECORD
  5
137
330
1
100
AcDbSymbolTableRecord
100
AcDbBlockTableRecord
  2
*D12
340
0
 70
     0
280
     1
281
     0
  0
BLOCK_RECORD
  5
145
330
1
100
AcDbSymbolTableRecord
100
AcDbBlockTableRecord
  2
*D13
340
0
 70
     0
280
     1
281
     0
  0
BLOCK_RECORD
  5
155
330
1
100
AcDbSymbolTableRecord
100
AcDbBlockTableRecord
  2
*D14
340
0
 70
     0
280
     1
281
     0
  0
BLOCK_RECORD
  5
165
330
1
100
AcDbSymbolTableRecord
100
AcDbBlockTableRecord
  2
*D15
340
0
 70
     0
280
     1
281
     0
  0
BLOCK_RECORD
  5
175
330
1
100
AcDbSymbolTableRecord
100
AcDbBlockTableRecord
  2
*D16
340
0
 70
     0
280
     1
281
     0
  0
BLOCK_RECORD
  5
185
330
1
100
AcDbSymbolTableRecord
100
AcDbBlockTableRecord
  2
*D17
340
0
 70
     0
280
     1
281
     0
  0
BLOCK_RECORD
  5
195
330
1
100
AcDbSymbolTableRecord
100
AcDbBlockTableRecord
  2
*D18
340
0
 70
     0
280
     1
281
     0
  0
BLOCK_RECORD
  5
1A5
330
1
100
AcDbSymbolTableRecord
100
AcDbBlockTableRecord
  2
*D19
340
0
 70
     0
280
     1
281
     0
  0
BLOCK_RECORD
  5
1B5
330
1
100
AcDbSymbolTableRecord
100
AcDbBlockTableRecord
  2
*D20
340
0
 70
     0
280
     1
281
     0
  0
BLOCK_RECORD
  5
1C5
330
1
100
AcDbSymbolTableRecord
100
AcDbBlockTableRecord
  2
*D21
340
0
 70
     0
280
     1
281
     0
  0
BLOCK_RECORD
  5
1D5
330
1
100
AcDbSymbolTableRecord
100
AcDbBlockTableRecord
  2
*D22
340
0
 70
     0
280
     1
281
     0
  0
ENDTAB
  0
ENDSEC
  0
SECTION
  2
BLOCKS
  0
BLOCK
  5
5
330
2
100
AcDbEntity
  8
0
100
AcDbBlockBegin
  2
*Model_Space
 70
     0
 10
0.0
 20
0.0
 30
0.0
  3
*Model_Space
  1

  0
ENDBLK
  5
F
330
2
100
AcDbEntity
  8
0
100
AcDbBlockEnd
  0
BLOCK
  5
15
330
14
100
AcDbEntity
 67
     1
  8
0
100
AcDbBlockBegin
  2
*Paper_Space
 70
     0
 10
0.0
 20
0.0
 30
0.0
  3
*Paper_Space
  1

  0
ENDBLK
  5
16
330
14
100
AcDbEntity
 67
     1
  8
0
100
AcDbBlockEnd
  0
BLOCK
  5
9F
330
9E
100
AcDbEntity
  8
0
 62
     0
370
   100
100
AcDbBlockBegin
  2
*D0
 70
     1
 10
0.0
 20
0.0
 30
0.0
  3
*D0
  1

  0
LINE
  5
A0
330
9E
100
AcDbEntity
  8
标注
 62
     2
440
 16777216
100
AcDbLine
 10
-33472.06587990419
 20
26879.7958069798
 30
0.0
 11
-33893.26988498211
 21
26879.7958069798
 31
0.0
  0
LINE
  5
A1
330
9E
100
AcDbEntity
  8
标注
 62
     2
440
 16777216
100
AcDbLine
 10
-33712.06587990419
 20
26406.7958069798
 30
0.0
 11
-33893.26988498211
 21
26406.7958069798
 31
0.0
  0
LINE
  5
A2
330
9E
100
AcDbEntity
  8
标注
 62
     2
440
 16777216
100
AcDbLine
 10
-33893.08988498211
 20
26854.7958069798
 30
0.0
 11
-33893.08988498211
 21
26728.06707590554
 31
0.0
  0
LINE
  5
A3
330
9E
100
AcDbEntity
  8
标注
 62
     2
440
 16777216
100
AcDbLine
 10
-33893.08988498211
 20
26431.7958069798
 30
0.0
 11
-33893.08988498211
 21
26558.52453805406
 31
0.0
  0
SOLID
  5
A4
330
9E
100
AcDbEntity
  8
标注
 62
     2
440
 16777216
370
   100
100
AcDbTrace
 10
-33897.25655164877
 20
26854.7958069798
 30
0.0
 11
-33888.92321831545
 21
26854.7958069798
 31
0.0
 12
-33893.08988498211
 22
26879.7958069798
 32
0.0
 13
-33893.08988498211
 23
26879.7958069798
 33
0.0
  0
SOLID
  5
A5
330
9E
100
AcDbEntity
  8
标注
 62
     2
440
 16777216
370
   100
100
AcDbTrace
 10
-33897.25655164877
 20
26431.7958069798
 30
0.0
 11
-33888.92321831545
 21
26431.7958069798
 31
0.0
 12
-33893.08988498211
 22
26406.7958069798
 32
0.0
 13
-33893.08988498211
 23
26406.7958069798
 33
0.0
  0
MTEXT
  5
A6
330
9E
100
AcDbEntity
  8
标注
 62
     2
440
 16777216
370
   100
100
AcDbMText
 10
-33893.08988498212
 20
26643.29580697979
 30
0.0
 40
25.0
 41
0.0
 46
0.0
 71
     5
 72
     1
  1
\A1;473.00 [18.62]
 11
0.0000000000000001
 21
1.0
 31
0.0
 73
     1
 44
1.0
  0
POINT
  5
A7
330
9E
100
AcDbEntity
  8
Defpoints
 62
     0
440
 16777216
370
   100
100
AcDbPoint
 10
-33470.06587990419
 20
26879.7958069798
 30
0.0
  0
POINT
  5
A9
330
9E
100
AcDbEntity
  8
Defpoints
 62
     0
440
 16777216
370
   100
100
AcDbPoint
 10
-33710.06587990419
 20
26406.7958069798
 30
0.0
  0
POINT
  5
AA
330
9E
100
AcDbEntity
  8
Defpoints
 62
     0
440
 16777216
370
   100
100
AcDbPoint
 10
-33893.08988498211
 20
26406.7958069798
 30
0.0
  0
ENDBLK
  5
AB
330
9E
100
AcDbEntity
  8
0
 62
     0
370
   100
100
AcDbBlockEnd
  0
BLOCK
  5
B0
330
AF
100
AcDbEntity
  8
0
 62
     0
370
   100
100
AcDbBlockBegin
  2
*D1
 70
     1
 10
0.0
 20
0.0
 30
0.0
  3
*D1
  1

  0
LINE
  5
B1
330
AF
100
AcDbEntity
  8
标注
 62
     2
440
 16777216
100
AcDbLine
 10
-32876.06587990419
 20
26784.7958069798
 30
0.0
 11
-32787.81465688501
 21
26784.7958069798
 31
0.0
  0
LINE
  5
B2
330
AF
100
AcDbEntity
  8
标注
 62
     2
440
 16777216
100
AcDbLine
 10
-32876.06587990419
 20
26406.7958069798
 30
0.0
 11
-32787.81465688501
 21
26406.7958069798
 31
0.0
  0
LINE
  5
B3
330
AF
100
AcDbEntity
  8
标注
 62
     2
440
 16777216
100
AcDbLine
 10
-32787.99465688501
 20
26759.7958069798
 30
0.0
 11
-32787.99465688501
 21
26680.20856833524
 31
0.0
  0
LINE
  5
B4
330
AF
100
AcDbEntity
  8
标注
 62
     2
440
 16777216
100
AcDbLine
 10
-32787.99465688501
 20
26431.7958069798
 30
0.0
 11
-32787.99465688501
 21
26511.38304562435
 31
0.0
  0
SOLID
  5
B5
330
AF
100
AcDbEntity
  8
标注
 62
     2
440
 16777216
370
   100
100
AcDbTrace
 10
-32792.16132355168
 20
26759.7958069798
 30
0.0
 11
-32783.82799021835
 21
26759.7958069798
 31
0.0
 12
-32787.99465688501
 22
26784.7958069798
 32
0.0
 13
-32787.99465688501
 23
26784.7958069798
 33
0.0
  0
SOLID
  5
B6
330
AF
100
AcDbEntity
  8
标注
 62
     2
440
 16777216
370
   100
100
AcDbTrace
 10
-32792.16132355168
 20
26431.7958069798
 30
0.0
 11
-32783.82799021835
 21
26431.7958069798
 31
0.0
 12
-32787.99465688501
 22
26406.7958069798
 32
0.0
 13
-32787.99465688501
 23
26406.7958069798
 33
0.0
  0
MTEXT
  5
B7
330
AF
100
AcDbEntity
  8
标注
 62
     2
440
 16777216
370
   100
100
AcDbMText
 10
-32787.99465688502
 20
26595.79580697979
 30
0.0
 40
25.0
 41
0.0
 46
0.0
 71
     5
 72
     1
  1
\A1;378.00 [14.88]
 11
0.0000000000000001
 21
1.0
 31
0.0
 73
     1
 44
1.0
  0
POINT
  5
B8
330
AF
100
AcDbEntity
  8
Defpoints
 62
     0
440
 16777216
370
   100
100
AcDbPoint
 10
-32878.06587990419
 20
26784.7958069798
 30
0.0
  0
POINT
  5
B9
330
AF
100
AcDbEntity
  8
Defpoints
 62
     0
440
 16777216
370
   100
100
AcDbPoint
 10
-32878.06587990419
 20
26406.7958069798
 30
0.0
  0
POINT
  5
BA
330
AF
100
AcDbEntity
  8
Defpoints
 62
     0
440
 16777216
370
   100
100
AcDbPoint
 10
-32787.99465688501
 20
26406.7958069798
 30
0.0
  0
ENDBLK
  5
BB
330
AF
100
AcDbEntity
  8
0
 62
     0
370
   100
100
AcDbBlockEnd
  0
BLOCK
  5
C0
330
BF
100
AcDbEntity
  8
0
 62
     0
370
   100
100
AcDbBlockBegin
  2
*D2
 70
     1
 10
0.0
 20
0.0
 30
0.0
  3
*D2
  1

  0
LINE
  5
C1
330
BF
100
AcDbEntity
  8
标注
 62
     2
440
 16777216
100
AcDbLine
 10
-33735.06587990419
 20
26429.7958069798
 30
0.0
 11
-33735.06587990419
 21
26342.00381451217
 31
0.0
  0
LINE
  5
C2
330
BF
100
AcDbEntity
  8
标注
 62
     2
440
 16777216
100
AcDbLine
 10
-32853.06587990419
 20
26427.7958069798
 30
0.0
 11
-32853.06587990419
 21
26342.00381451217
 31
0.0
  0
LINE
  5
C3
330
BF
100
AcDbEntity
  8
标注
 62
     2
440
 16777216
100
AcDbLine
 10
-33710.06587990419
 20
26342.18381451217
 30
0.0
 11
-33378.19042929136
 21
26342.18381451217
 31
0.0
  0
LINE
  5
C4
330
BF
100
AcDbEntity
  8
标注
 62
     2
440
 16777216
100
AcDbLine
 10
-32878.06587990419
 20
26342.18381451217
 30
0.0
 11
-33209.94133051702
 21
26342.18381451217
 31
0.0
  0
SOLID
  5
C5
330
BF
100
AcDbEntity
  8
标注
 62
     2
440
 16777216
370
   100
100
AcDbTrace
 10
-33710.06587990419
 20
26346.35048117883
 30
0.0
 11
-33710.06587990419
 21
26338.0171478455
 31
0.0
 12
-33735.06587990419
 22
26342.18381451217
 32
0.0
 13
-33735.06587990419
 23
26342.18381451217
 33
0.0
  0
SOLID
  5
C6
330
BF
100
AcDbEntity
  8
标注
 62
     2
440
 16777216
370
   100
100
AcDbTrace
 10
-32878.06587990419
 20
26346.35048117883
 30
0.0
 11
-32878.06587990419
 21
26338.0171478455
 31
0.0
 12
-32853.06587990419
 22
26342.18381451217
 32
0.0
 13
-32853.06587990419
 23
26342.18381451217
 33
0.0
  0
MTEXT
  5
C7
330
BF
100
AcDbEntity
  8
标注
 62
     2
440
 16777216
370
   100
100
AcDbMText
 10
-33294.06587990419
 20
26342.18381451217
 30
0.0
 40
25.0
 41
0.0
 46
0.0
 71
     5
 72
     1
  1
\A1;882.00 [34.72]
 73
     1
 44
1.0
  0
POINT
  5
C8
330
BF
100
AcDbEntity
  8
Defpoints
 62
     0
440
 16777216
370
   100
100
AcDbPoint
 10
-33735.06587990419
 20
26431.7958069798
 30
0.0
  0
POINT
  5
C9
330
BF
100
AcDbEntity
  8
Defpoints
 62
     0
440
 16777216
370
   100
100
AcDbPoint
 10
-32853.06587990419
 20
26429.7958069798
 30
0.0
  0
POINT
  5
CA
330
BF
100
AcDbEntity
  8
Defpoints
 62
     0
440
 16777216
370
   100
100
AcDbPoint
 10
-32853.06587990419
 20
26342.18381451217
 30
0.0
  0
ENDBLK
  5
CB
330
BF
100
AcDbEntity
  8
0
 62
     0
370
   100
100
AcDbBlockEnd
  0
BLOCK
  5
D0
330
CF
100
AcDbEntity
  8
0
 62
     0
370
   100
100
AcDbBlockBegin
  2
*D3
 70
     1
 10
0.0
 20
0.0
 30
0.0
  3
*D3
  1

  0
LINE
  5
D1
330
CF
100
AcDbEntity
  8
标注
 62
     2
440
 16777216
100
AcDbLine
 10
-33423.1478170679
 20
26827.33900444531
 30
0.0
 11
-33420.42121376353
 21
26852.18987232595
 31
0.0
  0
MTEXT
  5
D2
330
CF
100
AcDbEntity
  8
标注
 62
     2
440
 16777216
370
   100
100
AcDbMText
 10
-33434.48557224434
 20
26724.00418654184
 30
0.0
 40
25.0
 41
0.0
 46
0.0
 71
     5
 72
     1
  1
\A1;R461.85 [R18.18]
 11
0.1090641321750446
 21
0.99403471522523
 31
0.0
 73
     1
 44
1.0
  0
SOLID
  5
D3
330
CF
100
AcDbEntity
  8
标注
 62
     2
440
 16777216
370
   100
100
AcDbTrace
 10
-33424.56302507696
 20
26852.64430621001
 30
0.0
 11
-33416.27940245009
 21
26851.73543844189
 31
0.0
 12
-33417.69461045915
 22
26877.04074020658
 32
0.0
 13
-33417.69461045915
 23
26877.04074020658
 33
0.0
  0
POINT
  5
D4
330
CF
100
AcDbEntity
  8
Defpoints
 62
     0
440
 16777216
370
   100
100
AcDbPoint
 10
-33417.69461045915
 20
26877.04074020658
 30
0.0
  0
POINT
  5
D5
330
CF
100
AcDbEntity
  8
Defpoints
 62
     0
440
 16777216
370
   100
100
AcDbPoint
 10
-33468.06587990419
 20
26417.94580697981
 30
0.0
  0
ENDBLK
  5
D6
330
CF
100
AcDbEntity
  8
0
 62
     0
370
   100
100
AcDbBlockEnd
  0
BLOCK
  5
DC
330
DB
100
AcDbEntity
  8
0
 62
     0
370
   100
100
AcDbBlockBegin
  2
*D4
 70
     1
 10
0.0
 20
0.0
 30
0.0
  3
*D4
  1

  0
LINE
  5
DD
330
DB
100
AcDbEntity
  8
标注
 62
     2
440
 16777216
100
AcDbLine
 10
-33687.54165820664
 20
26442.64290045775
 30
0.0
 11
-33710.0658799042
 21
26431.79580697981
 31
0.0
  0
MTEXT
  5
DE
330
DB
100
AcDbEntity
  8
标注
 62
     2
440
 16777216
370
   100
100
AcDbMText
 10
-33606.85232846716
 20
26481.50083366891
 30
0.0
 40
25.0
 41
0.0
 46
0.0
 71
     5
 72
     1
  1
\A1;R25.00 [R0.98]
 11
0.9009688679022975
 21
0.4338837391178106
 31
0.0
 73
     1
 44
1.0
  0
SOLID
  5
DF
330
DB
100
AcDbEntity
  8
标注
 62
     2
440
 16777216
370
   100
100
AcDbTrace
 10
-33711.87372881718
 20
26435.5498439294
 30
0.0
 11
-33708.25803099121
 21
26428.04177003022
 31
0.0
 12
-33732.59010160175
 22
26420.94871350186
 32
0.0
 13
-33732.59010160175
 23
26420.94871350186
 33
0.0
  0
POINT
  5
E0
330
DB
100
AcDbEntity
  8
Defpoints
 62
     0
440
 16777216
370
   100
100
AcDbPoint
 10
-33732.59010160175
 20
26420.94871350186
 30
0.0
  0
POINT
  5
E1
330
DB
100
AcDbEntity
  8
Defpoints
 62
     0
440
 16777216
370
   100
100
AcDbPoint
 10
-33710.06587990422
 20
26431.7958069798
 30
0.0
  0
ENDBLK
  5
E2
330
DB
100
AcDbEntity
  8
0
 62
     0
370
   100
100
AcDbBlockEnd
  0
BLOCK
  5
E7
330
E6
100
AcDbEntity
  8
0
 62
     0
370
   100
100
AcDbBlockBegin
  2
*D5
 70
     1
 10
0.0
 20
0.0
 30
0.0
  3
*D5
  1

  0
LINE
  5
E8
330
E6
100
AcDbEntity
  8
标注
 62
     2
440
 16777216
100
AcDbLine
 10
-32898.72184926214
 20
26445.87880843133
 30
0.0
 11
-32878.06587990421
 21
26431.79580697977
 31
0.0
  0
MTEXT
  5
E9
330
E6
100
AcDbEntity
  8
标注
 62
     2
440
 16777216
370
   100
100
AcDbMText
 10
-32972.71847143135
 20
26496.32885119439
 30
0.0
 40
25.0
 41
0.0
 46
0.0
 71
     5
 72
     1
  1
\A1;R25.00 [R0.98]
 11
0.826238774316782
 21
-0.5633200580624674
 31
0.0
 73
     1
 44
1.0
  0
SOLID
  5
EA
330
E6
100
AcDbEntity
  8
标注
 62
     2
440
 16777216
370
   100
100
AcDbTrace
 10
-32875.71871299562
 20
26435.23846853942
 30
0.0
 11
-32880.41304681281
 21
26428.35314542011
 31
0.0
 12
-32857.4099105463
 22
26417.7128055282
 32
0.0
 13
-32857.4099105463
 23
26417.7128055282
 33
0.0
  0
POINT
  5
EB
330
E6
100
AcDbEntity
  8
Defpoints
 62
     0
440
 16777216
370
   100
100
AcDbPoint
 10
-32857.4099105463
 20
26417.7128055282
 30
0.0
  0
POINT
  5
EC
330
E6
100
AcDbEntity
  8
Defpoints
 62
     0
440
 16777216
370
   100
100
AcDbPoint
 10
-32878.06587990429
 20
26431.79580697982
 30
0.0
  0
ENDBLK
  5
ED
330
E6
100
AcDbEntity
  8
0
 62
     0
370
   100
100
AcDbBlockEnd
  0
BLOCK
  5
F2
330
F1
100
AcDbEntity
  8
0
 62
     0
370
   100
100
AcDbBlockBegin
  2
*D6
 70
     1
 10
0.0
 20
0.0
 30
0.0
  3
*D6
  1

  0
LINE
  5
F3
330
F1
100
AcDbEntity
  8
标注
 62
     2
440
 16777216
100
AcDbLine
 10
-33692.70643865457
 20
26763.22793112945
 30
0.0
 11
-33708.15574021662
 21
26782.88293256025
 31
0.0
  0
MTEXT
  5
F4
330
F1
100
AcDbEntity
  8
标注
 62
     2
440
 16777216
370
   100
100
AcDbMText
 10
-33637.3618498504
 20
26692.81711237731
 30
0.0
 40
25.0
 41
0.0
 46
0.0
 71
     5
 72
     1
  1
\A1;R30.00 [R1.18]
 11
0.6179720624821736
 21
-0.7862000572319547
 31
0.0
 73
     1
 44
1.0
  0
SOLID
  5
F5
330
F1
100
AcDbEntity
  8
标注
 62
     2
440
 16777216
370
   100
100
AcDbTrace
 10
-33704.87990664482
 20
26785.45781615393
 30
0.0
 11
-33711.43157378842
 21
26780.30804896657
 31
0.0
 12
-33723.60504177868
 22
26802.53793399105
 32
0.0
 13
-33723.60504177868
 23
26802.53793399105
 33
0.0
  0
POINT
  5
F6
330
F1
100
AcDbEntity
  8
Defpoints
 62
     0
440
 16777216
370
   100
100
AcDbPoint
 10
-33723.60504177868
 20
26802.53793399105
 30
0.0
  0
POINT
  5
F7
330
F1
100
AcDbEntity
  8
Defpoints
 62
     0
440
 16777216
370
   100
100
AcDbPoint
 10
-33705.0658799042
 20
26778.95193227407
 30
0.0
  0
ENDBLK
  5
F8
330
F1
100
AcDbEntity
  8
0
 62
     0
370
   100
100
AcDbBlockEnd
  0
BLOCK
  5
FD
330
FC
100
AcDbEntity
  8
0
 62
     0
370
   100
100
AcDbBlockBegin
  2
*D7
 70
     1
 10
0.0
 20
0.0
 30
0.0
  3
*D7
  1

  0
LINE
  5
FE
330
FC
100
AcDbEntity
  8
标注
 62
     2
440
 16777216
100
AcDbLine
 10
-33692.75968188131
 20
25762.11691337145
 30
0.0
 11
-33712.42581599817
 21
25746.6817856137
 31
0.0
  0
MTEXT
  5
FF
330
FC
100
AcDbEntity
  8
标注
 62
     2
440
 16777216
370
   100
100
AcDbMText
 10
-33622.30898210741
 20
25817.41072684651
 30
0.0
 40
25.0
 41
0.0
 46
0.0
 71
     5
 72
     1
  1
\A1;R28.00 [R1.10]
 11
0.7866453646741086
 21
0.6174051103098668
 31
0.0
 73
     1
 44
1.0
  0
SOLID
  5
100
330
FC
100
AcDbEntity
  8
标注
 62
     2
440
 16777216
370
   100
100
AcDbTrace
 10
-33714.99833729112
 20
25749.95947463317
 30
0.0
 11
-33709.85329470522
 21
25743.40409659423
 31
0.0
 12
-33732.09195011502
 22
25731.24665785595
 32
0.0
 13
-33732.09195011502
 23
25731.24665785595
 33
0.0
  0
POINT
  5
101
330
FC
100
AcDbEntity
  8
Defpoints
 62
     0
440
 16777216
370
   100
100
AcDbPoint
 10
-33732.09195011502
 20
25731.24665785595
 30
0.0
  0
POINT
  5
102
330
FC
100
AcDbEntity
  8
Defpoints
 62
     0
440
 16777216
370
   100
100
AcDbPoint
 10
-33710.06587990414
 20
25748.53400094463
 30
0.0
  0
ENDBLK
  5
103
330
FC
100
AcDbEntity
  8
0
 62
     0
370
   100
100
AcDbBlockEnd
  0
BLOCK
  5
108
330
107
100
AcDbEntity
  8
0
 62
     0
370
   100
100
AcDbBlockBegin
  2
*D8
 70
     1
 10
0.0
 20
0.0
 30
0.0
  3
*D8
  1

  0
LINE
  5
109
330
107
100
AcDbEntity
  8
标注
 62
     2
440
 16777216
100
AcDbLine
 10
-32892.85796338931
 20
25764.8187872856
 30
0.0
 11
-32876.04877761078
 21
25746.31334826183
 31
0.0
  0
MTEXT
  5
10A
330
107
100
AcDbEntity
  8
标注
 62
     2
440
 16777216
370
   100
100
AcDbMText
 10
-32953.07411434665
 20
25831.11148726932
 30
0.0
 40
25.0
 41
0.0
 46
0.0
 71
     5
 72
     1
  1
\A1;R28.00 [R1.10]
 11
0.6723674311415563
 21
-0.7402175609509037
 31
0.0
 73
     1
 44
1.0
  0
SOLID
  5
10B
330
107
100
AcDbEntity
  8
标注
 62
     2
440
 16777216
370
   100
100
AcDbTrace
 10
-32872.96453777348
 20
25749.11487922492
 30
0.0
 11
-32879.13301744807
 21
25743.51181729874
 31
0.0
 12
-32859.23959183224
 22
25727.80790923806
 32
0.0
 13
-32859.23959183224
 23
25727.80790923806
 33
0.0
  0
POINT
  5
10C
330
107
100
AcDbEntity
  8
Defpoints
 62
     0
440
 16777216
370
   100
100
AcDbPoint
 10
-32859.23959183224
 20
25727.80790923806
 30
0.0
  0
POINT
  5
10D
330
107
100
AcDbEntity
  8
Defpoints
 62
     0
440
 16777216
370
   100
100
AcDbPoint
 10
-32878.06587990419
 20
25748.53400094467
 30
0.0
  0
ENDBLK
  5
10E
330
107
100
AcDbEntity
  8
0
 62
     0
370
   100
100
AcDbBlockEnd
  0
BLOCK
  5
113
330
112
100
AcDbEntity
  8
0
 62
     0
370
   100
100
AcDbBlockBegin
  2
*D9
 70
     1
 10
0.0
 20
0.0
 30
0.0
  3
*D9
  1

  0
LINE
  5
114
330
112
100
AcDbEntity
  8
标注
 62
     2
440
 16777216
100
AcDbLine
 10
-33689.19811908709
 20
26089.58978471959
 30
0.0
 11
-33712.53306146517
 21
26098.56087518908
 31
0.0
  0
MTEXT
  5
115
330
112
100
AcDbEntity
  8
标注
 62
     2
440
 16777216
370
   100
100
AcDbMText
 10
-33605.60451548653
 20
26057.45232457849
 30
0.0
 40
25.0
 41
0.0
 46
0.0
 71
     5
 72
     1
  1
\A1;R33.00 [R1.30]
 11
0.9333976951232443
 21
-0.3588436187792881
 31
0.0
 73
     1
 44
1.0
  0
SOLID
  5
116
330
112
100
AcDbEntity
  8
标注
 62
     2
440
 16777216
370
   100
100
AcDbTrace
 10
-33711.03787972026
 20
26102.45003225209
 30
0.0
 11
-33714.02824321009
 21
26094.67171812606
 31
0.0
 12
-33735.86800384325
 22
26107.53196565856
 32
0.0
 13
-33735.86800384325
 23
26107.53196565856
 33
0.0
  0
POINT
  5
117
330
112
100
AcDbEntity
  8
Defpoints
 62
     0
440
 16777216
370
   100
100
AcDbPoint
 10
-33735.86800384325
 20
26107.53196565856
 30
0.0
  0
POINT
  5
118
330
112
100
AcDbEntity
  8
Defpoints
 62
     0
440
 16777216
370
   100
100
AcDbPoint
 10
-33705.06587990417
 20
26095.69012623884
 30
0.0
  0
ENDBLK
  5
119
330
112
100
AcDbEntity
  8
0
 62
     0
370
   100
100
AcDbBlockEnd
  0
BLOCK
  5
11E
330
11D
100
AcDbEntity
  8
0
 62
     0
370
   100
100
AcDbBlockBegin
  2
*D10
 70
     1
 10
0.0
 20
0.0
 30
0.0
  3
*D10
  1

  0
LINE
  5
11F
330
11D
100
AcDbEntity
  8
标注
 62
     2
440
 16777216
100
AcDbLine
 10
-33226.01651061933
 20
26071.84784939871
 30
0.0
 11
-33209.85135607103
 21
26090.91844924323
 31
0.0
  0
MTEXT
  5
120
330
11D
100
AcDbEntity
  8
标注
 62
     2
440
 16777216
370
   100
100
AcDbMText
 10
-33283.92552533031
 20
26003.53055347409
 30
0.0
 40
25.0
 41
0.0
 46
0.0
 71
     5
 72
     1
  1
\A1;R23.00 [R0.91]
 11
0.6466061819319339
 21
0.7628239937806144
 31
0.0
 73
     1
 44
1.0
  0
SOLID
  5
121
330
11D
100
AcDbEntity
  8
标注
 62
     2
440
 16777216
370
   100
100
AcDbTrace
 10
-33213.02978937845
 20
26093.61264166794
 30
0.0
 11
-33206.67292276361
 21
26088.22425681851
 31
0.0
 12
-33193.68620152273
 22
26109.98904908774
 32
0.0
 13
-33193.68620152273
 23
26109.98904908774
 33
0.0
  0
ARC
  5
122
330
11D
100
AcDbEntity
  8
标注
 62
     2
440
 16777216
100
AcDbCircle
 10
-33178.81425933829
 20
26127.53400094469
 30
0.0
 40
22.99999999999272
100
AcDbArc
 50
229.2653896851751
 51
233.6361467080728
  0
POINT
  5
123
330
11D
100
AcDbEntity
  8
Defpoints
 62
     0
440
 16777216
370
   100
100
AcDbPoint
 10
-33193.68620152273
 20
26109.98904908774
 30
0.0
  0
POINT
  5
124
330
11D
100
AcDbEntity
  8
Defpoints
 62
     0
440
 16777216
370
   100
100
AcDbPoint
 10
-33178.81425933829
 20
26127.53400094469
 30
0.0
  0
ENDBLK
  5
125
330
11D
100
AcDbEntity
  8
0
 62
     0
370
   100
100
AcDbBlockEnd
  0
BLOCK
  5
128
330
127
100
AcDbEntity
  8
0
 62
     0
370
   100
100
AcDbBlockBegin
  2
*D11
 70
     1
 10
0.0
 20
0.0
 30
0.0
  3
*D11
  1

  0
LINE
  5
129
330
127
100
AcDbEntity
  8
标注
 62
     2
440
 16777216
100
AcDbLine
 10
-33472.06587990419
 20
26199.53400094469
 30
0.0
 11
-33817.18531503714
 21
26199.53400094469
 31
0.0
  0
LINE
  5
12A
330
127
100
AcDbEntity
  8
标注
 62
     2
440
 16777216
100
AcDbLine
 10
-33472.06587990419
 20
25720.53400094469
 30
0.0
 11
-33817.18531503714
 21
25720.53400094469
 31
0.0
  0
LINE
  5
12B
330
127
100
AcDbEntity
  8
标注
 62
     2
440
 16777216
100
AcDbLine
 10
-33817.00531503714
 20
26174.53400094469
 30
0.0
 11
-33817.00531503714
 21
26044.80526987043
 31
0.0
  0
LINE
  5
12C
330
127
100
AcDbEntity
  8
标注
 62
     2
440
 16777216
100
AcDbLine
 10
-33817.00531503714
 20
25745.53400094469
 30
0.0
 11
-33817.00531503714
 21
25875.26273201895
 31
0.0
  0
SOLID
  5
12D
330
127
100
AcDbEntity
  8
标注
 62
     2
440
 16777216
370
   100
100
AcDbTrace
 10
-33821.17198170381
 20
26174.53400094469
 30
0.0
 11
-33812.83864837048
 21
26174.53400094469
 31
0.0
 12
-33817.00531503714
 22
26199.53400094469
 32
0.0
 13
-33817.00531503714
 23
26199.53400094469
 33
0.0
  0
SOLID
  5
12E
330
127
100
AcDbEntity
  8
标注
 62
     2
440
 16777216
370
   100
100
AcDbTrace
 10
-33821.17198170381
 20
25745.53400094469
 30
0.0
 11
-33812.83864837048
 21
25745.53400094469
 31
0.0
 12
-33817.00531503714
 22
25720.53400094469
 32
0.0
 13
-33817.00531503714
 23
25720.53400094469
 33
0.0
  0
MTEXT
  5
12F
330
127
100
AcDbEntity
  8
标注
 62
     2
440
 16777216
370
   100
100
AcDbMText
 10
-33817.00531503715
 20
25960.03400094469
 30
0.0
 40
25.0
 41
0.0
 46
0.0
 71
     5
 72
     1
  1
\A1;479.00 [18.86]
 11
0.0000000000000001
 21
1.0
 31
0.0
 73
     1
 44
1.0
  0
POINT
  5
130
330
127
100
AcDbEntity
  8
Defpoints
 62
     0
440
 16777216
370
   100
100
AcDbPoint
 10
-33470.06587990419
 20
26199.53400094469
 30
0.0
  0
POINT
  5
131
330
127
100
AcDbEntity
  8
Defpoints
 62
     0
440
 16777216
370
   100
100
AcDbPoint
 10
-33470.06587990419
 20
25720.53400094469
 30
0.0
  0
POINT
  5
132
330
127
100
AcDbEntity
  8
Defpoints
 62
     0
440
 16777216
370
   100
100
AcDbPoint
 10
-33817.00531503714
 20
25720.53400094469
 30
0.0
  0
ENDBLK
  5
133
330
127
100
AcDbEntity
  8
0
 62
     0
370
   100
100
AcDbBlockEnd
  0
BLOCK
  5
138
330
137
100
AcDbEntity
  8
0
 62
     0
370
   100
100
AcDbBlockBegin
  2
*D12
 70
     1
 10
0.0
 20
0.0
 30
0.0
  3
*D12
  1

  0
LINE
  5
139
330
137
100
AcDbEntity
  8
标注
 62
     2
440
 16777216
100
AcDbLine
 10
-32876.0658799042
 20
26104.53400094469
 30
0.0
 11
-32774.30802464698
 21
26104.53400094469
 31
0.0
  0
LINE
  5
13A
330
137
100
AcDbEntity
  8
标注
 62
     2
440
 16777216
100
AcDbLine
 10
-32874.06587990419
 20
25720.53400094469
 30
0.0
 11
-32774.30802464698
 21
25720.53400094469
 31
0.0
  0
LINE
  5
13B
330
137
100
AcDbEntity
  8
标注
 62
     2
440
 16777216
100
AcDbLine
 10
-32774.48802464698
 20
26079.53400094469
 30
0.0
 11
-32774.48802464698
 21
25996.94676230013
 31
0.0
  0
LINE
  5
13C
330
137
100
AcDbEntity
  8
标注
 62
     2
440
 16777216
100
AcDbLine
 10
-32774.48802464698
 20
25745.53400094469
 30
0.0
 11
-32774.48802464698
 21
25828.12123958925
 31
0.0
  0
SOLID
  5
13D
330
137
100
AcDbEntity
  8
标注
 62
     2
440
 16777216
370
   100
100
AcDbTrace
 10
-32778.65469131364
 20
26079.53400094469
 30
0.0
 11
-32770.32135798031
 21
26079.53400094469
 31
0.0
 12
-32774.48802464698
 22
26104.53400094469
 32
0.0
 13
-32774.48802464698
 23
26104.53400094469
 33
0.0
  0
SOLID
  5
13E
330
137
100
AcDbEntity
  8
标注
 62
     2
440
 16777216
370
   100
100
AcDbTrace
 10
-32778.65469131364
 20
25745.53400094469
 30
0.0
 11
-32770.32135798031
 21
25745.53400094469
 31
0.0
 12
-32774.48802464698
 22
25720.53400094469
 32
0.0
 13
-32774.48802464698
 23
25720.53400094469
 33
0.0
  0
MTEXT
  5
13F
330
137
100
AcDbEntity
  8
标注
 62
     2
440
 16777216
370
   100
100
AcDbMText
 10
-32774.48802464698
 20
25912.53400094469
 30
0.0
 40
25.0
 41
0.0
 46
0.0
 71
     5
 72
     1
  1
\A1;384.00 [15.12]
 11
0.0000000000000001
 21
1.0
 31
0.0
 73
     1
 44
1.0
  0
POINT
  5
140
330
137
100
AcDbEntity
  8
Defpoints
 62
     0
440
 16777216
370
   100
100
AcDbPoint
 10
-32878.0658799042
 20
26104.53400094469
 30
0.0
  0
POINT
  5
141
330
137
100
AcDbEntity
  8
Defpoints
 62
     0
440
 16777216
370
   100
100
AcDbPoint
 10
-32876.06587990419
 20
25720.53400094469
 30
0.0
  0
POINT
  5
142
330
137
100
AcDbEntity
  8
Defpoints
 62
     0
440
 16777216
370
   100
100
AcDbPoint
 10
-32774.48802464698
 20
25720.53400094469
 30
0.0
  0
ENDBLK
  5
143
330
137
100
AcDbEntity
  8
0
 62
     0
370
   100
100
AcDbBlockEnd
  0
BLOCK
  5
146
330
145
100
AcDbEntity
  8
0
 62
     0
370
   100
100
AcDbBlockBegin
  2
*D13
 70
     1
 10
0.0
 20
0.0
 30
0.0
  3
*D13
  1

  0
LINE
  5
147
330
145
100
AcDbEntity
  8
标注
 62
     2
440
 16777216
100
AcDbLine
 10
-33738.06587990419
 20
25744.53400094469
 30
0.0
 11
-33738.06587990419
 21
25651.1038584736
 31
0.0
  0
LINE
  5
148
330
145
100
AcDbEntity
  8
标注
 62
     2
440
 16777216
100
AcDbLine
 10
-32850.0658799042
 20
25744.53400094469
 30
0.0
 11
-32850.0658799042
 21
25651.1038584736
 31
0.0
  0
LINE
  5
149
330
145
100
AcDbEntity
  8
标注
 62
     2
440
 16777216
100
AcDbLine
 10
-33713.06587990419
 20
25651.28385847359
 30
0.0
 11
-33378.19042929136
 21
25651.28385847359
 31
0.0
  0
LINE
  5
14A
330
145
100
AcDbEntity
  8
标注
 62
     2
440
 16777216
100
AcDbLine
 10
-32875.06587990419
 20
25651.28385847359
 30
0.0
 11
-33209.94133051702
 21
25651.28385847359
 31
0.0
  0
SOLID
  5
14B
330
145
100
AcDbEntity
  8
标注
 62
     2
440
 16777216
370
   100
100
AcDbTrace
 10
-33713.06587990419
 20
25655.45052514026
 30
0.0
 11
-33713.06587990419
 21
25647.11719180693
 31
0.0
 12
-33738.06587990419
 22
25651.28385847359
 32
0.0
 13
-33738.06587990419
 23
25651.28385847359
 33
0.0
  0
SOLID
  5
14C
330
145
100
AcDbEntity
  8
标注
 62
     2
440
 16777216
370
   100
100
AcDbTrace
 10
-32875.06587990419
 20
25655.45052514026
 30
0.0
 11
-32875.06587990419
 21
25647.11719180693
 31
0.0
 12
-32850.0658799042
 22
25651.28385847359
 32
0.0
 13
-32850.0658799042
 23
25651.28385847359
 33
0.0
  0
MTEXT
  5
14D
330
145
100
AcDbEntity
  8
标注
 62
     2
440
 16777216
370
   100
100
AcDbMText
 10
-33294.06587990419
 20
25651.28385847359
 30
0.0
 40
25.0
 41
0.0
 46
0.0
 71
     5
 72
     1
  1
\A1;888.00 [34.96]
 73
     1
 44
1.0
  0
POINT
  5
14E
330
145
100
AcDbEntity
  8
Defpoints
 62
     0
440
 16777216
370
   100
100
AcDbPoint
 10
-33738.06587990419
 20
25746.53400094469
 30
0.0
  0
POINT
  5
14F
330
145
100
AcDbEntity
  8
Defpoints
 62
     0
440
 16777216
370
   100
100
AcDbPoint
 10
-32850.0658799042
 20
25746.53400094469
 30
0.0
  0
POINT
  5
150
330
145
100
AcDbEntity
  8
Defpoints
 62
     0
440
 16777216
370
   100
100
AcDbPoint
 10
-32850.0658799042
 20
25651.28385847359
 30
0.0
  0
ENDBLK
  5
151
330
145
100
AcDbEntity
  8
0
 62
     0
370
   100
100
AcDbBlockEnd
  0
BLOCK
  5
156
330
155
100
AcDbEntity
  8
0
 62
     0
370
   100
100
AcDbBlockBegin
  2
*D14
 70
     1
 10
0.0
 20
0.0
 30
0.0
  3
*D14
  1

  0
LINE
  5
157
330
155
100
AcDbEntity
  8
标注
 62
     2
440
 16777216
100
AcDbLine
 10
-32445.18286719886
 20
26378.7958069798
 30
0.0
 11
-32558.92484356812
 21
26378.7958069798
 31
0.0
  0
LINE
  5
158
330
155
100
AcDbEntity
  8
标注
 62
     2
440
 16777216
100
AcDbLine
 10
-32182.18286719886
 20
26907.7958069798
 30
0.0
 11
-32558.92484356812
 21
26907.7958069798
 31
0.0
  0
LINE
  5
159
330
155
100
AcDbEntity
  8
标注
 62
     2
440
 16777216
100
AcDbLine
 10
-32558.74484356812
 20
26403.7958069798
 30
0.0
 11
-32558.74484356812
 21
26558.98848902738
 31
0.0
  0
LINE
  5
15A
330
155
100
AcDbEntity
  8
标注
 62
     2
440
 16777216
100
AcDbLine
 10
-32558.74484356812
 20
26882.7958069798
 30
0.0
 11
-32558.74484356812
 21
26727.60312493221
 31
0.0
  0
SOLID
  5
15B
330
155
100
AcDbEntity
  8
标注
 62
     2
440
 16777216
370
   100
100
AcDbTrace
 10
-32562.91151023479
 20
26403.7958069798
 30
0.0
 11
-32554.57817690146
 21
26403.7958069798
 31
0.0
 12
-32558.74484356812
 22
26378.7958069798
 32
0.0
 13
-32558.74484356812
 23
26378.7958069798
 33
0.0
  0
SOLID
  5
15C
330
155
100
AcDbEntity
  8
标注
 62
     2
440
 16777216
370
   100
100
AcDbTrace
 10
-32562.91151023479
 20
26882.7958069798
 30
0.0
 11
-32554.57817690146
 21
26882.7958069798
 31
0.0
 12
-32558.74484356812
 22
26907.7958069798
 32
0.0
 13
-32558.74484356812
 23
26907.7958069798
 33
0.0
  0
MTEXT
  5
15D
330
155
100
AcDbEntity
  8
标注
 62
     2
440
 16777216
370
   100
100
AcDbMText
 10
-32558.74484356813
 20
26643.29580697979
 30
0.0
 40
25.0
 41
0.0
 46
0.0
 71
     5
 72
     1
  1
\A1;529.00 [20.83]
 11
0.0000000000000001
 21
1.0
 31
0.0
 73
     1
 44
1.0
  0
POINT
  5
15E
330
155
100
AcDbEntity
  8
Defpoints
 62
     0
440
 16777216
370
   100
100
AcDbPoint
 10
-32443.18286719886
 20
26378.7958069798
 30
0.0
  0
POINT
  5
15F
330
155
100
AcDbEntity
  8
Defpoints
 62
     0
440
 16777216
370
   100
100
AcDbPoint
 10
-32180.18286719886
 20
26907.7958069798
 30
0.0
  0
POINT
  5
160
330
155
100
AcDbEntity
  8
Defpoints
 62
     0
440
 16777216
370
   100
100
AcDbPoint
 10
-32558.74484356812
 20
26907.7958069798
 30
0.0
  0
ENDBLK
  5
161
330
155
100
AcDbEntity
  8
0
 62
     0
370
   100
100
AcDbBlockEnd
  0
BLOCK
  5
166
330
165
100
AcDbEntity
  8
0
 62
     0
370
   100
100
AcDbBlockBegin
  2
*D15
 70
     1
 10
0.0
 20
0.0
 30
0.0
  3
*D15
  1

  0
LINE
  5
167
330
165
100
AcDbEntity
  8
标注
 62
     2
440
 16777216
100
AcDbLine
 10
-32182.18286719886
 20
26879.7958069798
 30
0.0
 11
-32495.66024325602
 21
26879.7958069798
 31
0.0
  0
LINE
  5
168
330
165
100
AcDbEntity
  8
标注
 62
     2
440
 16777216
100
AcDbLine
 10
-32422.18286719886
 20
26406.7958069798
 30
0.0
 11
-32495.66024325602
 21
26406.7958069798
 31
0.0
  0
LINE
  5
169
330
165
100
AcDbEntity
  8
标注
 62
     2
440
 16777216
100
AcDbLine
 10
-32495.48024325602
 20
26854.7958069798
 30
0.0
 11
-32495.48024325602
 21
26728.06707590554
 31
0.0
  0
LINE
  5
16A
330
165
100
AcDbEntity
  8
标注
 62
     2
440
 16777216
100
AcDbLine
 10
-32495.48024325602
 20
26431.7958069798
 30
0.0
 11
-32495.48024325602
 21
26558.52453805406
 31
0.0
  0
SOLID
  5
16B
330
165
100
AcDbEntity
  8
标注
 62
     2
440
 16777216
370
   100
100
AcDbTrace
 10
-32499.64690992269
 20
26854.7958069798
 30
0.0
 11
-32491.31357658935
 21
26854.7958069798
 31
0.0
 12
-32495.48024325602
 22
26879.7958069798
 32
0.0
 13
-32495.48024325602
 23
26879.7958069798
 33
0.0
  0
SOLID
  5
16C
330
165
100
AcDbEntity
  8
标注
 62
     2
440
 16777216
370
   100
100
AcDbTrace
 10
-32499.64690992269
 20
26431.7958069798
 30
0.0
 11
-32491.31357658935
 21
26431.7958069798
 31
0.0
 12
-32495.48024325602
 22
26406.7958069798
 32
0.0
 13
-32495.48024325602
 23
26406.7958069798
 33
0.0
  0
MTEXT
  5
16D
330
165
100
AcDbEntity
  8
标注
 62
     2
440
 16777216
370
   100
100
AcDbMText
 10
-32495.48024325603
 20
26643.29580697979
 30
0.0
 40
25.0
 41
0.0
 46
0.0
 71
     5
 72
     1
  1
\A1;473.00 [18.62]
 11
0.0000000000000001
 21
1.0
 31
0.0
 73
     1
 44
1.0
  0
POINT
  5
16E
330
165
100
AcDbEntity
  8
Defpoints
 62
     0
440
 16777216
370
   100
100
AcDbPoint
 10
-32180.18286719886
 20
26879.7958069798
 30
0.0
  0
POINT
  5
16F
330
165
100
AcDbEntity
  8
Defpoints
 62
     0
440
 16777216
370
   100
100
AcDbPoint
 10
-32420.18286719885
 20
26406.7958069798
 30
0.0
  0
POINT
  5
170
330
165
100
AcDbEntity
  8
Defpoints
 62
     0
440
 16777216
370
   100
100
AcDbPoint
 10
-32495.48024325602
 20
26406.7958069798
 30
0.0
  0
ENDBLK
  5
171
330
165
100
AcDbEntity
  8
0
 62
     0
370
   100
100
AcDbBlockEnd
  0
BLOCK
  5
176
330
175
100
AcDbEntity
  8
0
 62
     0
370
   100
100
AcDbBlockBegin
  2
*D16
 70
     1
 10
0.0
 20
0.0
 30
0.0
  3
*D16
  1

  0
LINE
  5
177
330
175
100
AcDbEntity
  8
标注
 62
     2
440
 16777216
100
AcDbLine
 10
-32445.18286719886
 20
26429.7958069798
 30
0.0
 11
-32445.18286719886
 21
26340.97075992516
 31
0.0
  0
LINE
  5
178
330
175
100
AcDbEntity
  8
标注
 62
     2
440
 16777216
100
AcDbLine
 10
-31911.18286719885
 20
26429.7958069798
 30
0.0
 11
-31911.18286719885
 21
26340.97075992516
 31
0.0
  0
LINE
  5
179
330
175
100
AcDbEntity
  8
标注
 62
     2
440
 16777216
100
AcDbLine
 10
-32420.18286719886
 20
26341.15075992516
 30
0.0
 11
-32262.49018515127
 21
26341.15075992516
 31
0.0
  0
LINE
  5
17A
330
175
100
AcDbEntity
  8
标注
 62
     2
440
 16777216
100
AcDbLine
 10
-31936.18286719885
 20
26341.15075992516
 30
0.0
 11
-32093.87554924644
 21
26341.15075992516
 31
0.0
  0
SOLID
  5
17B
330
175
100
AcDbEntity
  8
标注
 62
     2
440
 16777216
370
   100
100
AcDbTrace
 10
-32420.18286719886
 20
26345.31742659183
 30
0.0
 11
-32420.18286719886
 21
26336.98409325849
 31
0.0
 12
-32445.18286719886
 22
26341.15075992516
 32
0.0
 13
-32445.18286719886
 23
26341.15075992516
 33
0.0
  0
SOLID
  5
17C
330
175
100
AcDbEntity
  8
标注
 62
     2
440
 16777216
370
   100
100
AcDbTrace
 10
-31936.18286719885
 20
26345.31742659183
 30
0.0
 11
-31936.18286719885
 21
26336.98409325849
 31
0.0
 12
-31911.18286719885
 22
26341.15075992516
 32
0.0
 13
-31911.18286719885
 23
26341.15075992516
 33
0.0
  0
MTEXT
  5
17D
330
175
100
AcDbEntity
  8
标注
 62
     2
440
 16777216
370
   100
100
AcDbMText
 10
-32178.18286719885
 20
26341.15075992516
 30
0.0
 40
25.0
 41
0.0
 46
0.0
 71
     5
 72
     1
  1
\A1;534.00 [21.02]
 73
     1
 44
1.0
  0
POINT
  5
17E
330
175
100
AcDbEntity
  8
Defpoints
 62
     0
440
 16777216
370
   100
100
AcDbPoint
 10
-32445.18286719886
 20
26431.7958069798
 30
0.0
  0
POINT
  5
17F
330
175
100
AcDbEntity
  8
Defpoints
 62
     0
440
 16777216
370
   100
100
AcDbPoint
 10
-31911.18286719885
 20
26431.7958069798
 30
0.0
  0
POINT
  5
180
330
175
100
AcDbEntity
  8
Defpoints
 62
     0
440
 16777216
370
   100
100
AcDbPoint
 10
-31911.18286719885
 20
26341.15075992516
 30
0.0
  0
ENDBLK
  5
181
330
175
100
AcDbEntity
  8
0
 62
     0
370
   100
100
AcDbBlockEnd
  0
BLOCK
  5
186
330
185
100
AcDbEntity
  8
0
 62
     0
370
   100
100
AcDbBlockBegin
  2
*D17
 70
     1
 10
0.0
 20
0.0
 30
0.0
  3
*D17
  1

  0
LINE
  5
187
330
185
100
AcDbEntity
  8
标注
 62
     2
440
 16777216
100
AcDbLine
 10
-31881.18286719886
 20
26429.7958069798
 30
0.0
 11
-31881.18286719886
 21
26329.23418475965
 31
0.0
  0
LINE
  5
188
330
185
100
AcDbEntity
  8
标注
 62
     2
440
 16777216
100
AcDbLine
 10
-31563.18286719886
 20
26429.7958069798
 30
0.0
 11
-31563.18286719886
 21
26329.23418475965
 31
0.0
  0
LINE
  5
189
330
185
100
AcDbEntity
  8
标注
 62
     2
440
 16777216
100
AcDbLine
 10
-31856.18286719885
 20
26329.41418475965
 30
0.0
 11
-31806.5956285543
 21
26329.41418475965
 31
0.0
  0
LINE
  5
18A
330
185
100
AcDbEntity
  8
标注
 62
     2
440
 16777216
100
AcDbLine
 10
-31588.18286719886
 20
26329.41418475965
 30
0.0
 11
-31637.77010584341
 21
26329.41418475965
 31
0.0
  0
SOLID
  5
18B
330
185
100
AcDbEntity
  8
标注
 62
     2
440
 16777216
370
   100
100
AcDbTrace
 10
-31856.18286719885
 20
26333.58085142632
 30
0.0
 11
-31856.18286719885
 21
26325.24751809298
 31
0.0
 12
-31881.18286719886
 22
26329.41418475965
 32
0.0
 13
-31881.18286719886
 23
26329.41418475965
 33
0.0
  0
SOLID
  5
18C
330
185
100
AcDbEntity
  8
标注
 62
     2
440
 16777216
370
   100
100
AcDbTrace
 10
-31588.18286719886
 20
26333.58085142632
 30
0.0
 11
-31588.18286719886
 21
26325.24751809298
 31
0.0
 12
-31563.18286719886
 22
26329.41418475965
 32
0.0
 13
-31563.18286719886
 23
26329.41418475965
 33
0.0
  0
MTEXT
  5
18D
330
185
100
AcDbEntity
  8
标注
 62
     2
440
 16777216
370
   100
100
AcDbMText
 10
-31722.18286719886
 20
26329.41418475965
 30
0.0
 40
25.0
 41
0.0
 46
0.0
 71
     5
 72
     1
  1
\A1;318.00 [12.52]
 73
     1
 44
1.0
  0
POINT
  5
18E
330
185
100
AcDbEntity
  8
Defpoints
 62
     0
440
 16777216
370
   100
100
AcDbPoint
 10
-31881.18286719886
 20
26431.7958069798
 30
0.0
  0
POINT
  5
18F
330
185
100
AcDbEntity
  8
Defpoints
 62
     0
440
 16777216
370
   100
100
AcDbPoint
 10
-31563.18286719886
 20
26431.7958069798
 30
0.0
  0
POINT
  5
190
330
185
100
AcDbEntity
  8
Defpoints
 62
     0
440
 16777216
370
   100
100
AcDbPoint
 10
-31563.18286719886
 20
26329.41418475965
 30
0.0
  0
ENDBLK
  5
191
330
185
100
AcDbEntity
  8
0
 62
     0
370
   100
100
AcDbBlockEnd
  0
BLOCK
  5
196
330
195
100
AcDbEntity
  8
0
 62
     0
370
   100
100
AcDbBlockBegin
  2
*D18
 70
     1
 10
0.0
 20
0.0
 30
0.0
  3
*D18
  1

  0
LINE
  5
197
330
195
100
AcDbEntity
  8
标注
 62
     2
440
 16777216
100
AcDbLine
 10
-32473.18286719885
 20
26406.7958069798
 30
0.0
 11
-32473.18286719885
 21
26278.33459432014
 31
0.0
  0
LINE
  5
198
330
195
100
AcDbEntity
  8
标注
 62
     2
440
 16777216
100
AcDbLine
 10
-31535.18286719886
 20
26406.7958069798
 30
0.0
 11
-31535.18286719886
 21
26278.33459432014
 31
0.0
  0
LINE
  5
199
330
195
100
AcDbEntity
  8
标注
 62
     2
440
 16777216
100
AcDbLine
 10
-32448.18286719886
 20
26278.51459432013
 30
0.0
 11
-32088.6096876747
 21
26278.51459432013
 31
0.0
  0
LINE
  5
19A
330
195
100
AcDbEntity
  8
标注
 62
     2
440
 16777216
100
AcDbLine
 10
-31560.18286719886
 20
26278.51459432013
 30
0.0
 11
-31919.75604672301
 21
26278.51459432013
 31
0.0
  0
SOLID
  5
19B
330
195
100
AcDbEntity
  8
标注
 62
     2
440
 16777216
370
   100
100
AcDbTrace
 10
-32448.18286719886
 20
26282.6812609868
 30
0.0
 11
-32448.18286719886
 21
26274.34792765347
 31
0.0
 12
-32473.18286719885
 22
26278.51459432013
 32
0.0
 13
-32473.18286719885
 23
26278.51459432013
 33
0.0
  0
SOLID
  5
19C
330
195
100
AcDbEntity
  8
标注
 62
     2
440
 16777216
370
   100
100
AcDbTrace
 10
-31560.18286719886
 20
26282.6812609868
 30
0.0
 11
-31560.18286719886
 21
26274.34792765347
 31
0.0
 12
-31535.18286719886
 22
26278.51459432013
 32
0.0
 13
-31535.18286719886
 23
26278.51459432013
 33
0.0
  0
MTEXT
  5
19D
330
195
100
AcDbEntity
  8
标注
 62
     2
440
 16777216
370
   100
100
AcDbMText
 10
-32004.18286719886
 20
26278.51459432013
 30
0.0
 40
25.0
 41
0.0
 46
0.0
 71
     5
 72
     1
  1
\A1;938.00 [36.93]
 73
     1
 44
1.0
  0
POINT
  5
19E
330
195
100
AcDbEntity
  8
Defpoints
 62
     0
440
 16777216
370
   100
100
AcDbPoint
 10
-32473.18286719885
 20
26408.7958069798
 30
0.0
  0
POINT
  5
19F
330
195
100
AcDbEntity
  8
Defpoints
 62
     0
440
 16777216
370
   100
100
AcDbPoint
 10
-31535.18286719886
 20
26408.7958069798
 30
0.0
  0
POINT
  5
1A0
330
195
100
AcDbEntity
  8
Defpoints
 62
     0
440
 16777216
370
   100
100
AcDbPoint
 10
-31535.18286719886
 20
26278.51459432013
 30
0.0
  0
ENDBLK
  5
1A1
330
195
100
AcDbEntity
  8
0
 62
     0
370
   100
100
AcDbBlockEnd
  0
BLOCK
  5
1A6
330
1A5
100
AcDbEntity
  8
0
 62
     0
370
   100
100
AcDbBlockBegin
  2
*D19
 70
     1
 10
0.0
 20
0.0
 30
0.0
  3
*D19
  1

  0
LINE
  5
1A7
330
1A5
100
AcDbEntity
  8
标注
 62
     2
440
 16777216
100
AcDbLine
 10
-31586.18286719886
 20
26406.7958069798
 30
0.0
 11
-31460.76580995132
 21
26406.7958069798
 31
0.0
  0
LINE
  5
1A8
330
1A5
100
AcDbEntity
  8
标注
 62
     2
440
 16777216
100
AcDbLine
 10
-31586.18286719886
 20
26784.7958069798
 30
0.0
 11
-31460.76580995132
 21
26784.7958069798
 31
0.0
  0
LINE
  5
1A9
330
1A5
100
AcDbEntity
  8
标注
 62
     2
440
 16777216
100
AcDbLine
 10
-31460.94580995132
 20
26431.7958069798
 30
0.0
 11
-31460.94580995132
 21
26511.38304562435
 31
0.0
  0
LINE
  5
1AA
330
1A5
100
AcDbEntity
  8
标注
 62
     2
440
 16777216
100
AcDbLine
 10
-31460.94580995132
 20
26759.7958069798
 30
0.0
 11
-31460.94580995132
 21
26680.20856833524
 31
0.0
  0
SOLID
  5
1AB
330
1A5
100
AcDbEntity
  8
标注
 62
     2
440
 16777216
370
   100
100
AcDbTrace
 10
-31465.11247661799
 20
26431.7958069798
 30
0.0
 11
-31456.77914328465
 21
26431.7958069798
 31
0.0
 12
-31460.94580995132
 22
26406.7958069798
 32
0.0
 13
-31460.94580995132
 23
26406.7958069798
 33
0.0
  0
SOLID
  5
1AC
330
1A5
100
AcDbEntity
  8
标注
 62
     2
440
 16777216
370
   100
100
AcDbTrace
 10
-31465.11247661799
 20
26759.7958069798
 30
0.0
 11
-31456.77914328465
 21
26759.7958069798
 31
0.0
 12
-31460.94580995132
 22
26784.7958069798
 32
0.0
 13
-31460.94580995132
 23
26784.7958069798
 33
0.0
  0
MTEXT
  5
1AD
330
1A5
100
AcDbEntity
  8
标注
 62
     2
440
 16777216
370
   100
100
AcDbMText
 10
-31460.94580995133
 20
26595.79580697979
 30
0.0
 40
25.0
 41
0.0
 46
0.0
 71
     5
 72
     1
  1
\A1;378.00 [14.88]
 11
0.0000000000000001
 21
1.0
 31
0.0
 73
     1
 44
1.0
  0
POINT
  5
1AE
330
1A5
100
AcDbEntity
  8
Defpoints
 62
     0
440
 16777216
370
   100
100
AcDbPoint
 10
-31588.18286719886
 20
26406.7958069798
 30
0.0
  0
POINT
  5
1AF
330
1A5
100
AcDbEntity
  8
Defpoints
 62
     0
440
 16777216
370
   100
100
AcDbPoint
 10
-31588.18286719886
 20
26784.7958069798
 30
0.0
  0
POINT
  5
1B0
330
1A5
100
AcDbEntity
  8
Defpoints
 62
     0
440
 16777216
370
   100
100
AcDbPoint
 10
-31460.94580995132
 20
26784.7958069798
 30
0.0
  0
ENDBLK
  5
1B1
330
1A5
100
AcDbEntity
  8
0
 62
     0
370
   100
100
AcDbBlockEnd
  0
BLOCK
  5
1B6
330
1B5
100
AcDbEntity
  8
0
 62
     0
370
   100
100
AcDbBlockBegin
  2
*D20
 70
     1
 10
0.0
 20
0.0
 30
0.0
  3
*D20
  1

  0
LINE
  5
1B7
330
1B5
100
AcDbEntity
  8
标注
 62
     2
440
 16777216
100
AcDbLine
 10
-31563.18286719886
 20
26378.7958069798
 30
0.0
 11
-31402.02529066599
 21
26378.7958069798
 31
0.0
  0
LINE
  5
1B8
330
1B5
100
AcDbEntity
  8
标注
 62
     2
440
 16777216
100
AcDbLine
 10
-31563.18286719886
 20
26812.7958069798
 30
0.0
 11
-31402.02529066599
 21
26812.7958069798
 31
0.0
  0
LINE
  5
1B9
330
1B5
100
AcDbEntity
  8
标注
 62
     2
440
 16777216
100
AcDbLine
 10
-31402.20529066599
 20
26403.7958069798
 30
0.0
 11
-31402.20529066599
 21
26511.02453805406
 31
0.0
  0
LINE
  5
1BA
330
1B5
100
AcDbEntity
  8
标注
 62
     2
440
 16777216
100
AcDbLine
 10
-31402.20529066599
 20
26787.7958069798
 30
0.0
 11
-31402.20529066599
 21
26680.56707590554
 31
0.0
  0
SOLID
  5
1BB
330
1B5
100
AcDbEntity
  8
标注
 62
     2
440
 16777216
370
   100
100
AcDbTrace
 10
-31406.37195733266
 20
26403.7958069798
 30
0.0
 11
-31398.03862399932
 21
26403.7958069798
 31
0.0
 12
-31402.20529066599
 22
26378.7958069798
 32
0.0
 13
-31402.20529066599
 23
26378.7958069798
 33
0.0
  0
SOLID
  5
1BC
330
1B5
100
AcDbEntity
  8
标注
 62
     2
440
 16777216
370
   100
100
AcDbTrace
 10
-31406.37195733266
 20
26787.7958069798
 30
0.0
 11
-31398.03862399932
 21
26787.7958069798
 31
0.0
 12
-31402.20529066599
 22
26812.7958069798
 32
0.0
 13
-31402.20529066599
 23
26812.7958069798
 33
0.0
  0
MTEXT
  5
1BD
330
1B5
100
AcDbEntity
  8
标注
 62
     2
440
 16777216
370
   100
100
AcDbMText
 10
-31402.205290666
 20
26595.79580697979
 30
0.0
 40
25.0
 41
0.0
 46
0.0
 71
     5
 72
     1
  1
\A1;434.00 [17.09]
 11
0.0000000000000001
 21
1.0
 31
0.0
 73
     1
 44
1.0
  0
POINT
  5
1BE
330
1B5
100
AcDbEntity
  8
Defpoints
 62
     0
440
 16777216
370
   100
100
AcDbPoint
 10
-31565.18286719886
 20
26378.7958069798
 30
0.0
  0
POINT
  5
1BF
330
1B5
100
AcDbEntity
  8
Defpoints
 62
     0
440
 16777216
370
   100
100
AcDbPoint
 10
-31565.18286719886
 20
26812.7958069798
 30
0.0
  0
POINT
  5
1C0
330
1B5
100
AcDbEntity
  8
Defpoints
 62
     0
440
 16777216
370
   100
100
AcDbPoint
 10
-31402.20529066599
 20
26812.7958069798
 30
0.0
  0
ENDBLK
  5
1C1
330
1B5
100
AcDbEntity
  8
0
 62
     0
370
   100
100
AcDbBlockEnd
  0
BLOCK
  5
1C6
330
1C5
100
AcDbEntity
  8
0
 62
     0
370
   100
100
AcDbBlockBegin
  2
*D21
 70
     1
 10
0.0
 20
0.0
 30
0.0
  3
*D21
  1

  0
LINE
  5
1C7
330
1C5
100
AcDbEntity
  8
标注
 62
     2
440
 16777216
100
AcDbLine
 10
-31533.18286719886
 20
26067.90121679055
 30
0.0
 11
-31505.29142720411
 21
26067.90121679055
 31
0.0
  0
LINE
  5
1C8
330
1C5
100
AcDbEntity
  8
标注
 62
     2
440
 16777216
100
AcDbLine
 10
-31675.18286719885
 20
25877.90121679055
 30
0.0
 11
-31505.29142720411
 21
25877.90121679055
 31
0.0
  0
LINE
  5
1C9
330
1C5
100
AcDbEntity
  8
标注
 62
     2
440
 16777216
100
AcDbLine
 10
-31505.47142720411
 20
26092.90121679055
 30
0.0
 11
-31505.47142720411
 21
26117.90121679055
 31
0.0
  0
LINE
  5
1CA
330
1C5
100
AcDbEntity
  8
标注
 62
     2
440
 16777216
100
AcDbLine
 10
-31505.47142720411
 20
25852.90121679055
 30
0.0
 11
-31505.47142720411
 21
25827.90121679055
 31
0.0
  0
SOLID
  5
1CB
330
1C5
100
AcDbEntity
  8
标注
 62
     2
440
 16777216
370
   100
100
AcDbTrace
 10
-31509.63809387078
 20
26092.90121679055
 30
0.0
 11
-31501.30476053744
 21
26092.90121679055
 31
0.0
 12
-31505.47142720411
 22
26067.90121679055
 32
0.0
 13
-31505.47142720411
 23
26067.90121679055
 33
0.0
  0
SOLID
  5
1CC
330
1C5
100
AcDbEntity
  8
标注
 62
     2
440
 16777216
370
   100
100
AcDbTrace
 10
-31509.63809387078
 20
25852.90121679055
 30
0.0
 11
-31501.30476053744
 21
25852.90121679055
 31
0.0
 12
-31505.47142720411
 22
25877.90121679055
 32
0.0
 13
-31505.47142720411
 23
25877.90121679055
 33
0.0
  0
MTEXT
  5
1CD
330
1C5
100
AcDbEntity
  8
标注
 62
     2
440
 16777216
370
   100
100
AcDbMText
 10
-31505.47142720412
 20
25972.90121679055
 30
0.0
 40
25.0
 41
0.0
 46
0.0
 71
     5
 72
     1
  1
\A1;190.00 [7.48]
 11
0.0000000000000001
 21
1.0
 31
0.0
 73
     1
 44
1.0
  0
POINT
  5
1CE
330
1C5
100
AcDbEntity
  8
Defpoints
 62
     0
440
 16777216
370
   100
100
AcDbPoint
 10
-31535.18286719886
 20
26067.90121679055
 30
0.0
  0
POINT
  5
1CF
330
1C5
100
AcDbEntity
  8
Defpoints
 62
     0
440
 16777216
370
   100
100
AcDbPoint
 10
-31677.18286719886
 20
25877.90121679055
 30
0.0
  0
POINT
  5
1D0
330
1C5
100
AcDbEntity
  8
Defpoints
 62
     0
440
 16777216
370
   100
100
AcDbPoint
 10
-31505.47142720411
 20
25877.90121679055
 30
0.0
  0
ENDBLK
  5
1D1
330
1C5
100
AcDbEntity
  8
0
 62
     0
370
   100
100
AcDbBlockEnd
  0
BLOCK
  5
1D6
330
1D5
100
AcDbEntity
  8
0
 62
     0
370
   100
100
AcDbBlockBegin
  2
*D22
 70
     1
 10
0.0
 20
0.0
 30
0.0
  3
*D22
  1

  0
LINE
  5
1D7
330
1D5
100
AcDbEntity
  8
标注
 62
     2
440
 16777216
100
AcDbLine
 10
-32475.18286719885
 20
26067.90121679055
 30
0.0
 11
-32481.54154727091
 21
26067.90121679055
 31
0.0
  0
LINE
  5
1D8
330
1D5
100
AcDbEntity
  8
标注
 62
     2
440
 16777216
100
AcDbLine
 10
-32225.18286719886
 20
25837.90121679055
 30
0.0
 11
-32481.54154727091
 21
25837.90121679055
 31
0.0
  0
LINE
  5
1D9
330
1D5
100
AcDbEntity
  8
标注
 62
     2
440
 16777216
100
AcDbLine
 10
-32481.36154727091
 20
26042.90121679055
 30
0.0
 11
-32481.36154727091
 21
26030.38986134715
 31
0.0
  0
LINE
  5
1DA
330
1D5
100
AcDbEntity
  8
标注
 62
     2
440
 16777216
100
AcDbLine
 10
-32481.36154727091
 20
25862.90121679055
 30
0.0
 11
-32481.36154727091
 21
25875.41257223396
 31
0.0
  0
SOLID
  5
1DB
330
1D5
100
AcDbEntity
  8
标注
 62
     2
440
 16777216
370
   100
100
AcDbTrace
 10
-32485.52821393758
 20
26042.90121679055
 30
0.0
 11
-32477.19488060424
 21
26042.90121679055
 31
0.0
 12
-32481.36154727091
 22
26067.90121679055
 32
0.0
 13
-32481.36154727091
 23
26067.90121679055
 33
0.0
  0
SOLID
  5
1DC
330
1D5
100
AcDbEntity
  8
标注
 62
     2
440
 16777216
370
   100
100
AcDbTrace
 10
-32485.52821393758
 20
25862.90121679055
 30
0.0
 11
-32477.19488060424
 21
25862.90121679055
 31
0.0
 12
-32481.36154727091
 22
25837.90121679055
 32
0.0
 13
-32481.36154727091
 23
25837.90121679055
 33
0.0
  0
MTEXT
  5
1DD
330
1D5
100
AcDbEntity
  8
标注
 62
     2
440
 16777216
370
   100
100
AcDbMText
 10
-32481.36154727092
 20
25952.90121679055
 30
0.0
 40
25.0
 41
0.0
 46
0.0
 71
     5
 72
     1
  1
\A1;230.00 [9.06]
 11
0.0000000000000001
 21
1.0
 31
0.0
 73
     1
 44
1.0
  0
POINT
  5
1DE
330
1D5
100
AcDbEntity
  8
Defpoints
 62
     0
440
 16777216
370
   100
100
AcDbPoint
 10
-32473.18286719885
 20
26067.90121679055
 30
0.0
  0
POINT
  5
1DF
330
1D5
100
AcDbEntity
  8
Defpoints
 62
     0
440
 16777216
370
   100
100
AcDbPoint
 10
-32223.18286719886
 20
25837.90121679055
 30
0.0
  0
POINT
  5
1E0
330
1D5
100
AcDbEntity
  8
Defpoints
 62
     0
440
 16777216
370
   100
100
AcDbPoint
 10
-32481.36154727091
 20
25837.90121679055
 30
0.0
  0
ENDBLK
  5
1E1
330
1D5
100
AcDbEntity
  8
0
 62
     0
370
   100
100
AcDbBlockEnd
  0
ENDSEC
  0
SECTION
  2
ENTITIES
  0
LWPOLYLINE
  5
6B
102
{ACAD_REACTORS
330
184
330
1A4
102
}
330
2
100
AcDbEntity
  8
0
100
AcDbPolyline
 90
        8
 70
     1
 43
0.0
 10
-31856.18286719885
 20
26784.7958069798
 10
-31588.18286719886
 20
26784.7958069798
 42
-0.4142135623730951
 10
-31563.18286719886
 20
26759.7958069798
 10
-31563.18286719886
 20
26431.7958069798
 42
-0.4142135623730951
 10
-31588.18286719886
 20
26406.7958069798
 10
-31856.18286719885
 20
26406.7958069798
 42
-0.4142135623730951
 10
-31881.18286719886
 20
26431.7958069798
 10
-31881.18286719886
 20
26759.7958069798
 42
-0.4142135623730951
  0
LWPOLYLINE
  5
6C
102
{ACAD_REACTORS
330
154
330
194
330
1B4
102
}
330
2
100
AcDbEntity
  8
0
100
AcDbPolyline
 90
        8
 70
     0
 43
0.0
 10
-32473.18286719885
 20
26778.95193227394
 10
-32473.18286719885
 20
26408.7958069798
 10
-32443.18286719886
 20
26378.7958069798
 10
-31565.18286719886
 20
26378.7958069798
 10
-31535.18286719886
 20
26408.7958069798
 10
-31535.18286719886
 20
26782.7958069798
 10
-31565.18286719886
 20
26812.7958069798
 10
-31880.19545135712
 20
26812.7958069798
  0
LINE
  5
6D
102
{ACAD_REACTORS
330
1C4
330
1D4
102
}
330
2
100
AcDbEntity
  8
0
100
AcDbLine
 10
-32473.18286719885
 20
26067.90121679055
 30
0.0
 11
-31535.18286719886
 21
26067.90121679055
 31
0.0
  0
LWPOLYLINE
  5
6E
102
{ACAD_REACTORS
330
1C4
102
}
330
2
100
AcDbEntity
  8
0
100
AcDbPolyline
 90
        4
 70
     1
 43
0.0
 10
-31777.18286719886
 20
25882.90121679055
 10
-31667.18286719885
 20
25882.90121679055
 10
-31677.18286719886
 20
25877.90121679055
 10
-31767.18286719886
 20
25877.90121679055
  0
LWPOLYLINE
  5
6F
330
2
100
AcDbEntity
  8
0
100
AcDbPolyline
 90
        8
 70
     0
 43
0.0
 10
-31881.18286719885
 20
26067.90121679055
 10
-31876.81007725886
 20
25914.85356889061
 42
0.3768493186989092
 10
-31854.33274274639
 20
25890.69413351253
 10
-31777.18286719886
 20
25882.90121679055
 10
-31667.18286719885
 20
25882.90121679055
 10
-31590.03299165132
 20
25890.69413351253
 42
0.3768493186989099
 10
-31567.55565713885
 20
25914.85356889061
 10
-31563.18286719886
 20
26067.90121679055
  0
LWPOLYLINE
  5
70
102
{ACAD_REACTORS
330
164
330
174
102
}
330
2
100
AcDbEntity
  8
0
 48
50.0
100
AcDbPolyline
 90
        6
 70
     0
 43
0.0
 10
-31911.18286719885
 20
26778.95193227395
 10
-31911.18286719885
 20
26431.7958069798
 42
-0.4142135623730951
 10
-31936.18286719885
 20
26406.7958069798
 10
-32420.18286719885
 20
26406.7958069798
 42
-0.4142135623730951
 10
-32445.18286719886
 20
26431.7958069798
 10
-32445.18286719886
 20
26778.95193227394
  0
ARC
  5
71
330
2
100
AcDbEntity
  8
0
 48
50.0
100
AcDbCircle
 10
-32178.18286719885
 20
26417.9458069798
 30
0.0
 40
461.85
100
AcDbArc
 50
56.71515888055196
 51
123.284841119448
  0
ARC
  5
72
330
2
100
AcDbEntity
  8
0
 48
50.0
100
AcDbCircle
 10
-31941.18286719886
 20
26778.95193227395
 30
0.0
 40
30.0
100
AcDbArc
 50
0.0
 51
56.71515888055196
  0
ARC
  5
73
330
2
100
AcDbEntity
  8
0
 48
50.0
100
AcDbCircle
 10
-32415.18286719886
 20
26778.95193227394
 30
0.0
 40
30.0
100
AcDbArc
 50
123.284841119448
 51
180.0
  0
ARC
  5
74
330
2
100
AcDbEntity
  8
0
 48
50.0
100
AcDbCircle
 10
-32415.18286719886
 20
26778.95193227394
 30
0.0
 40
58.0
100
AcDbArc
 50
123.284841119448
 51
180.0
  0
ARC
  5
75
330
2
100
AcDbEntity
  8
0
 48
50.0
100
AcDbCircle
 10
-32178.18286719885
 20
26417.9458069798
 30
0.0
 40
489.85
100
AcDbArc
 50
54.63487433852876
 51
123.284841119448
  0
ARC
  5
76
330
2
100
AcDbEntity
  8
0
 48
50.0
100
AcDbCircle
 10
-31880.19545135712
 20
26837.7958069798
 30
0.0
 40
25.0
100
AcDbArc
 50
234.6348743385287
 51
270.0
  0
CIRCLE
  5
77
330
2
100
AcDbEntity
  8
0
100
AcDbCircle
 10
-31722.18286719886
 20
26645.7958069798
 30
0.0
 40
55.0
  0
CIRCLE
  5
78
330
2
100
AcDbEntity
  8
0
100
AcDbCircle
 10
-31722.18286719886
 20
26645.7958069798
 30
0.0
 40
45.0
  0
CIRCLE
  5
79
330
2
100
AcDbEntity
  8
0
100
AcDbCircle
 10
-32178.18286719885
 20
26693.2958069798
 30
0.0
 40
55.0
  0
CIRCLE
  5
7A
330
2
100
AcDbEntity
  8
0
100
AcDbCircle
 10
-32178.18286719885
 20
26693.2958069798
 30
0.0
 40
45.0
  0
LINE
  5
7B
330
2
100
AcDbEntity
  8
0
 48
50.0
100
AcDbLine
 10
-32420.18286719885
 20
26781.64062753668
 30
0.0
 11
-32229.84782141455
 21
26712.15667933213
 31
0.0
  0
LINE
  5
7C
330
2
100
AcDbEntity
  8
0
 48
50.0
100
AcDbLine
 10
-32215.53953387446
 20
26652.92899567536
 30
0.0
 11
-32420.18286719885
 21
26431.7958069798
 31
0.0
  0
LINE
  5
7D
330
2
100
AcDbEntity
  8
0
 48
50.0
100
AcDbLine
 10
-31936.18286719885
 20
26781.64062753667
 30
0.0
 11
-32126.51791298317
 21
26712.15667933213
 31
0.0
  0
LINE
  5
7E
330
2
100
AcDbEntity
  8
0
 48
50.0
100
AcDbLine
 10
-32140.82620052325
 20
26652.92899567536
 30
0.0
 11
-31936.18286719885
 21
26431.7958069798
 31
0.0
  0
LINE
  5
7F
330
2
100
AcDbEntity
  8
0
 48
50.0
100
AcDbLine
 10
-31588.18286719886
 20
26759.7958069798
 30
0.0
 11
-31680.29163552953
 21
26681.43461601191
 31
0.0
  0
LINE
  5
80
330
2
100
AcDbEntity
  8
0
 48
50.0
100
AcDbLine
 10
-31692.99377549642
 20
26599.18039187292
 30
0.0
 11
-31588.18286719886
 21
26431.7958069798
 31
0.0
  0
LINE
  5
81
330
2
100
AcDbEntity
  8
0
 48
50.0
100
AcDbLine
 10
-31856.18286719885
 20
26759.7958069798
 30
0.0
 11
-31764.07409886818
 21
26681.4346160119
 31
0.0
  0
LINE
  5
82
330
2
100
AcDbEntity
  8
0
 48
50.0
100
AcDbLine
 10
-31751.37195890129
 20
26599.18039187292
 30
0.0
 11
-31856.18286719885
 21
26431.7958069798
 31
0.0
  0
LWPOLYLINE
  5
83
102
{ACAD_REACTORS
330
1D4
102
}
330
2
100
AcDbEntity
  8
0
100
AcDbPolyline
 90
        4
 70
     1
 43
0.0
 10
-32233.18286719885
 20
25842.90121679055
 10
-32123.18286719886
 20
25842.90121679055
 10
-32133.18286719886
 20
25837.90121679055
 10
-32223.18286719886
 20
25837.90121679055
  0
LWPOLYLINE
  5
84
330
2
100
AcDbEntity
  8
0
100
AcDbPolyline
 90
        8
 70
     0
 43
0.0
 10
-32445.18286719886
 20
26067.90121679055
 10
-32440.72395216104
 20
25876.16787016474
 42
0.3934166957413466
 10
-32416.93703247618
 20
25851.77822960588
 10
-32233.18286719885
 20
25842.90121679055
 10
-32123.18286719886
 20
25842.90121679055
 10
-31939.42870192153
 20
25851.77822960588
 42
0.3934166957413466
 10
-31915.64178223667
 20
25876.16787016474
 10
-31911.18286719885
 20
26067.90121679055
  0
LWPOLYLINE
  5
85
102
{ACAD_REACTORS
330
AE
330
E5
102
}
330
2
100
AcDbEntity
  8
0
100
AcDbPolyline
 90
        5
 70
     0
 43
0.0
 10
-33179.1428797815
 20
26784.7958069798
 10
-32878.06587990419
 20
26784.7958069798
 42
-0.4142135623730951
 10
-32853.06587990419
 20
26759.7958069798
 10
-32853.06587990419
 20
26431.7958069798
 42
-0.4142135623730951
 10
-32878.06587990419
 20
26406.7958069798
  0
LWPOLYLINE
  5
86
102
{ACAD_REACTORS
330
9D
330
AE
330
BE
330
DA
102
}
330
2
100
AcDbEntity
  8
0
 48
50.0
100
AcDbPolyline
 90
        4
 70
     0
 43
0.0
 10
-32878.06587990419
 20
26406.7958069798
 10
-33710.06587990419
 20
26406.7958069798
 42
-0.4142135623730951
 10
-33735.06587990419
 20
26431.7958069798
 10
-33735.06587990419
 20
26778.95193227409
  0
ARC
  5
87
102
{ACAD_REACTORS
330
CE
102
}
330
2
100
AcDbEntity
  8
0
 48
50.0
100
AcDbCircle
 10
-33468.06587990419
 20
26417.9458069798
 30
0.0
 40
461.85
100
AcDbArc
 50
53.59751210332074
 51
123.2848411194608
  0
ARC
  5
88
330
2
100
AcDbEntity
  8
虚线
 48
80.0
100
AcDbCircle
 10
-33231.0658799042
 20
26778.95193227395
 30
0.0
 40
30.0
100
AcDbArc
 50
0.0
 51
56.71515888055196
  0
ARC
  5
8D
330
2
100
AcDbEntity
  8
0
100
AcDbCircle
 10
-33179.1428797815
 20
26809.7958069798
 30
0.0
 40
25.0
100
AcDbArc
 50
233.5975121033207
 51
270.0
  0
LWPOLYLINE
  5
8E
330
2
100
AcDbEntity
  8
虚线
 48
80.0
100
AcDbPolyline
 90
        4
 70
     0
 43
0.0
 10
-33146.06587990419
 20
26406.7958069798
 42
-0.4142135623730951
 10
-33171.06587990419
 20
26431.7958069798
 10
-33171.06587990419
 20
26759.7958069798
 42
-0.4142135623730951
 10
-33146.06587990419
 20
26784.7958069798
  0
LWPOLYLINE
  5
8F
330
2
100
AcDbEntity
  8
虚线
 48
80.0
100
AcDbPolyline
 90
        3
 70
     0
 43
0.0
 10
-33201.06587990419
 20
26778.95193227395
 10
-33201.06587990419
 20
26431.7958069798
 42
-0.4142135623730951
 10
-33226.06587990419
 20
26406.7958069798
  0
LWPOLYLINE
  5
90
102
{ACAD_REACTORS
330
106
330
136
102
}
330
2
100
AcDbEntity
  8
0
100
AcDbPolyline
 90
        5
 70
     0
 43
0.0
 10
-33179.1428797815
 20
26104.53400094469
 10
-32878.06587990419
 20
26104.53400094469
 42
-0.4142135623730951
 10
-32850.0658799042
 20
26076.53400094469
 10
-32850.0658799042
 20
25748.53400094469
 42
-0.4142135623730951
 10
-32878.06587990419
 20
25720.53400094469
 42
-0.4142135623730951
  0
LWPOLYLINE
  5
91
102
{ACAD_REACTORS
330
FB
102
}
330
2
100
AcDbEntity
  8
0
 48
50.0
100
AcDbPolyline
 90
        4
 70
     0
 43
0.0
 10
-32878.06587990419
 20
25720.53400094469
 10
-33710.06587990419
 20
25720.53400094469
 42
-0.4142135623730951
 10
-33738.06587990419
 20
25748.53400094469
 10
-33738.06587990419
 20
26095.69012623884
  0
ARC
  5
92
330
2
100
AcDbEntity
  8
0
 48
50.0
100
AcDbCircle
 10
-33468.06587990419
 20
25734.68400094469
 30
0.0
 40
464.85
100
AcDbArc
 50
53.59751210332074
 51
123.284841119448
  0
ARC
  5
93
330
2
100
AcDbEntity
  8
虚线
 48
80.0
100
AcDbCircle
 10
-33236.06587990419
 20
26098.92351349089
 30
0.0
 40
33.0
100
AcDbArc
 50
0.0
 51
57.50516531122727
  0
ARC
  5
94
102
{ACAD_REACTORS
330
111
102
}
330
2
100
AcDbEntity
  8
0
 48
50.0
100
AcDbCircle
 10
-33705.06587990419
 20
26095.69012623884
 30
0.0
 40
33.0
100
AcDbArc
 50
123.284841119448
 51
180.0
  0
LWPOLYLINE
  5
95
330
2
100
AcDbEntity
  8
虚线
 48
80.0
100
AcDbPolyline
 90
        3
 70
     0
 43
0.0
 10
-33203.06587990419
 20
26098.92351349089
 10
-33203.06587990419
 20
25748.53400094469
 42
-0.4142135623730951
 10
-33231.0658799042
 20
25720.53400094469
 42
-0.4142135623730951
  0
LWPOLYLINE
  5
96
330
2
100
AcDbEntity
  8
虚线
 48
80.0
100
AcDbPolyline
 90
        4
 70
     0
 43
0.0
 10
-33136.06587990419
 20
25720.53400094468
 42
-0.4142135623730951
 10
-33169.06587990419
 20
25753.53400094468
 10
-33169.06587990419
 20
26076.53400094468
 42
-0.4142135623730951
 10
-33141.06587990419
 20
26104.53400094468
 42
-0.4142135623730951
  0
LINE
  5
97
330
2
100
AcDbEntity
  8
标注
 48
50.0
100
AcDbLine
 10
-33710.0658799042
 20
26781.64062753668
 30
0.0
 11
-33723.65945625001
 21
26802.62192116054
 31
0.0
  0
ARC
  5
98
330
2
100
AcDbEntity
  8
0
100
AcDbCircle
 10
-33710.0658799042
 20
26781.64062753668
 30
0.0
 40
25.0
100
AcDbArc
 50
120.0740211408674
 51
123.6395175066911
  0
ARC
  5
99
102
{ACAD_REACTORS
330
F0
102
}
330
2
100
AcDbEntity
  8
标注
 62
     0
370
   100
100
AcDbCircle
 10
-33705.06587990419
 20
26778.95193227409
 30
0.0
 40
30.0
100
AcDbArc
 50
123.2848411194545
 51
180.0
  0
ARC
  5
9A
102
{ACAD_REACTORS
330
11C
102
}
330
2
100
AcDbEntity
  8
标注
 62
     0
370
   100
100
AcDbCircle
 10
-33178.81425933829
 20
26127.53400094469
 30
0.0
 40
23.0
100
AcDbArc
 50
233.6361467080728
 51
270.0
  0
DIMENSION
  5
9B
102
{ACAD_XDICTIONARY
360
9C
102
}
102
{ACAD_REACTORS
330
9D
102
}
330
2
100
AcDbEntity
  8
标注
 62
     0
370
   100
100
AcDbDimension
280
     0
  2
*D0
 10
-33893.08988498211
 20
26406.7958069798
 30
0.0
 11
-33893.08988498212
 21
26643.29580697979
 31
0.0
 71
     5
 42
473.0
 73
     0
 74
     0
 75
     0
  3
Standard
100
AcDbAlignedDimension
 13
-33470.06587990419
 23
26879.7958069798
 33
0.0
 14
-33710.06587990419
 24
26406.7958069798
 34
0.0
 50
90.0
100
AcDbRotatedDimension
  0
DIMENSION
  5
AC
102
{ACAD_XDICTIONARY
360
AD
102
}
102
{ACAD_REACTORS
330
AE
102
}
330
2
100
AcDbEntity
  8
标注
 62
     0
370
   100
100
AcDbDimension
280
     0
  2
*D1
 10
-32787.99465688501
 20
26406.7958069798
 30
0.0
 11
-32787.99465688502
 21
26595.79580697979
 31
0.0
 71
     5
 42
378.0
 73
     0
 74
     0
 75
     0
  3
Standard
100
AcDbAlignedDimension
 13
-32878.06587990419
 23
26784.7958069798
 33
0.0
 14
-32878.06587990419
 24
26406.7958069798
 34
0.0
 50
90.0
100
AcDbRotatedDimension
  0
DIMENSION
  5
BC
102
{ACAD_XDICTIONARY
360
BD
102
}
102
{ACAD_REACTORS
330
BE
102
}
330
2
100
AcDbEntity
  8
标注
 62
     0
370
   100
100
AcDbDimension
280
     0
  2
*D2
 10
-32853.06587990419
 20
26342.18381451217
 30
0.0
 11
-33294.06587990419
 21
26342.18381451217
 31
0.0
 71
     5
 42
882.0
 73
     0
 74
     0
 75
     0
  3
Standard
100
AcDbAlignedDimension
 13
-33735.06587990419
 23
26431.7958069798
 33
0.0
 14
-32853.06587990419
 24
26429.7958069798
 34
0.0
100
AcDbRotatedDimension
  0
DIMENSION
  5
CC
102
{ACAD_XDICTIONARY
360
CD
102
}
102
{ACAD_REACTORS
330
CE
102
}
330
2
100
AcDbEntity
  8
标注
 62
     0
370
   100
100
AcDbDimension
280
     0
  2
*D3
 10
-33468.06587990419
 20
26417.94580697981
 30
0.0
 11
-33434.48557224434
 21
26724.00418654184
 31
0.0
 70
   132
 71
     5
 42
461.8500000000022
 73
     0
 74
     0
 75
     0
  3
Standard
100
AcDbRadialDimension
 15
-33417.69461045915
 25
26877.04074020658
 35
0.0
 40
0.0
1001
ACAD
1000
DSTYLE
1002
{
1070
   288
1070
     1
1002
}
1001
ACAD_DSTYLE_DIMRADIAL_EXTENSION
1070
   387
1070
     1
1070
   388
1040
0.9354530570804582
1070
   390
1040
2.151726395332682
  0
DIMENSION
  5
D8
102
{ACAD_XDICTIONARY
360
D9
102
}
102
{ACAD_REACTORS
330
DA
102
}
330
2
100
AcDbEntity
  8
标注
 62
     0
370
   100
100
AcDbDimension
280
     0
  2
*D4
 10
-33710.06587990422
 20
26431.7958069798
 30
0.0
 11
-33606.85232846716
 21
26481.50083366891
 31
0.0
 70
   132
 71
     5
 42
24.99999999997817
 73
     0
 74
     0
 75
     0
  3
Standard
100
AcDbRadialDimension
 15
-33732.59010160175
 25
26420.94871350186
 35
0.0
 40
0.0
1001
ACAD
1000
DSTYLE
1002
{
1070
   288
1070
     1
1002
}
1001
ACAD_DSTYLE_DIMRADIAL_EXTENSION
1070
   387
1070
     1
1070
   388
1040
3.141592653589793
1070
   390
1040
4.712388980384689
  0
DIMENSION
  5
E3
102
{ACAD_XDICTIONARY
360
E4
102
}
102
{ACAD_REACTORS
330
E5
102
}
330
2
100
AcDbEntity
  8
标注
 62
     0
370
   100
100
AcDbDimension
280
     0
  2
*D5
 10
-32878.06587990429
 20
26431.79580697982
 30
0.0
 11
-32972.71847143135
 21
26496.32885119439
 31
0.0
 70
   132
 71
     5
 42
25.00000000008731
 73
     0
 74
     0
 75
     0
  3
Standard
100
AcDbRadialDimension
 15
-32857.4099105463
 25
26417.7128055282
 35
0.0
 40
0.0
1001
ACAD
1000
DSTYLE
1002
{
1070
   288
1070
     1
1002
}
1001
ACAD_DSTYLE_DIMRADIAL_EXTENSION
1070
   387
1070
     1
1070
   388
1040
4.712388980384689
1070
   390
1040
0.0
  0
DIMENSION
  5
EE
102
{ACAD_XDICTIONARY
360
EF
102
}
102
{ACAD_REACTORS
330
F0
102
}
330
2
100
AcDbEntity
  8
标注
 62
     0
370
   100
100
AcDbDimension
280
     0
  2
*D6
 10
-33705.0658799042
 20
26778.95193227407
 30
0.0
 11
-33637.3618498504
 21
26692.81711237731
 31
0.0
 70
   132
 71
     5
 42
30.00000000001455
 73
     0
 74
     0
 75
     0
  3
Standard
100
AcDbRadialDimension
 15
-33723.60504177868
 25
26802.53793399105
 35
0.0
 40
0.0
1001
ACAD
1000
DSTYLE
1002
{
1070
   288
1070
     1
1002
}
1001
ACAD_DSTYLE_DIMRADIAL_EXTENSION
1070
   387
1070
     1
1070
   388
1040
2.151726395332572
1070
   390
1040
3.141592653589793
  0
DIMENSION
  5
F9
102
{ACAD_XDICTIONARY
360
FA
102
}
102
{ACAD_REACTORS
330
FB
102
}
330
2
100
AcDbEntity
  8
标注
 62
     0
370
   100
100
AcDbDimension
280
     0
  2
*D7
 10
-33710.06587990414
 20
25748.53400094463
 30
0.0
 11
-33622.30898210741
 21
25817.41072684651
 31
0.0
 70
   132
 71
     5
 42
28.00000000000546
 73
     0
 74
     0
 75
     0
  3
Standard
100
AcDbRadialDimension
 15
-33732.09195011502
 25
25731.24665785595
 35
0.0
 40
0.0
1001
ACAD
1000
DSTYLE
1002
{
1070
   288
1070
     1
1002
}
1001
ACAD_DSTYLE_DIMRADIAL_EXTENSION
1070
   387
1070
     1
1070
   388
1040
3.141592653589793
1070
   390
1040
4.712388980384689
  0
DIMENSION
  5
104
102
{ACAD_XDICTIONARY
360
105
102
}
102
{ACAD_REACTORS
330
106
102
}
330
2
100
AcDbEntity
  8
标注
 62
     0
370
   100
100
AcDbDimension
280
     0
  2
*D8
 10
-32878.06587990419
 20
25748.53400094467
 30
0.0
 11
-32953.07411434665
 21
25831.11148726932
 31
0.0
 70
   132
 71
     5
 42
27.99999999997818
 73
     0
 74
     0
 75
     0
  3
Standard
100
AcDbRadialDimension
 15
-32859.23959183224
 25
25727.80790923806
 35
0.0
 40
0.0
1001
ACAD
1000
DSTYLE
1002
{
1070
   288
1070
     1
1002
}
1001
ACAD_DSTYLE_DIMRADIAL_EXTENSION
1070
   387
1070
     1
1070
   388
1040
4.712388980384689
1070
   390
1040
0.0
  0
DIMENSION
  5
10F
102
{ACAD_XDICTIONARY
360
110
102
}
102
{ACAD_REACTORS
330
111
102
}
330
2
100
AcDbEntity
  8
标注
 62
     0
370
   100
100
AcDbDimension
280
     0
  2
*D9
 10
-33705.06587990417
 20
26095.69012623884
 30
0.0
 11
-33605.60451548653
 21
26057.45232457849
 31
0.0
 70
   132
 71
     5
 42
33.00000000001455
 73
     0
 74
     0
 75
     0
  3
Standard
100
AcDbRadialDimension
 15
-33735.86800384325
 25
26107.53196565856
 35
0.0
 40
0.0
1001
ACAD
1000
DSTYLE
1002
{
1070
   288
1070
     1
1002
}
1001
ACAD_DSTYLE_DIMRADIAL_EXTENSION
1070
   387
1070
     1
1070
   388
1040
2.151726395332459
1070
   390
1040
3.141592653589793
  0
DIMENSION
  5
11A
102
{ACAD_XDICTIONARY
360
11B
102
}
102
{ACAD_REACTORS
330
11C
102
}
330
2
100
AcDbEntity
  8
标注
 62
     0
370
   100
100
AcDbDimension
280
     0
  2
*D10
 10
-33178.81425933829
 20
26127.53400094469
 30
0.0
 11
-33283.92552533031
 21
26003.53055347409
 31
0.0
 70
     4
 71
     5
 42
22.99999999999272
 73
     0
 74
     0
 75
     0
  3
Standard
100
AcDbRadialDimension
 15
-33193.68620152273
 25
26109.98904908774
 35
0.0
 40
0.0
1001
ACAD
1000
DSTYLE
1002
{
1070
   288
1070
     1
1002
}
1001
ACAD_DSTYLE_DIMRADIAL_EXTENSION
1070
   387
1070
     1
1070
   388
1040
4.077720011728381
1070
   390
1040
4.712388980384689
  0
DIMENSION
  5
126
330
2
100
AcDbEntity
  8
标注
 62
     0
370
   100
100
AcDbDimension
280
     0
  2
*D11
 10
-33817.00531503714
 20
25720.53400094469
 30
0.0
 11
-33817.00531503715
 21
25960.03400094469
 31
0.0
 71
     5
 42
479.0
 73
     0
 74
     0
 75
     0
  3
Standard
100
AcDbAlignedDimension
 13
-33470.06587990419
 23
26199.53400094469
 33
0.0
 14
-33470.06587990419
 24
25720.53400094469
 34
0.0
 50
90.0
100
AcDbRotatedDimension
  0
DIMENSION
  5
134
102
{ACAD_XDICTIONARY
360
135
102
}
102
{ACAD_REACTORS
330
136
102
}
330
2
100
AcDbEntity
  8
标注
 62
     0
370
   100
100
AcDbDimension
280
     0
  2
*D12
 10
-32774.48802464698
 20
25720.53400094469
 30
0.0
 11
-32774.48802464698
 21
25912.53400094469
 31
0.0
 71
     5
 42
384.0
 73
     0
 74
     0
 75
     0
  3
Standard
100
AcDbAlignedDimension
 13
-32878.0658799042
 23
26104.53400094469
 33
0.0
 14
-32876.06587990419
 24
25720.53400094469
 34
0.0
 50
90.0
100
AcDbRotatedDimension
  0
DIMENSION
  5
144
330
2
100
AcDbEntity
  8
标注
 62
     0
370
   100
100
AcDbDimension
280
     0
  2
*D13
 10
-32850.0658799042
 20
25651.28385847359
 30
0.0
 11
-33294.06587990419
 21
25651.28385847359
 31
0.0
 71
     5
 42
888.0
 73
     0
 74
     0
 75
     0
  3
Standard
100
AcDbAlignedDimension
 13
-33738.06587990419
 23
25746.53400094469
 33
0.0
 14
-32850.0658799042
 24
25746.53400094469
 34
0.0
100
AcDbRotatedDimension
  0
DIMENSION
  5
152
102
{ACAD_XDICTIONARY
360
153
102
}
102
{ACAD_REACTORS
330
154
102
}
330
2
100
AcDbEntity
  8
标注
 62
     0
370
   100
100
AcDbDimension
280
     0
  2
*D14
 10
-32558.74484356812
 20
26907.7958069798
 30
0.0
 11
-32558.74484356813
 21
26643.29580697979
 31
0.0
 71
     5
 42
529.0
 73
     0
 74
     0
 75
     0
  3
Standard
100
AcDbAlignedDimension
 13
-32443.18286719886
 23
26378.7958069798
 33
0.0
 14
-32180.18286719886
 24
26907.7958069798
 34
0.0
 50
90.0
100
AcDbRotatedDimension
  0
DIMENSION
  5
162
102
{ACAD_XDICTIONARY
360
163
102
}
102
{ACAD_REACTORS
330
164
102
}
330
2
100
AcDbEntity
  8
标注
 62
     0
370
   100
100
AcDbDimension
280
     0
  2
*D15
 10
-32495.48024325602
 20
26406.7958069798
 30
0.0
 11
-32495.48024325603
 21
26643.29580697979
 31
0.0
 71
     5
 42
473.0
 73
     0
 74
     0
 75
     0
  3
Standard
100
AcDbAlignedDimension
 13
-32180.18286719886
 23
26879.7958069798
 33
0.0
 14
-32420.18286719885
 24
26406.7958069798
 34
0.0
 50
90.0
100
AcDbRotatedDimension
  0
DIMENSION
  5
172
102
{ACAD_XDICTIONARY
360
173
102
}
102
{ACAD_REACTORS
330
174
102
}
330
2
100
AcDbEntity
  8
标注
 62
     0
370
   100
100
AcDbDimension
280
     0
  2
*D16
 10
-31911.18286719885
 20
26341.15075992516
 30
0.0
 11
-32178.18286719885
 21
26341.15075992516
 31
0.0
 71
     5
 42
534.0000000000072
 73
     0
 74
     0
 75
     0
  3
Standard
100
AcDbAlignedDimension
 13
-32445.18286719886
 23
26431.7958069798
 33
0.0
 14
-31911.18286719885
 24
26431.7958069798
 34
0.0
100
AcDbRotatedDimension
  0
DIMENSION
  5
182
102
{ACAD_XDICTIONARY
360
183
102
}
102
{ACAD_REACTORS
330
184
102
}
330
2
100
AcDbEntity
  8
标注
 62
     0
370
   100
100
AcDbDimension
280
     0
  2
*D17
 10
-31563.18286719886
 20
26329.41418475965
 30
0.0
 11
-31722.18286719886
 21
26329.41418475965
 31
0.0
 71
     5
 42
318.0
 73
     0
 74
     0
 75
     0
  3
Standard
100
AcDbAlignedDimension
 13
-31881.18286719886
 23
26431.7958069798
 33
0.0
 14
-31563.18286719886
 24
26431.7958069798
 34
0.0
100
AcDbRotatedDimension
  0
DIMENSION
  5
192
102
{ACAD_XDICTIONARY
360
193
102
}
102
{ACAD_REACTORS
330
194
102
}
330
2
100
AcDbEntity
  8
标注
 62
     0
370
   100
100
AcDbDimension
280
     0
  2
*D18
 10
-31535.18286719886
 20
26278.51459432013
 30
0.0
 11
-32004.18286719886
 21
26278.51459432013
 31
0.0
 71
     5
 42
938.0
 73
     0
 74
     0
 75
     0
  3
Standard
100
AcDbAlignedDimension
 13
-32473.18286719885
 23
26408.7958069798
 33
0.0
 14
-31535.18286719886
 24
26408.7958069798
 34
0.0
100
AcDbRotatedDimension
  0
DIMENSION
  5
1A2
102
{ACAD_XDICTIONARY
360
1A3
102
}
102
{ACAD_REACTORS
330
1A4
102
}
330
2
100
AcDbEntity
  8
标注
 62
     0
370
   100
100
AcDbDimension
280
     0
  2
*D19
 10
-31460.94580995132
 20
26784.7958069798
 30
0.0
 11
-31460.94580995133
 21
26595.79580697979
 31
0.0
 71
     5
 42
378.0
 73
     0
 74
     0
 75
     0
  3
Standard
100
AcDbAlignedDimension
 13
-31588.18286719886
 23
26406.7958069798
 33
0.0
 14
-31588.18286719886
 24
26784.7958069798
 34
0.0
 50
90.0
100
AcDbRotatedDimension
  0
DIMENSION
  5
1B2
102
{ACAD_XDICTIONARY
360
1B3
102
}
102
{ACAD_REACTORS
330
1B4
102
}
330
2
100
AcDbEntity
  8
标注
 62
     0
370
   100
100
AcDbDimension
280
     0
  2
*D20
 10
-31402.20529066599
 20
26812.7958069798
 30
0.0
 11
-31402.205290666
 21
26595.79580697979
 31
0.0
 71
     5
 42
434.0
 73
     0
 74
     0
 75
     0
  3
Standard
100
AcDbAlignedDimension
 13
-31565.18286719886
 23
26378.7958069798
 33
0.0
 14
-31565.18286719886
 24
26812.7958069798
 34
0.0
 50
90.0
100
AcDbRotatedDimension
  0
DIMENSION
  5
1C2
102
{ACAD_XDICTIONARY
360
1C3
102
}
102
{ACAD_REACTORS
330
1C4
102
}
330
2
100
AcDbEntity
  8
标注
 62
     0
370
   100
100
AcDbDimension
280
     0
  2
*D21
 10
-31505.47142720411
 20
25877.90121679055
 30
0.0
 11
-31505.47142720412
 21
25972.90121679055
 31
0.0
 71
     5
 42
190.0
 73
     0
 74
     0
 75
     0
  3
Standard
100
AcDbAlignedDimension
 13
-31535.18286719886
 23
26067.90121679055
 33
0.0
 14
-31677.18286719886
 24
25877.90121679055
 34
0.0
 50
90.0
100
AcDbRotatedDimension
  0
DIMENSION
  5
1D2
102
{ACAD_XDICTIONARY
360
1D3
102
}
102
{ACAD_REACTORS
330
1D4
102
}
330
2
100
AcDbEntity
  8
标注
 62
     0
370
   100
100
AcDbDimension
280
     0
  2
*D22
 10
-32481.36154727091
 20
25837.90121679055
 30
0.0
 11
-32481.36154727092
 21
25952.90121679055
 31
0.0
 71
     5
 42
230.0
 73
     0
 74
     0
 75
     0
  3
Standard
100
AcDbAlignedDimension
 13
-32473.18286719885
 23
26067.90121679055
 33
0.0
 14
-32223.18286719886
 24
25837.90121679055
 34
0.0
 50
90.0
100
AcDbRotatedDimension
  0
HATCH
  5
1E2
330
2
100
AcDbEntity
  8
0
 48
80.0
100
AcDbHatch
 10
0.0
 20
0.0
 30
0.0
210
0.0
220
0.0
230
1.0
  2
SOLID
 70
     1
 71
     0
 91
        1
 92
        7
 72
     1
 73
     1
 93
       10
 10
-34226.9332635651
 20
26512.40196352582
 42
0.0
 10
-34226.9332635651
 20
26497.40196352583
 42
0.0
 10
-34164.43326356509
 20
26497.40196352583
 42
0.0
 10
-34164.43326356509
 20
26472.40196352582
 42
0.4142135623731276
 10
-34129.4332635651
 20
26437.40196352582
 42
0.0
 10
-34074.4332635651
 20
26437.40196352582
 42
0.0
 10
-34074.4332635651
 20
26452.40196352582
 42
0.0
 10
-34129.4332635651
 20
26452.40196352582
 42
-0.4142135623730984
 10
-34149.43326356509
 20
26472.40196352582
 42
0.0
 10
-34149.43326356509
 20
26512.40196352582
 42
0.0
 97
        0
 75
     0
 76
     1
 47
0.4110268789155317
 98
        1
 10
-34168.15684128448
 20
26510.07183497678
450
        0
451
        0
460
0.0
461
0.0
452
        1
462
1.0
453
        2
463
0.0
 63
     5
421
      255
463
1.0
 63
     7
421
 16777215
470
LINEAR
1001
ACAD
1010
0.0
1020
0.0
1030
0.0
  0
LWPOLYLINE
  5
1E3
330
2
100
AcDbEntity
  8
0
 48
80.0
100
AcDbPolyline
 90
        4
 70
     1
 43
0.0
 10
-34254.43326356509
 20
26589.90196352582
 10
-34074.4332635651
 20
26589.90196352582
 10
-34074.4332635651
 20
26409.90196352583
 10
-34254.43326356509
 20
26409.90196352583
  0
HATCH
  5
1E4
330
2
100
AcDbEntity
  8
填充层
 48
80.0
100
AcDbHatch
 10
0.0
 20
0.0
 30
0.0
210
0.0
220
0.0
230
1.0
  2
ANSI31
 70
     0
 71
     0
 91
        1
 92
        7
 72
     0
 73
     1
 93
        4
 10
-34254.43326356509
 20
26589.90196352582
 10
-34254.43326356509
 20
26512.40196352582
 10
-34149.43326356509
 20
26512.40196352583
 10
-34149.43326356509
 20
26589.90196352582
 97
        0
 75
     0
 76
     1
 52
0.0
 41
4.0
 77
     0
 78
     1
 53
45.0
 43
-48229.28337563242
 44
21242.68151909798
 45
-8.980256121069151
 46
8.980256121069153
 79
     0
 47
0.760094809552713
 98
        1
 10
-34199.94154329572
 20
26569.20761098258
1001
ACAD
1010
0.0
1020
0.0
1030
0.0
  0
LWPOLYLINE
  5
1E8
330
2
100
AcDbEntity
  8
0
 48
80.0
100
AcDbPolyline
 90
        4
 70
     1
 43
0.0
 10
-34149.43326356509
 20
26512.40196352582
 10
-34254.43326356509
 20
26512.40196352582
 10
-34254.43326356509
 20
26589.90196352582
 10
-34149.43326356509
 20
26589.90196352582
  0
LWPOLYLINE
  5
1E9
330
2
100
AcDbEntity
  8
0
 48
80.0
100
AcDbPolyline
 90
        5
 70
     0
 43
0.0
 10
-34074.4332635651
 20
26452.40196352582
 10
-34129.4332635651
 20
26452.40196352582
 42
-0.4142135623731251
 10
-34149.43326356509
 20
26472.40196352582
 10
-34149.43326356509
 20
26512.40196352582
 10
-34226.9332635651
 20
26512.40196352582
  0
LWPOLYLINE
  5
1EA
330
2
100
AcDbEntity
  8
0
 48
80.0
100
AcDbPolyline
 90
        5
 70
     0
 43
0.0
 10
-34074.4332635651
 20
26437.40196352582
 10
-34129.4332635651
 20
26437.40196352582
 42
-0.4142135623731275
 10
-34164.43326356509
 20
26472.40196352582
 10
-34164.43326356509
 20
26497.40196352583
 10
-34226.9332635651
 20
26497.40196352583
  0
LINE
  5
1EB
330
2
100
AcDbEntity
  8
0
 48
80.0
100
AcDbLine
 10
-34226.9332635651
 20
26497.40196352583
 30
0.0
 11
-34226.9332635651
 21
26512.40196352582
 31
0.0
  0
LWPOLYLINE
  5
1EC
330
2
100
AcDbEntity
  8
0
 48
80.0
100
AcDbPolyline
 90
        4
 70
     1
 43
0.0
 10
-34254.43326356509
 20
26009.90196352582
 10
-34074.4332635651
 20
26009.90196352582
 10
-34074.4332635651
 20
25829.90196352582
 10
-34254.43326356509
 20
25829.90196352582
  0
HATCH
  5
1ED
330
2
100
AcDbEntity
  8
填充层
 48
80.0
100
AcDbHatch
 10
0.0
 20
0.0
 30
0.0
210
0.0
220
0.0
230
1.0
  2
ANSI31
 70
     0
 71
     0
 91
        1
 92
        7
 72
     0
 73
     1
 93
        4
 10
-34254.43326356509
 20
26009.90196352582
 10
-34254.43326356509
 20
25932.40196352582
 10
-34149.43326356509
 20
25932.40196352582
 10
-34149.43326356509
 20
26009.90196352582
 97
        0
 75
     0
 76
     1
 52
0.0
 41
4.0
 77
     0
 78
     1
 53
45.0
 43
-48229.28337563242
 44
20662.68151909798
 45
-8.980256121069151
 46
8.980256121069153
 79
     0
 47
0.760094809552713
 98
        1
 10
-34199.94154329572
 20
25989.20761098258
1001
ACAD
1010
0.0
1020
0.0
1030
0.0
  0
LWPOLYLINE
  5
1EE
330
2
100
AcDbEntity
  8
0
 48
80.0
100
AcDbPolyline
 90
        4
 70
     1
 43
0.0
 10
-34149.43326356509
 20
25932.40196352582
 10
-34254.43326356509
 20
25932.40196352582
 10
-34254.43326356509
 20
26009.90196352582
 10
-34149.43326356509
 20
26009.90196352582
  0
LWPOLYLINE
  5
1EF
330
2
100
AcDbEntity
  8
0
 48
80.0
100
AcDbPolyline
 90
        5
 70
     0
 43
0.0
 10
-34074.4332635651
 20
25872.40196352583
 10
-34114.4332635651
 20
25872.40196352583
 42
-0.4142135623731251
 10
-34134.43326356509
 20
25892.40196352582
 10
-34134.43326356509
 20
25932.40196352582
 10
-34211.93326356509
 20
25932.40196352582
  0
LWPOLYLINE
  5
1F0
330
2
100
AcDbEntity
  8
0
 48
80.0
100
AcDbPolyline
 90
        5
 70
     0
 43
0.0
 10
-34074.4332635651
 20
25857.40196352583
 10
-34114.4332635651
 20
25857.40196352583
 42
-0.4142135623731275
 10
-34149.43326356509
 20
25892.40196352582
 10
-34149.43326356509
 20
25917.40196352582
 10
-34211.93326356509
 20
25917.40196352582
  0
LINE
  5
1F1
330
2
100
AcDbEntity
  8
0
 48
80.0
100
AcDbLine
 10
-34211.93326356509
 20
25917.40196352582
 30
0.0
 11
-34211.93326356509
 21
25932.40196352582
 31
0.0
  0
ENDSEC
  0
SECTION
  2
OBJECTS
  0
DICTIONARY
  5
B
330
0
100
AcDbDictionary
281
     1
  3
ACAD_COLOR
350
3C
  3
ACAD_GROUP
350
37
  3
ACAD_LAYOUT
350
11
  3
ACAD_MATERIAL
350
D
  3
ACAD_MLEADERSTYLE
350
3F
  3
ACAD_MLINESTYLE
350
38
  3
ACAD_PLOTSETTINGS
350
39
  3
ACAD_PLOTSTYLENAME
350
A
  3
ACAD_SCALELIST
350
3D
  3
ACAD_TABLESTYLE
350
3E
  3
ACAD_VISUALSTYLE
350
2A
  3
ACDB_RECOMPOSE_DATA
350
1FF
  3
AcDbVariableDictionary
350
1F4
  0
DICTIONARY
  5
2C
330
27
100
AcDbDictionary
280
     1
281
     1
  0
DICTIONARY
  5
1A
330
19
100
AcDbDictionary
280
     1
281
     1
  3
ACAD_LAYERFILTERS
360
1B
  3
ACAD_LAYERSTATES
360
1C
  3
ACLYDICTIONARY
360
1D
  0
DICTIONARY
  5
7
330
6
100
AcDbDictionary
280
     1
281
     1
  3
ADSK_XREC_LAYER_RECONCILED
360
8
  0
DICTIONARY
  5
41
330
40
100
AcDbDictionary
280
     1
281
     1
  3
ADSK_XREC_LAYER_RECONCILED
360
42
  0
DICTIONARY
  5
8A
330
89
100
AcDbDictionary
280
     1
281
     1
  3
ADSK_XREC_LAYER_RECONCILED
360
8B
  0
DICTIONARY
  5
1E6
330
1E5
100
AcDbDictionary
280
     1
281
     1
  3
ADSK_XREC_LAYER_RECONCILED
360
1E7
  0
DICTIONARY
  5
3
330
2
100
AcDbDictionary
280
     1
281
     1
  3
ACAD_SORTENTS
360
1F2
  0
DICTIONARY
  5
9C
330
9B
100
AcDbDictionary
280
     1
281
     1
  3
ACAD_DIMASSOC
360
9D
  0
DICTIONARY
  5
AD
330
AC
100
AcDbDictionary
280
     1
281
     1
  3
ACAD_DIMASSOC
360
AE
  0
DICTIONARY
  5
BD
330
BC
100
AcDbDictionary
280
     1
281
     1
  3
ACAD_DIMASSOC
360
BE
  0
DICTIONARY
  5
CD
330
CC
100
AcDbDictionary
280
     1
281
     1
  3
ACAD_DIMASSOC
360
CE
  0
DICTIONARY
  5
D9
330
D8
100
AcDbDictionary
280
     1
281
     1
  3
ACAD_DIMASSOC
360
DA
  0
DICTIONARY
  5
E4
330
E3
100
AcDbDictionary
280
     1
281
     1
  3
ACAD_DIMASSOC
360
E5
  0
DICTIONARY
  5
EF
330
EE
100
AcDbDictionary
280
     1
281
     1
  3
ACAD_DIMASSOC
360
F0
  0
DICTIONARY
  5
FA
330
F9
100
AcDbDictionary
280
     1
281
     1
  3
ACAD_DIMASSOC
360
FB
  0
DICTIONARY
  5
105
330
104
100
AcDbDictionary
280
     1
281
     1
  3
ACAD_DIMASSOC
360
106
  0
DICTIONARY
  5
110
330
10F
100
AcDbDictionary
280
     1
281
     1
  3
ACAD_DIMASSOC
360
111
  0
DICTIONARY
  5
11B
330
11A
100
AcDbDictionary
280
     1
281
     1
  3
ACAD_DIMASSOC
360
11C
  0
DICTIONARY
  5
135
330
134
100
AcDbDictionary
280
     1
281
     1
  3
ACAD_DIMASSOC
360
136
  0
DICTIONARY
  5
153
330
152
100
AcDbDictionary
280
     1
281
     1
  3
ACAD_DIMASSOC
360
154
  0
DICTIONARY
  5
163
330
162
100
AcDbDictionary
280
     1
281
     1
  3
ACAD_DIMASSOC
360
164
  0
DICTIONARY
  5
173
330
172
100
AcDbDictionary
280
     1
281
     1
  3
ACAD_DIMASSOC
360
174
  0
DICTIONARY
  5
183
330
182
100
AcDbDictionary
280
     1
281
     1
  3
ACAD_DIMASSOC
360
184
  0
DICTIONARY
  5
193
330
192
100
AcDbDictionary
280
     1
281
     1
  3
ACAD_DIMASSOC
360
194
  0
DICTIONARY
  5
1A3
330
1A2
100
AcDbDictionary
280
     1
281
     1
  3
ACAD_DIMASSOC
360
1A4
  0
DICTIONARY
  5
1B3
330
1B2
100
AcDbDictionary
280
     1
281
     1
  3
ACAD_DIMASSOC
360
1B4
  0
DICTIONARY
  5
1C3
330
1C2
100
AcDbDictionary
280
     1
281
     1
  3
ACAD_DIMASSOC
360
1C4
  0
DICTIONARY
  5
1D3
330
1D2
100
AcDbDictionary
280
     1
281
     1
  3
ACAD_DIMASSOC
360
1D4
  0
DICTIONARY
  5
3C
102
{ACAD_REACTORS
330
B
102
}
330
B
100
AcDbDictionary
281
     1
  0
DICTIONARY
  5
37
102
{ACAD_REACTORS
330
B
102
}
330
B
100
AcDbDictionary
281
     1
  0
DICTIONARY
  5
11
102
{ACAD_REACTORS
330
B
102
}
330
B
100
AcDbDictionary
281
     1
  3
Model
350
10
  3
布局1
350
17
  0
DICTIONARY
  5
D
102
{ACAD_REACTORS
330
B
102
}
330
B
100
AcDbDictionary
281
     1
  3
ByBlock
350
3B
  3
ByLayer
350
3A
  3
Global
350
C
  0
DICTIONARY
  5
3F
102
{ACAD_REACTORS
330
B
102
}
330
B
100
AcDbDictionary
281
     1
  0
DICTIONARY
  5
38
102
{ACAD_REACTORS
330
B
102
}
330
B
100
AcDbDictionary
281
     1
  3
Standard
350
45
  0
DICTIONARY
  5
39
102
{ACAD_REACTORS
330
B
102
}
330
B
100
AcDbDictionary
281
     1
  0
ACDBDICTIONARYWDFLT
  5
A
102
{ACAD_REACTORS
330
B
102
}
330
B
100
AcDbDictionary
281
     1
  3
Normal
350
9
100
AcDbDictionaryWithDefault
340
9
  0
DICTIONARY
  5
3D
102
{ACAD_REACTORS
330
B
102
}
330
B
100
AcDbDictionary
281
     1
  3
A0
350
4A
  3
A1
350
4B
  3
A2
350
4C
  3
A3
350
4D
  3
A4
350
4E
  3
A5
350
4F
  3
A6
350
50
  3
A7
350
51
  3
A8
350
52
  3
A9
350
53
  3
B0
350
54
  3
B1
350
55
  3
B2
350
56
  3
B3
350
57
  3
B4
350
58
  3
B5
350
59
  3
B6
350
5A
  3
B7
350
5B
  3
B8
350
5C
  3
B9
350
5D
  3
C0
350
5E
  3
C1
350
5F
  3
C2
350
60
  3
C3
350
61
  3
C4
350
62
  3
C5
350
63
  3
C6
350
64
  3
C7
350
65
  3
C8
350
66
  3
C9
350
67
  3
D0
350
68
  3
D1
350
69
  3
D2
350
6A
  0
DICTIONARY
  5
3E
102
{ACAD_REACTORS
330
B
102
}
330
B
100
AcDbDictionary
281
     1
  3
Standard
350
46
  0
DICTIONARY
  5
2A
102
{ACAD_REACTORS
330
B
102
}
330
B
100
AcDbDictionary
281
     1
  3
2dWireframe
350
29
  3
3dWireframe
350
49
  3
Realistic
350
48
  0
XRECORD
  5
1FF
102
{ACAD_REACTORS
330
B
102
}
330
B
100
AcDbXrecord
280
     1
 90
        1
330
46
  0
DICTIONARY
  5
1F4
102
{ACAD_REACTORS
330
B
102
}
330
B
100
AcDbDictionary
281
     1
  3
CANNOSCALE
350
1FA
  3
CMLEADERSTYLE
350
1F6
  3
CTABLESTYLE
350
1F5
  3
CVIEWDETAILSTYLE
350
1F7
  3
CVIEWSECTIONSTYLE
350
1F8
  3
LAYEREVAL
350
1FC
  3
LAYERNOTIFY
350
1FD
  3
LIGHTINGUNITS
350
1FB
  3
MSLTSCALE
350
1F9
  0
DICTIONARY
  5
1B
102
{ACAD_REACTORS
330
1A
102
}
330
1A
100
AcDbDictionary
281
     1
  0
DICTIONARY
  5
1C
102
{ACAD_REACTORS
330
1A
102
}
330
1A
100
AcDbDictionary
281
     1
  0
DICTIONARY
  5
1D
102
{ACAD_REACTORS
330
1A
102
}
330
1A
100
AcDbDictionary
281
     1
1001
ACAD
1000
<All
  0
XRECORD
  5
8
102
{ACAD_REACTORS
330
7
102
}
330
7
100
AcDbXrecord
280
     1
290
     1
  0
XRECORD
  5
42
102
{ACAD_REACTORS
330
41
102
}
330
41
100
AcDbXrecord
280
     1
290
     1
  0
XRECORD
  5
8B
102
{ACAD_REACTORS
330
8A
102
}
330
8A
100
AcDbXrecord
280
     1
290
     1
  0
XRECORD
  5
1E7
102
{ACAD_REACTORS
330
1E6
102
}
330
1E6
100
AcDbXrecord
280
     1
290
     1
  0
SORTENTSTABLE
  5
1F2
102
{ACAD_REACTORS
330
3
102
}
330
3
100
AcDbSortentsTable
330
2
  0
DIMASSOC
  5
9D
102
{ACAD_REACTORS
330
9C
102
}
330
9C
100
AcDbDimAssoc
330
9B
 90
        2
 70
     0
 71
     0
  1
AcDbOsnapPointRef
 72
     1
331
86
 73
     2
 91
        1
 40
1.0
 10
0.0
 20
0.0
 30
2.000000000000000E+50
 75
     0
  0
DIMASSOC
  5
AE
102
{ACAD_REACTORS
330
AD
102
}
330
AD
100
AcDbDimAssoc
330
AC
 90
        3
 70
     0
 71
     0
  1
AcDbOsnapPointRef
 72
     1
331
85
 73
     2
 91
        1
 40
1.0
 10
0.0
 20
0.0
 30
2.000000000000000E+50
 75
     0
  1
AcDbOsnapPointRef
 72
    13
331
86
 73
     2
 91
        1
 40
0.0
 10
0.0
 20
0.0
 30
2.000000000000000E+50
 75
     0
  0
DIMASSOC
  5
BE
102
{ACAD_REACTORS
330
BD
102
}
330
BD
100
AcDbDimAssoc
330
BC
 90
        1
 70
     0
 71
     0
  1
AcDbOsnapPointRef
 72
     1
331
86
 73
     2
 91
        2
 40
3.141592653589793
 10
0.0
 20
0.0
 30
2.000000000000000E+50
 75
     0
  0
DIMASSOC
  5
CE
102
{ACAD_REACTORS
330
CD
102
}
330
CD
100
AcDbDimAssoc
330
CC
 90
        2
 70
     0
 71
     0
  1
AcDbOsnapPointRef
 72
     3
331
87
 73
     2
 91
        0
 40
0.0
 10
0.0
 20
0.0
 30
0.0
 75
     0
  0
DIMASSOC
  5
DA
102
{ACAD_REACTORS
330
D9
102
}
330
D9
100
AcDbDimAssoc
330
D8
 90
        2
 70
     0
 71
     0
  1
AcDbOsnapPointRef
 72
     3
331
86
 73
     2
 91
        2
 40
0.0
 10
0.0
 20
0.0
 30
0.0
 75
     0
  0
DIMASSOC
  5
E5
102
{ACAD_REACTORS
330
E4
102
}
330
E4
100
AcDbDimAssoc
330
E3
 90
        2
 70
     0
 71
     0
  1
AcDbOsnapPointRef
 72
     3
331
85
 73
     2
 91
        4
 40
0.0
 10
0.0
 20
0.0
 30
0.0
 75
     0
  0
DIMASSOC
  5
F0
102
{ACAD_REACTORS
330
EF
102
}
330
EF
100
AcDbDimAssoc
330
EE
 90
        2
 70
     0
 71
     0
  1
AcDbOsnapPointRef
 72
     3
331
99
 73
     2
 91
        0
 40
0.0
 10
0.0
 20
0.0
 30
0.0
 75
     0
  0
DIMASSOC
  5
FB
102
{ACAD_REACTORS
330
FA
102
}
330
FA
100
AcDbDimAssoc
330
F9
 90
        2
 70
     0
 71
     0
  1
AcDbOsnapPointRef
 72
     3
331
91
 73
     2
 91
        2
 40
0.0
 10
0.0
 20
0.0
 30
0.0
 75
     0
  0
DIMASSOC
  5
106
102
{ACAD_REACTORS
330
105
102
}
330
105
100
AcDbDimAssoc
330
104
 90
        2
 70
     0
 71
     0
  1
AcDbOsnapPointRef
 72
     3
331
90
 73
     2
 91
        4
 40
0.0
 10
0.0
 20
0.0
 30
0.0
 75
     0
  0
DIMASSOC
  5
111
102
{ACAD_REACTORS
330
110
102
}
330
110
100
AcDbDimAssoc
330
10F
 90
        2
 70
     0
 71
     0
  1
AcDbOsnapPointRef
 72
     3
331
94
 73
     2
 91
        0
 40
0.0
 10
0.0
 20
0.0
 30
0.0
 75
     0
  0
DIMASSOC
  5
11C
102
{ACAD_REACTORS
330
11B
102
}
330
11B
100
AcDbDimAssoc
330
11A
 90
        2
 70
     0
 71
     0
  1
AcDbOsnapPointRef
 72
     3
331
9A
 73
     2
 91
        0
 40
0.0
 10
0.0
 20
0.0
 30
0.0
 75
     0
  0
DIMASSOC
  5
136
102
{ACAD_REACTORS
330
135
102
}
330
135
100
AcDbDimAssoc
330
134
 90
        1
 70
     0
 71
     0
  1
AcDbOsnapPointRef
 72
     6
331
90
 73
     2
 91
        1
 40
0.9999999999999758
 10
0.0
 20
0.0
 30
0.0
332
90
 74
     2
 92
        2
 75
     0
  0
DIMASSOC
  5
154
102
{ACAD_REACTORS
330
153
102
}
330
153
100
AcDbDimAssoc
330
152
 90
        1
 70
     0
 71
     0
  1
AcDbOsnapPointRef
 72
     1
331
6C
 73
     2
 91
        2
 40
1.0
 10
0.0
 20
0.0
 30
2.000000000000000E+50
 75
     0
  0
DIMASSOC
  5
164
102
{ACAD_REACTORS
330
163
102
}
330
163
100
AcDbDimAssoc
330
162
 90
        2
 70
     0
 71
     0
  1
AcDbOsnapPointRef
 72
     1
331
70
 73
     2
 91
        3
 40
1.0
 10
0.0
 20
0.0
 30
2.000000000000000E+50
 75
     0
  0
DIMASSOC
  5
174
102
{ACAD_REACTORS
330
173
102
}
330
173
100
AcDbDimAssoc
330
172
 90
        3
 70
     0
 71
     0
  1
AcDbOsnapPointRef
 72
     6
331
70
 73
     2
 91
        5
 40
0.0
 10
0.0
 20
0.0
 30
0.0
332
70
 74
     2
 92
        4
 75
     0
  1
AcDbOsnapPointRef
 72
     6
331
70
 73
     2
 91
        1
 40
1.0
 10
0.0
 20
0.0
 30
0.0
332
70
 74
     2
 92
        2
 75
     0
  0
DIMASSOC
  5
184
102
{ACAD_REACTORS
330
183
102
}
330
183
100
AcDbDimAssoc
330
182
 90
        3
 70
     0
 71
     0
  1
AcDbOsnapPointRef
 72
     1
331
6B
 73
     2
 91
        6
 40
3.141592653589793
 10
0.0
 20
0.0
 30
2.000000000000000E+50
 75
     0
  1
AcDbOsnapPointRef
 72
     1
331
6B
 73
     2
 91
        3
 40
1.0
 10
0.0
 20
0.0
 30
2.000000000000000E+50
 75
     0
  0
DIMASSOC
  5
194
102
{ACAD_REACTORS
330
193
102
}
330
193
100
AcDbDimAssoc
330
192
 90
        3
 70
     0
 71
     0
  1
AcDbOsnapPointRef
 72
     1
331
6C
 73
     2
 91
        1
 40
0.9999999999999998
 10
0.0
 20
0.0
 30
2.000000000000000E+50
 75
     0
  1
AcDbOsnapPointRef
 72
     1
331
6C
 73
     2
 91
        4
 40
1.0
 10
0.0
 20
0.0
 30
2.000000000000000E+50
 75
     0
  0
DIMASSOC
  5
1A4
102
{ACAD_REACTORS
330
1A3
102
}
330
1A3
100
AcDbDimAssoc
330
1A2
 90
        3
 70
     0
 71
     0
  1
AcDbOsnapPointRef
 72
     1
331
6B
 73
     2
 91
        4
 40
4.712388980384689
 10
0.0
 20
0.0
 30
2.000000000000000E+50
 75
     0
  1
AcDbOsnapPointRef
 72
    13
331
6B
 73
     2
 91
        2
 40
1.570796326794896
 10
0.0
 20
0.0
 30
2.000000000000000E+50
 75
     0
  0
DIMASSOC
  5
1B4
102
{ACAD_REACTORS
330
1B3
102
}
330
1B3
100
AcDbDimAssoc
330
1B2
 90
        3
 70
     0
 71
     0
  1
AcDbOsnapPointRef
 72
     1
331
6C
 73
     2
 91
        3
 40
1.0
 10
0.0
 20
0.0
 30
2.000000000000000E+50
 75
     0
  1
AcDbOsnapPointRef
 72
     1
331
6C
 73
     2
 91
        6
 40
1.0
 10
0.0
 20
0.0
 30
2.000000000000000E+50
 75
     0
  0
DIMASSOC
  5
1C4
102
{ACAD_REACTORS
330
1C3
102
}
330
1C3
100
AcDbDimAssoc
330
1C2
 90
        3
 70
     0
 71
     0
  1
AcDbOsnapPointRef
 72
     1
331
6D
 73
     2
 91
        0
 40
1.0
 10
0.0
 20
0.0
 30
2.000000000000000E+50
 75
     0
  1
AcDbOsnapPointRef
 72
     1
331
6E
 73
     2
 91
        2
 40
0.9999999999999998
 10
0.0
 20
0.0
 30
2.000000000000000E+50
 75
     0
  0
DIMASSOC
  5
1D4
102
{ACAD_REACTORS
330
1D3
102
}
330
1D3
100
AcDbDimAssoc
330
1D2
 90
        3
 70
     0
 71
     0
  1
AcDbOsnapPointRef
 72
    13
331
6D
 73
     2
 91
        0
 40
0.0
 10
0.0
 20
0.0
 30
2.000000000000000E+50
 75
     0
  1
AcDbOsnapPointRef
 72
     1
331
83
 73
     2
 91
        3
 40
1.0
 10
0.0
 20
0.0
 30
2.000000000000000E+50
 75
     0
  0
LAYOUT
  5
10
102
{ACAD_XDICTIONARY
360
12
102
}
102
{ACAD_REACTORS
330
11
102
}
330
11
100
AcDbPlotSettings
  1

  2
none_device
  4
ISO_A4_(210.00_x_297.00_MM)
  6

 40
7.5
 41
20.0
 42
7.5
 43
20.0
 44
210.0
 45
297.0
 46
11.54999923706054
 47
-13.65000009536743
 48
0.0
 49
0.0
140
0.0
141
0.0
142
1.0
143
8.704084754739808
 70
 11952
 72
     1
 73
     0
 74
     0
  7

 75
     0
147
0.1148885871608098
 76
     0
 77
     2
 78
   300
148
0.0
149
0.0
100
AcDbLayout
  1
Model
 70
     1
 71
     0
 10
0.0
 20
0.0
 11
12.0
 21
9.0
 12
0.0
 22
0.0
 32
0.0
 14
0.0
 24
0.0
 34
0.0
 15
0.0
 25
0.0
 35
0.0
146
0.0
 13
0.0
 23
0.0
 33
0.0
 16
1.0
 26
0.0
 36
0.0
 17
0.0
 27
1.0
 37
0.0
 76
     0
330
2
331
28
1001
ACAD_PSEXT
1000
None
1000
None
1000
Not applicable
1000
The layout will not be plotted unless a new plotter configuration name is selected.
1070
     0
  0
LAYOUT
  5
17
102
{ACAD_XDICTIONARY
360
18
102
}
102
{ACAD_REACTORS
330
11
102
}
330
11
100
AcDbPlotSettings
  1

  2
none_device
  4
ISO_A4_(210.00_x_297.00_MM)
  6

 40
7.5
 41
20.0
 42
7.5
 43
20.0
 44
210.0
 45
297.0
 46
0.0
 47
0.0
 48
0.0
 49
0.0
140
0.0
141
0.0
142
1.0
143
1.0
 70
   688
 72
     1
 73
     1
 74
     5
  7

 75
    16
147
1.0
 76
     0
 77
     2
 78
   300
148
0.0
149
0.0
100
AcDbLayout
  1
布局1
 70
     1
 71
     1
 10
-20.0
 20
-7.5
 11
277.0
 21
202.5
 12
0.0
 22
0.0
 32
0.0
 14
25.69999999999999
 24
19.5
 34
0.0
 15
231.3
 25
175.5
 35
0.0
146
0.0
 13
0.0
 23
0.0
 33
0.0
 16
1.0
 26
0.0
 36
0.0
 17
0.0
 27
1.0
 37
0.0
 76
     0
330
14
1001
ACAD_PSEXT
1000
无
1000
无
1000
不可用
1000
在选择新的绘图仪配置名称之前，不能打印该布局。
1070
     0
  0
MATERIAL
  5
3B
102
{ACAD_REACTORS
330
D
102
}
330
D
100
AcDbMaterial
  1
ByBlock
 73
     1
 78
     1
172
     1
176
     1
270
     1
274
     1
 94
       63
  0
MATERIAL
  5
3A
102
{ACAD_REACTORS
330
D
102
}
330
D
100
AcDbMaterial
  1
ByLayer
 73
     1
 78
     1
172
     1
176
     1
270
     1
274
     1
 94
       63
  0
MATERIAL
  5
C
102
{ACAD_REACTORS
330
D
102
}
330
D
100
AcDbMaterial
  1
Global
 73
     1
 78
     1
172
     1
176
     1
270
     1
274
     1
 94
       63
  0
MLINESTYLE
  5
45
102
{ACAD_REACTORS
330
38
102
}
330
38
100
AcDbMlineStyle
  2
STANDARD
 70
     0
  3

 62
   256
 51
90.0
 52
90.0
 71
     2
 49
0.5
 62
   256
  6
BYLAYER
 49
-0.5
 62
   256
  6
BYLAYER
  0
ACDBPLACEHOLDER
  5
9
102
{ACAD_REACTORS
330
A
102
}
330
A
  0
SCALE
  5
4A
102
{ACAD_REACTORS
330
3D
102
}
330
3D
100
AcDbScale
 70
     0
300
1:1
140
1.0
141
1.0
290
     1
  0
SCALE
  5
4B
102
{ACAD_REACTORS
330
3D
102
}
330
3D
100
AcDbScale
 70
     0
300
1:2
140
1.0
141
2.0
290
     0
  0
SCALE
  5
4C
102
{ACAD_REACTORS
330
3D
102
}
330
3D
100
AcDbScale
 70
     0
300
1:4
140
1.0
141
4.0
290
     0
  0
SCALE
  5
4D
102
{ACAD_REACTORS
330
3D
102
}
330
3D
100
AcDbScale
 70
     0
300
1:5
140
1.0
141
5.0
290
     0
  0
SCALE
  5
4E
102
{ACAD_REACTORS
330
3D
102
}
330
3D
100
AcDbScale
 70
     0
300
1:8
140
1.0
141
8.0
290
     0
  0
SCALE
  5
4F
102
{ACAD_REACTORS
330
3D
102
}
330
3D
100
AcDbScale
 70
     0
300
1:10
140
1.0
141
10.0
290
     0
  0
SCALE
  5
50
102
{ACAD_REACTORS
330
3D
102
}
330
3D
100
AcDbScale
 70
     0
300
1:16
140
1.0
141
16.0
290
     0
  0
SCALE
  5
51
102
{ACAD_REACTORS
330
3D
102
}
330
3D
100
AcDbScale
 70
     0
300
1:20
140
1.0
141
20.0
290
     0
  0
SCALE
  5
52
102
{ACAD_REACTORS
330
3D
102
}
330
3D
100
AcDbScale
 70
     0
300
1:30
140
1.0
141
30.0
290
     0
  0
SCALE
  5
53
102
{ACAD_REACTORS
330
3D
102
}
330
3D
100
AcDbScale
 70
     0
300
1:40
140
1.0
141
40.0
290
     0
  0
SCALE
  5
54
102
{ACAD_REACTORS
330
3D
102
}
330
3D
100
AcDbScale
 70
     0
300
1:50
140
1.0
141
50.0
290
     0
  0
SCALE
  5
55
102
{ACAD_REACTORS
330
3D
102
}
330
3D
100
AcDbScale
 70
     0
300
1:100
140
1.0
141
100.0
290
     0
  0
SCALE
  5
56
102
{ACAD_REACTORS
330
3D
102
}
330
3D
100
AcDbScale
 70
     0
300
2:1
140
2.0
141
1.0
290
     0
  0
SCALE
  5
57
102
{ACAD_REACTORS
330
3D
102
}
330
3D
100
AcDbScale
 70
     0
300
4:1
140
4.0
141
1.0
290
     0
  0
SCALE
  5
58
102
{ACAD_REACTORS
330
3D
102
}
330
3D
100
AcDbScale
 70
     0
300
8:1
140
8.0
141
1.0
290
     0
  0
SCALE
  5
59
102
{ACAD_REACTORS
330
3D
102
}
330
3D
100
AcDbScale
 70
     0
300
10:1
140
10.0
141
1.0
290
     0
  0
SCALE
  5
5A
102
{ACAD_REACTORS
330
3D
102
}
330
3D
100
AcDbScale
 70
     0
300
100:1
140
100.0
141
1.0
290
     0
  0
SCALE
  5
5B
102
{ACAD_REACTORS
330
3D
102
}
330
3D
100
AcDbScale
 70
     0
300
1/128" = 1'-0"
140
0.0078125
141
12.0
290
     0
  0
SCALE
  5
5C
102
{ACAD_REACTORS
330
3D
102
}
330
3D
100
AcDbScale
 70
     0
300
1/64" = 1'-0"
140
0.015625
141
12.0
290
     0
  0
SCALE
  5
5D
102
{ACAD_REACTORS
330
3D
102
}
330
3D
100
AcDbScale
 70
     0
300
1/32" = 1'-0"
140
0.03125
141
12.0
290
     0
  0
SCALE
  5
5E
102
{ACAD_REACTORS
330
3D
102
}
330
3D
100
AcDbScale
 70
     0
300
1/16" = 1'-0"
140
0.0625
141
12.0
290
     0
  0
SCALE
  5
5F
102
{ACAD_REACTORS
330
3D
102
}
330
3D
100
AcDbScale
 70
     0
300
3/32" = 1'-0"
140
0.09375
141
12.0
290
     0
  0
SCALE
  5
60
102
{ACAD_REACTORS
330
3D
102
}
330
3D
100
AcDbScale
 70
     0
300
1/8" = 1'-0"
140
0.125
141
12.0
290
     0
  0
SCALE
  5
61
102
{ACAD_REACTORS
330
3D
102
}
330
3D
100
AcDbScale
 70
     0
300
3/16" = 1'-0"
140
0.1875
141
12.0
290
     0
  0
SCALE
  5
62
102
{ACAD_REACTORS
330
3D
102
}
330
3D
100
AcDbScale
 70
     0
300
1/4" = 1'-0"
140
0.25
141
12.0
290
     0
  0
SCALE
  5
63
102
{ACAD_REACTORS
330
3D
102
}
330
3D
100
AcDbScale
 70
     0
300
3/8" = 1'-0"
140
0.375
141
12.0
290
     0
  0
SCALE
  5
64
102
{ACAD_REACTORS
330
3D
102
}
330
3D
100
AcDbScale
 70
     0
300
1/2" = 1'-0"
140
0.5
141
12.0
290
     0
  0
SCALE
  5
65
102
{ACAD_REACTORS
330
3D
102
}
330
3D
100
AcDbScale
 70
     0
300
3/4" = 1'-0"
140
0.75
141
12.0
290
     0
  0
SCALE
  5
66
102
{ACAD_REACTORS
330
3D
102
}
330
3D
100
AcDbScale
 70
     0
300
1" = 1'-0"
140
1.0
141
12.0
290
     0
  0
SCALE
  5
67
102
{ACAD_REACTORS
330
3D
102
}
330
3D
100
AcDbScale
 70
     0
300
1-1/2" = 1'-0"
140
1.5
141
12.0
290
     0
  0
SCALE
  5
68
102
{ACAD_REACTORS
330
3D
102
}
330
3D
100
AcDbScale
 70
     0
300
3" = 1'-0"
140
3.0
141
12.0
290
     0
  0
SCALE
  5
69
102
{ACAD_REACTORS
330
3D
102
}
330
3D
100
AcDbScale
 70
     0
300
6" = 1'-0"
140
6.0
141
12.0
290
     0
  0
SCALE
  5
6A
102
{ACAD_REACTORS
330
3D
102
}
330
3D
100
AcDbScale
 70
     0
300
1'-0" = 1'-0"
140
12.0
141
12.0
290
     0
  0
TABLESTYLE
  5
46
102
{ACAD_XDICTIONARY
360
47
102
}
102
{ACAD_REACTORS
330
3E
102
}
330
3E
100
AcDbTableStyle
280
     0
  3
Standard
 70
     0
 71
     0
 40
1.5
 41
1.5
280
     0
281
     0
  7
Standard
140
4.5
170
     2
 62
     0
 63
     7
283
     0
 90
      512
 91
        0
  1

274
    -2
284
     1
 64
     0
275
    -2
285
     1
 65
     0
276
    -2
286
     1
 66
     0
277
    -2
287
     1
 67
     0
278
    -2
288
     1
 68
     0
279
    -2
289
     1
 69
     0
  7
Standard
140
6.0
170
     5
 62
     0
 63
     7
283
     0
 90
      512
 91
        0
  1

274
    -2
284
     1
 64
     0
275
    -2
285
     1
 65
     0
276
    -2
286
     1
 66
     0
277
    -2
287
     1
 67
     0
278
    -2
288
     1
 68
     0
279
    -2
289
     1
 69
     0
  7
Standard
140
4.5
170
     5
 62
     0
 63
     7
283
     0
 90
      512
 91
        0
  1

274
    -2
284
     1
 64
     0
275
    -2
285
     1
 65
     0
276
    -2
286
     1
 66
     0
277
    -2
287
     1
 67
     0
278
    -2
288
     1
 68
     0
279
    -2
289
     1
 69
     0
  0
VISUALSTYLE
  5
29
102
{ACAD_REACTORS
330
2A
102
}
330
2A
100
AcDbVisualStyle
  2
2dWireframe
 70
     4
177
     3
291
     0
 70
    58
 90
        0
176
     1
 90
        2
176
     1
 90
        1
176
     1
 90
        0
176
     1
 40
0.6
176
     1
 40
30.0
176
     1
 62
     7
420
 16777215
176
     1
 90
        1
176
     1
 90
        4
176
     1
 62
     7
176
     1
 62
   257
176
     1
 90
        1
176
     1
 90
        1
176
     1
 40
1.0
176
     1
 90
        0
176
     1
 62
   257
176
     1
 40
1.0
176
     1
 90
        1
176
     1
 90
        6
176
     1
 90
        2
176
     1
 62
     7
176
     1
 90
        5
176
     1
 90
        0
176
     1
 90
        0
176
     1
290
     0
176
     1
 90
        1
176
     1
 40
0.0
176
     1
 90
        0
176
     1
290
     1
176
     1
290
     1
176
     1
290
     0
176
     1
290
     0
176
     1
290
     0
176
     1
290
     0
176
     1
290
     0
176
     1
290
     0
176
     1
290
     0
176
     1
 90
       50
176
     1
 40
0.0
176
     1
 40
1.0
176
     1
 90
        0
176
     1
 62
    18
420
        0
176
     1
 90
       50
176
     1
 90
        3
176
     1
 62
     5
420
      255
176
     1
290
     0
176
     1
 90
       50
176
     1
 90
       50
176
     1
 90
       50
176
     1
290
     0
176
     1
 90
       50
176
     1
 62
   256
176
     0
 40
1.0
176
     0
 90
        2
176
     1
  1
strokes_ogs.tif
176
     1
290
     0
176
     1
 40
1.0
176
     1
 40
1.0
176
     1
  0
VISUALSTYLE
  5
49
102
{ACAD_REACTORS
330
2A
102
}
330
2A
100
AcDbVisualStyle
  2
3dWireframe
 70
     5
177
     3
291
     0
 70
    58
 90
        0
176
     1
 90
        2
176
     1
 90
        1
176
     1
 90
        0
176
     1
 40
0.6
176
     1
 40
30.0
176
     1
 62
     7
420
 16777215
176
     1
 90
        1
176
     1
 90
        4
176
     1
 62
     7
176
     1
 62
   257
176
     1
 90
        1
176
     1
 90
        1
176
     1
 40
1.0
176
     1
 90
        0
176
     1
 62
   257
176
     1
 40
1.0
176
     1
 90
        1
176
     1
 90
        6
176
     1
 90
        2
176
     1
 62
     7
176
     1
 90
        5
176
     1
 90
        0
176
     1
 90
        0
176
     1
290
     0
176
     1
 90
        1
176
     1
 40
0.0
176
     1
 90
        0
176
     1
290
     0
176
     1
290
     1
176
     1
290
     1
176
     1
290
     0
176
     1
290
     0
176
     1
290
     0
176
     1
290
     0
176
     1
290
     0
176
     1
290
     0
176
     1
 90
       50
176
     1
 40
0.0
176
     1
 40
1.0
176
     1
 90
        0
176
     1
 62
    18
420
        0
176
     1
 90
       50
176
     1
 90
        3
176
     1
 62
     5
420
      255
176
     1
290
     0
176
     1
 90
       50
176
     1
 90
       50
176
     1
 90
       50
176
     1
290
     0
176
     1
 90
       50
176
     1
 62
   256
176
     0
 40
1.0
176
     0
 90
        2
176
     1
  1
strokes_ogs.tif
176
     1
290
     0
176
     1
 40
1.0
176
     1
 40
1.0
176
     1
  0
VISUALSTYLE
  5
48
102
{ACAD_REACTORS
330
2A
102
}
330
2A
100
AcDbVisualStyle
  2
Realistic
 70
     8
177
     3
291
     0
 70
    58
 90
        2
176
     1
 90
        2
176
     1
 90
        1
176
     1
 90
        0
176
     1
 40
0.6
176
     1
 40
30.0
176
     1
 62
     7
420
 16777215
176
     1
 90
        1
176
     1
 90
        0
176
     1
 62
     7
176
     1
 62
   257
176
     1
 90
        1
176
     1
 90
        1
176
     1
 40
1.0
176
     1
 90
        8
176
     1
 62
     8
420
  7895160
176
     1
 40
1.0
176
     1
 90
        1
176
     1
 90
        6
176
     1
 90
        2
176
     1
 62
     7
176
     1
 90
        5
176
     1
 90
        0
176
     1
 90
        0
176
     1
290
     0
176
     1
 90
       13
176
     1
 40
0.0
176
     1
 90
        0
176
     1
290
     0
176
     1
290
     1
176
     1
290
     1
176
     1
290
     0
176
     1
290
     0
176
     1
290
     0
176
     1
290
     0
176
     1
290
     0
176
     1
290
     0
176
     1
 90
       50
176
     1
 40
0.0
176
     1
 40
1.0
176
     1
 90
        0
176
     1
 62
    18
420
        0
176
     1
 90
       50
176
     1
 90
        3
176
     1
 62
     5
420
      255
176
     1
290
     0
176
     1
 90
       50
176
     1
 90
       50
176
     1
 90
       50
176
     1
290
     0
176
     1
 90
       50
176
     1
 62
   256
176
     0
 40
1.0
176
     0
 90
        2
176
     1
  1
strokes_ogs.tif
176
     1
290
     0
176
     1
 40
1.0
176
     1
 40
1.0
176
     1
  0
DICTIONARYVAR
  5
1FA
102
{ACAD_REACTORS
330
1F4
102
}
330
1F4
100
DictionaryVariables
280
     0
  1
1:1
  0
DICTIONARYVAR
  5
1F6
102
{ACAD_REACTORS
330
1F4
102
}
330
1F4
100
DictionaryVariables
280
     0
  1
STANDARD
  0
DICTIONARYVAR
  5
1F5
102
{ACAD_REACTORS
330
1F4
102
}
330
1F4
100
DictionaryVariables
280
     0
  1
STANDARD
  0
DICTIONARYVAR
  5
1F7
102
{ACAD_REACTORS
330
1F4
102
}
330
1F4
100
DictionaryVariables
280
     0
  1

  0
DICTIONARYVAR
  5
1F8
102
{ACAD_REACTORS
330
1F4
102
}
330
1F4
100
DictionaryVariables
280
     0
  1

  0
DICTIONARYVAR
  5
1FC
102
{ACAD_REACTORS
330
1F4
102
}
330
1F4
100
DictionaryVariables
280
     0
  1
1
  0
DICTIONARYVAR
  5
1FD
102
{ACAD_REACTORS
330
1F4
102
}
330
1F4
100
DictionaryVariables
280
     0
  1
15
  0
DICTIONARYVAR
  5
1FB
102
{ACAD_REACTORS
330
1F4
102
}
330
1F4
100
DictionaryVariables
280
     0
  1
0
  0
DICTIONARYVAR
  5
1F9
102
{ACAD_REACTORS
330
1F4
102
}
330
1F4
100
DictionaryVariables
280
     0
  1
0
  0
DICTIONARY
  5
12
330
10
100
AcDbDictionary
280
     1
281
     1
  0
DICTIONARY
  5
18
330
17
100
AcDbDictionary
280
     1
281
     1
  0
DICTIONARY
  5
47
330
46
100
AcDbDictionary
280
     1
281
     1
  3
ACAD_ROUNDTRIP_2008_TABLESTYLE_CELLSTYLEMAP
360
1FE
  0
CELLSTYLEMAP
  5
1FE
102
{ACAD_REACTORS
330
47
102
}
330
47
100
AcDbCellStyleMap
 90
        3
300
CELLSTYLE
  1
TABLEFORMAT_BEGIN
 90
        5
170
     1
 91
        0
 92
    32768
 62
   257
 93
        1
300
CONTENTFORMAT
  1
CONTENTFORMAT_BEGIN
 90
        0
 91
        0
 92
      512
 93
        0
300

 40
0.0
140
1.0
 94
        5
 62
     0
340
20
144
6.0
309
CONTENTFORMAT_END
171
     1
301
MARGIN
  1
CELLMARGIN_BEGIN
 40
1.5
 40
1.5
 40
1.5
 40
1.5
 40
0.18
 40
0.18
309
CELLMARGIN_END
 94
        6
 95
        1
302
GRIDFORMAT
  1
GRIDFORMAT_BEGIN
 90
        0
 91
        1
 62
     0
 92
       -2
340
0
 93
        0
 40
0.045
309
GRIDFORMAT_END
 95
        2
302
GRIDFORMAT
  1
GRIDFORMAT_BEGIN
 90
        0
 91
        1
 62
     0
 92
       -2
340
0
 93
        0
 40
0.045
309
GRIDFORMAT_END
 95
        4
302
GRIDFORMAT
  1
GRIDFORMAT_BEGIN
 90
        0
 91
        1
 62
     0
 92
       -2
340
0
 93
        0
 40
0.045
309
GRIDFORMAT_END
 95
        8
302
GRIDFORMAT
  1
GRIDFORMAT_BEGIN
 90
        0
 91
        1
 62
     0
 92
       -2
340
0
 93
        0
 40
0.045
309
GRIDFORMAT_END
 95
       16
302
GRIDFORMAT
  1
GRIDFORMAT_BEGIN
 90
        0
 91
        1
 62
     0
 92
       -2
340
0
 93
        0
 40
0.045
309
GRIDFORMAT_END
 95
       32
302
GRIDFORMAT
  1
GRIDFORMAT_BEGIN
 90
        0
 91
        1
 62
     0
 92
       -2
340
0
 93
        0
 40
0.045
309
GRIDFORMAT_END
309
TABLEFORMAT_END
  1
CELLSTYLE_BEGIN
 90
        1
 91
        1
300
_TITLE
309
CELLSTYLE_END
300
CELLSTYLE
  1
TABLEFORMAT_BEGIN
 90
        5
170
     1
 91
        0
 92
        0
 62
   257
 93
        1
300
CONTENTFORMAT
  1
CONTENTFORMAT_BEGIN
 90
        0
 91
        0
 92
      512
 93
        0
300

 40
0.0
140
1.0
 94
        5
 62
     0
340
20
144
4.5
309
CONTENTFORMAT_END
171
     1
301
MARGIN
  1
CELLMARGIN_BEGIN
 40
1.5
 40
1.5
 40
1.5
 40
1.5
 40
0.18
 40
0.18
309
CELLMARGIN_END
 94
        6
 95
        1
302
GRIDFORMAT
  1
GRIDFORMAT_BEGIN
 90
        0
 91
        1
 62
     0
 92
       -2
340
0
 93
        0
 40
0.045
309
GRIDFORMAT_END
 95
        2
302
GRIDFORMAT
  1
GRIDFORMAT_BEGIN
 90
        0
 91
        1
 62
     0
 92
       -2
340
0
 93
        0
 40
0.045
309
GRIDFORMAT_END
 95
        4
302
GRIDFORMAT
  1
GRIDFORMAT_BEGIN
 90
        0
 91
        1
 62
     0
 92
       -2
340
0
 93
        0
 40
0.045
309
GRIDFORMAT_END
 95
        8
302
GRIDFORMAT
  1
GRIDFORMAT_BEGIN
 90
        0
 91
        1
 62
     0
 92
       -2
340
0
 93
        0
 40
0.045
309
GRIDFORMAT_END
 95
       16
302
GRIDFORMAT
  1
GRIDFORMAT_BEGIN
 90
        0
 91
        1
 62
     0
 92
       -2
340
0
 93
        0
 40
0.045
309
GRIDFORMAT_END
 95
       32
302
GRIDFORMAT
  1
GRIDFORMAT_BEGIN
 90
        0
 91
        1
 62
     0
 92
       -2
340
0
 93
        0
 40
0.045
309
GRIDFORMAT_END
309
TABLEFORMAT_END
  1
CELLSTYLE_BEGIN
 90
        2
 91
        1
300
_HEADER
309
CELLSTYLE_END
300
CELLSTYLE
  1
TABLEFORMAT_BEGIN
 90
        5
170
     1
 91
        0
 92
        0
 62
   257
 93
        1
300
CONTENTFORMAT
  1
CONTENTFORMAT_BEGIN
 90
        0
 91
        0
 92
      512
 93
        0
300

 40
0.0
140
1.0
 94
        2
 62
     0
340
20
144
4.5
309
CONTENTFORMAT_END
171
     1
301
MARGIN
  1
CELLMARGIN_BEGIN
 40
1.5
 40
1.5
 40
1.5
 40
1.5
 40
0.18
 40
0.18
309
CELLMARGIN_END
 94
        6
 95
        1
302
GRIDFORMAT
  1
GRIDFORMAT_BEGIN
 90
        0
 91
        1
 62
     0
 92
       -2
340
0
 93
        0
 40
0.045
309
GRIDFORMAT_END
 95
        2
302
GRIDFORMAT
  1
GRIDFORMAT_BEGIN
 90
        0
 91
        1
 62
     0
 92
       -2
340
0
 93
        0
 40
0.045
309
GRIDFORMAT_END
 95
        4
302
GRIDFORMAT
  1
GRIDFORMAT_BEGIN
 90
        0
 91
        1
 62
     0
 92
       -2
340
0
 93
        0
 40
0.045
309
GRIDFORMAT_END
 95
        8
302
GRIDFORMAT
  1
GRIDFORMAT_BEGIN
 90
        0
 91
        1
 62
     0
 92
       -2
340
0
 93
        0
 40
0.045
309
GRIDFORMAT_END
 95
       16
302
GRIDFORMAT
  1
GRIDFORMAT_BEGIN
 90
        0
 91
        1
 62
     0
 92
       -2
340
0
 93
        0
 40
0.045
309
GRIDFORMAT_END
 95
       32
302
GRIDFORMAT
  1
GRIDFORMAT_BEGIN
 90
        0
 91
        1
 62
     0
 92
       -2
340
0
 93
        0
 40
0.045
309
GRIDFORMAT_END
309
TABLEFORMAT_END
  1
CELLSTYLE_BEGIN
 90
        3
 91
        2
300
_DATA
309
CELLSTYLE_END
  0
ENDSEC
  0
SECTION
  2
ACDSDATA
 70
     2
 71
     6
  0
ACDSSCHEMA
 90
        0
  1
AcDb_Thumbnail_Schema
  2
AcDbDs::ID
280
    10
 91
        8
  2
Thumbnail_Data
280
    15
 91
        0
101
ACDSRECORD
 95
        0
 90
        1
  2
AcDbDs::TreatedAsObjectData
280
     1
291
     1
101
ACDSRECORD
 95
        0
 90
        2
  2
AcDbDs::Legacy
280
     1
291
     1
101
ACDSRECORD
  1
AcDbDs::ID
 90
        3
  2
AcDs:Indexable
280
     1
291
     1
101
ACDSRECORD
  1
AcDbDs::ID
 90
        4
  2
AcDbDs::HandleAttribute
280
     7
282
     1
  0
ACDSSCHEMA
 90
        1
  1
AcDbDs::TreatedAsObjectDataSchema
  2
AcDbDs::TreatedAsObjectData
280
     1
 91
        0
  0
ACDSSCHEMA
 90
        2
  1
AcDbDs::LegacySchema
  2
AcDbDs::Legacy
280
     1
 91
        0
  0
ACDSSCHEMA
 90
        3
  1
AcDbDs::IndexedPropertySchema
  2
AcDs:Indexable
280
     1
 91
        0
  0
ACDSSCHEMA
 90
        4
  1
AcDbDs::HandleAttributeSchema
  2
AcDbDs::HandleAttribute
280
     7
 91
        1
284
     1
  0
ACDSRECORD
 90
        0
  2
AcDbDs::ID
280
    10
320
10
  2
Thumbnail_Data
280
    15
 94
     3088
310
89504E470D0A1A0A0000000D49484452000001000000005E0803000000FB5F3A6700000300504C5445212830000000C8C8C80000000000000000000000000000000000000000000000000000330000660000990000CC0000FF0033000033330033660033990033CC0033FF0066000066330066660066990066CC0066FF0099
310
000099330099660099990099CC0099FF00CC0000CC3300CC6600CC9900CCCC00CCFF00FF0000FF3300FF6600FF9900FFCC00FFFF3300003300333300663300993300CC3300FF3333003333333333663333993333CC3333FF3366003366333366663366993366CC3366FF3399003399333399663399993399CC3399FF33CC00
310
33CC3333CC6633CC9933CCCC33CCFF33FF0033FF3333FF6633FF9933FFCC33FFFF6600006600336600666600996600CC6600FF6633006633336633666633996633CC6633FF6666006666336666666666996666CC6666FF6699006699336699666699996699CC6699FF66CC0066CC3366CC6666CC9966CCCC66CCFF66FF0066
310
FF3366FF6666FF9966FFCC66FFFF9900009900339900669900999900CC9900FF9933009933339933669933999933CC9933FF9966009966339966669966999966CC9966FF9999009999339999669999999999CC9999FF99CC0099CC3399CC6699CC9999CCCC99CCFF99FF0099FF3399FF6699FF9999FFCC99FFFFCC0000CC00
310
33CC0066CC0099CC00CCCC00FFCC3300CC3333CC3366CC3399CC33CCCC33FFCC6600CC6633CC6666CC6699CC66CCCC66FFCC9900CC9933CC9966CC9999CC99CCCC99FFCCCC00CCCC33CCCC66CCCC99CCCCCCCCCCFFCCFF00CCFF33CCFF66CCFF99CCFFCCCCFFFFFF0000FF0033FF0066FF0099FF00CCFF00FFFF3300FF3333
310
FF3366FF3399FF33CCFF33FFFF6600FF6633FF6666FF6699FF66CCFF66FFFF9900FF9933FF9966FF9999FF99CCFF99FFFFCC00FFCC33FFCC66FFCC99FFCCCCFFCCFFFFFF00FFFF33FFFF66FFFF99FFFFCCFFFFFF0000000D0D0D1A1A1A2828283535354343435050505D5D5D6B6B6B787878868686939393A1A1A1AEAEAEBB
310
BBBBC9C9C9D6D6D6E4E4E4F1F1F1FFFFFF000000000000000000000000000000000000000000000000000000000000B21171F6000002A84944415478DAED9A4196E3200C447503EE7F199F4427E8BDF6632410C276DC9DD909EABFD7B1439405655148A48900000000000000000000BEA25484B97C2484C9F9C262D7C7B08C
310
0288C285EAABDE1C42F55A3FA98331ACB4EB79432DBCF4EFE71640CE09B12B41365716620E02F024007749B87E33AF00E79F4D28DE7018B130D607AE0FFE1C61BBB10C508DF20A50A4BC333CE0F7B0A42628DDD5F4890EC43382CA71B4414D78B160594180A34DC84CCD56B9BA9BBD2717E010398207C86482893DA07A18B7
310
C5CDD1E7EDE2029CD3AF59A0AAB00B602658079632417BB414DCAD981B16DD2CFCA6EA63B6C8A93D60671314DBCEEAF326694F747CC2BDC291661145CBA436F063B99FBC101AA6E602D4F9C40A69AA04E9A8E8D2672F84329B6014805B06E87A6F2E475701C62EF013B683CC8590EFE6615BE75B1DE0C5823E7E8D615B3BCC
310
232CA7097A73E7D769C0C3CA87309326AD09F67AC69B1B4B729ADC4DAC17200F93BE42C4F651CAED01560871BF69738DEE36B7C3BD2DAC6192BC12AC7E37BB5BCB800701D83DDF0B46D20C4ADD0E8F25DD4D90E5A9106A2D501196D5BAC1BBF7BD9AE05B584E131C271DBDBB5377EBC97E291835E5FBF7B87B65E23A407773
310
EECD8D146F834D107E2884CC225B9D945E8031B3D6DD4D02B80912D3D82C7CDE2B08C02CBB1F897D59092E6682A119224F6996FE09533041A65827DA487A13EC56E7955D9B105D8EC462B36C3AD11A1E100E39A3BBFD51005AC004373F12FBC504E56A827737AC594489917B4ADBC1EFF8D5B4970B5CDFB4EEB72F86BCA9FF
310
2A807C10E0DC0C9E2D626101A6F3009A3220F741C87F9A202D637E5F0AB02E32FF2478EB72640701C2BF7EB46E90371340AE026C9401DB7BC026D37C3D11D2BA6F6701BCEBDF5380454A7A7800000000000000000000000000000000000000000058967F7E34618580B8E1270000000049454E44AE4260828D57344085533A
310
0580AEA7FD552D3B02C847C8BD016403CAED7A3C001DEDA1C1D9F5027032E3B730812280D258771480AC6C970AD749C1B31C8C454264020075275F1E431600AE49CBDCF4414EB069C63B15C0CFD761015800168005600158001680056001302A7C6D9C5CB2C45042C68E62EA8E4A493CBBD221969EE6E240A301E41971180F
310
20ECBD1D0C40379B7D1E537AE965C45000697788AEC59CD2619CFD852A40A802C8CE185E3A1DBB9486B67FC992254B96FCBAACD9E04A88B4D6218C27261EA3B30E51793B80371FA404738EB0C97DC0D46374266BC0EBA3C00270AD0ED99AB43C4BD4B488E71F05407CD7C6B16FBDF0605FDB0F2600CA8CE9CEE92AF74EB190
310
B999748C47E1780BA4FA86B6BB00D8DE2D60C5472E640C402CD81400C442DE00000AAB7D9F01905B22F9312A49F7E23EEB6F1CEE02286BC0FE849D24530600CF00886D33E9E7C45EE1E37499EF0B49EF01A899400AEB9600B812C49F13B6457EB178A8C07000700EE0A90F10DB6618805DE3D3794E13017C31812E00A00000
310
BCCB4D657702A0F3FD55A7969C1024A5BC6D02D5D70C54E4C95E139800006AD500C8A2807E7184CD004A3B95CE0040F23F1EFD4F0000AE0F22327501204C008895F6174573F054823B1F380000000049454E44AE426082E4C1E43AC59A6B00284C54F282C9029C3BB50420FF97A517AA844E1B401637811F61980190444E60
310
D9BFD35209004A002EEF0131857B0280DEF7808CA10CBC4099231E6DE89C4E05186EB79C4C273543F1A32087AA87634E3C2354247861C10B28D17656E66B399F09D4DC144B9A9904BA3A41BE1D07AC08BD835AED38A09087A7220E3543228E46E75F1D79DA7083CA11AF00907A239DB38E03168411452D072AE939391A9D41
310
9E7683AED7A7B61790B158DA50D30DC2348042504BE2636A0A731CF01600A2BE9A733974837A9B1E0360DF396CA994540B00C1E8F523326F8803AA5F16000C744E13C0B8A55254E70723D2A379F9FC78D80ADD7B01AC5AC0C89AAB4028C8C36EF068D9210ED097A683D302E0840568F5D5999A756B1334EC7E62130C2DF057
310
8EB996482A959955573D1AB11D078C8F228FBB3505A0DB58CF0DEA4AB6F7BF3A1FB033962F4888FC848CD00DE006706DA55B1768BE3EE644D9BADBBEC8B77B48D5B8CD6702B8CB5D3EB97C8F17B8D4117C651CE075CE07AD34C47E6747EAA4C71BFBFE36001BB7FB3B0076E3B34B83C11DAF8ABF1080E1D71F0BA3C6C651D7
310
DF02C00C6D16DA780700A559B11E447048D54C003083B44E923BE594D41B4273C66B0540B104F6DE2728EF67F4C99D0C00CA74ED18801DA6B64ECE25F12DBC361548254AB72C20533C6901247DA8F2D56300E0729A7302404E2852FE29FEBF0DC09D01A0327CEA44F0E1BC7E1300CF7B3C3E380B0038D11B6DA11009573641
310
EA1FF35A04404A211DEC01FA4497A4C8BB395EB5D9387912A5A98DF40BC6974A52FC1109D3F332A70048F71B1A470D80F2B89321CE01187CAB5D7283AD37349F7383D3004084BEA117303EEF9D379CF402E8CEBE57588D9A9AA7D9C64B601C0758808ADD7F17803BF75A5DE505C40D1E17E67813DC0C84F4EEBF1B08B9732F
310
562EDC600E848EDD9A8D03681580218ECD00F80FFCCA34FB22FED71E0000000049454E44AE426082E09220F07EE34716487C3D00DF78FC0FC44B3A62B4C2B0830000000049454E44AE42608202604C066904C036B8BECFEA63A6F44200E4F233003801207375E978465C7A4027F3DE0338E10A792CD05E901DCF095F0D8138
310
579801602140D1A8E59D951610AAE8DEEF6A68C8006BC7D26B43C013F0EE014EF78510C8C62B8FB68610200F005835625C0368CA2A378700C569F9C4CF40FB93D14A05D701004C00A8CE7B19EBBB120278BB33E70098A1029367836F51E19FA2BD6FA305DE0A80BFCD046F90ED878C5F7876F8D5FF33E8073CE0DD8FDD5AE0
310
171C9DCC432C8F0B298D6DBB8EF763C8DB8BF545ECEDE93C40B8909179CDD90145008CF747007804DCF37F7E5E02008E1EC0143FB6EEF764FE0080F47BFD460FE8091DFFCF6BBA1448ED3A81F71F9EEB6FEAE77F65081897752180931070D2DF42A073E15F0980FEA31F98787B0A0179D4011300FC7CF36F0D814CE6AF3055
310
A790C32ED007F88D00ECD302BF0080BFC004FF01B681ADE50E1690DA0000000049454E44AE426082
  0
ACDSRECORD
 90
        0
  2
AcDbDs::ID
280
    10
320
17
  2
Thumbnail_Data
280
    15
 94
     1943
310
89504E470D0A1A0A0000000D49484452000000B80000007F08030000006B00F8F900000300504C5445FFFFFF000000FFFFFF0000000000000000000000000000000000000000000000000000330000660000990000CC0000FF0033000033330033660033990033CC0033FF0066000066330066660066990066CC0066FF0099
310
000099330099660099990099CC0099FF00CC0000CC3300CC6600CC9900CCCC00CCFF00FF0000FF3300FF6600FF9900FFCC00FFFF3300003300333300663300993300CC3300FF3333003333333333663333993333CC3333FF3366003366333366663366993366CC3366FF3399003399333399663399993399CC3399FF33CC00
310
33CC3333CC6633CC9933CCCC33CCFF33FF0033FF3333FF6633FF9933FFCC33FFFF6600006600336600666600996600CC6600FF6633006633336633666633996633CC6633FF6666006666336666666666996666CC6666FF6699006699336699666699996699CC6699FF66CC0066CC3366CC6666CC9966CCCC66CCFF66FF0066
310
FF3366FF6666FF9966FFCC66FFFF9900009900339900669900999900CC9900FF9933009933339933669933999933CC9933FF9966009966339966669966999966CC9966FF9999009999339999669999999999CC9999FF99CC0099CC3399CC6699CC9999CCCC99CCFF99FF0099FF3399FF6699FF9999FFCC99FFFFCC0000CC00
310
33CC0066CC0099CC00CCCC00FFCC3300CC3333CC3366CC3399CC33CCCC33FFCC6600CC6633CC6666CC6699CC66CCCC66FFCC9900CC9933CC9966CC9999CC99CCCC99FFCCCC00CCCC33CCCC66CCCC99CCCCCCCCCCFFCCFF00CCFF33CCFF66CCFF99CCFFCCCCFFFFFF0000FF0033FF0066FF0099FF00CCFF00FFFF3300FF3333
310
FF3366FF3399FF33CCFF33FFFF6600FF6633FF6666FF6699FF66CCFF66FFFF9900FF9933FF9966FF9999FF99CCFF99FFFFCC00FFCC33FFCC66FFCC99FFCCCCFFCCFFFFFF00FFFF33FFFF66FFFF99FFFFCCFFFFFF0000000D0D0D1A1A1A2828283535354343435050505D5D5D6B6B6B787878868686939393A1A1A1AEAEAEBB
310
BBBBC9C9C9D6D6D6E4E4E4F1F1F1FFFFFF000000000000000000000000000000000000000000000000000000000000790CAC0F000004524944415478DAED9C5B92E3200C457B03296DC3FB5F801673FF7A01FE1F03120870E2C476067B46547742223F0E422F70557E30DFAEE127340777F01DE0D0D67FB329998F48DEB8CD
310
6BF00B6BD9C11DDCC11DFC2F827BE674F0FF0D1C03DB31F06B441107BF1E38AE0B0E0777700777700777700777F017470344F7D4F8427E4F70BA32F8FE7A1C331E783CEEB09000D82C0C69017F00B70067669415757C7FDC0E9C22F8E31E1ADFD843F0C5F279E0D12D97170AFFF1134BA324E4F4B27CE2245B5E108F260AA7
310
8C0347200978020E0154F0481EC09380C24029B591E02117051A8E1A8F5A8D2A65FD1407B5BC0938A21F07DE059CBF028EF74D25AA51512366D2384B37998A50733A7289F6BBC1712278C281804350A59B3F41A640344E34103C6917195C5B724716764E1ACFF331BE1E57D4A4D50C9E2C1E6520622A024E9F45D9AF2C2432
310
99D8B8D8B4A012178D4B1894195A44F1148CD3B844BCA871FC26EB50E7D481A461B0E81C31A0F058E7FC65D65092C025EB041B9F72CED1381E2A996446F360F01C9D610260F994C849C0A72906F8B47E1AADF11CF08A03E65CC91A56248FE626E043C361059EBB098E21F1A68A2AA04F97DA5F0297C229C771709F39D539A3
310
3064CDF1FB2A14DC2DFC49CA11238E1A5F64596C8EBC88C6818F33E11576B2A434F12DB8A1FB2ABEE63C177C9AB45364B9BB261C0F3EED019FB687504E9ABE028E6A87D944402E256E125AD9D41E34B5DF404B16E97077E1A3E069FD55DF25769545C16571660F2B747969CF65CF9A6C07FDD00E8287CBE64283CAE63E7306
310
4F5054C0739AE49AAE9928A31A7DD323F83078BABE5ED53C95985445508D970D13D98BB0F68056E38C6A324A49B00F1C7D39654DC5541CD96896D42F1A2FE07AFC1B1A97D3D4E09E837F98391B533170DAD3C1982DD04C513055E36A6C6826B19993E3E05C598175CE1EDCCC06D3BA618411C8A5A8BAE4B6A9EC02CFCE9627
310
543625D69D93559D9D6198A88297CED9D7707BC0B37AD9C0C982271B74B9756F2A2BCE59AC4FC06B8DCB3383A31ACF536F6D1CB55B113F3795F9453894B8D5D838D1291A2FA6626C5C2759BEB3326C6B5CE747C6DB829F632A26031A1B6F7465ED1F5D1CD76DAF671AA7169CCE01A795A802420DCE2DB80DF6B245DED72A12
310
0E8B734E279A8AE4982A0141328FDED280E7606D071CB7548AC689AAA8424D02024E76CE5248E94EB79A4F1D2A3B8DD393EA50AF124DC9809FEB9C553D4273F5DDA2A3E97991A57B0205BCD5B88027C1D9CE694C25F74AE62C95E976386C8BACF8F80B79B0A7D978EF9C2BB9B0C8A80D874017C7A90A87F149184ECF9CDCDA
310
C00AB89575AB9915F0B5871CFB13D0FC1ADCDC8DDAC95F5DD6992AF33538911638672D24DE867B094EB4A5F1B8857A3DF04D51798E7833F066957F5BF0D9C11DDCC13FCA9C23C1E1E0D706BFCE13090777700777700777700777F0CDB30782CF0E7E6DF0BBFE68C6459B833BF86E70FF9D2C0777700777F0BA36795EAD3C95
310
CC4724477F8CD433A783FF93E0376C81FB0FE8D566DAC99D001A0000000049454E44AE426082
  0
ENDSEC
  0
EOF
