  0
SECTION
  2
HEADER
  9
$ACADVER
  1
AC1027
  9
$ACADMAINTVER
 70
    55
  9
$DWGCODEPAGE
  3
ANSI_936
  9
$REQUIREDVERSIONS
160
                 0
  9
$INSBASE
 10
0.0
 20
0.0
 30
0.0
  9
$EXTMIN
 10
-34607.30634793638
 20
16112.5105673383
 30
0.0
  9
$EXTMAX
 10
-1202.65293636074
 20
36148.28396290183
 30
506.0
  9
$LIMMIN
 10
0.0
 20
0.0
  9
$LIMMAX
 10
420.0
 20
297.0
  9
$ORTHOMODE
 70
     0
  9
$REGENMODE
 70
     1
  9
$FILLMODE
 70
     1
  9
$QTEXTMODE
 70
     0
  9
$MIRRTEXT
 70
     0
  9
$LTSCALE
 40
1.0
  9
$ATTMODE
 70
     1
  9
$TEXTSIZE
 40
2.5
  9
$TRACEWID
 40
1.0
  9
$TEXTSTYLE
  7
样式 2
  9
$CLAYER
  8
标注
  9
$CELTYPE
  6
ByLayer
  9
$CECOLOR
 62
     0
  9
$CELTSCALE
 40
1.0
  9
$DISPSILH
 70
     0
  9
$DIMSCALE
 40
1.0
  9
$DIMASZ
 40
25.0
  9
$DIMEXO
 40
2.0
  9
$DIMDLI
 40
0.38
  9
$DIMRND
 40
0.0
  9
$DIMDLE
 40
0.0
  9
$DIMEXE
 40
0.18
  9
$DIMTP
 40
0.0
  9
$DIMTM
 40
0.0
  9
$DIMTXT
 40
25.0
  9
$DIMCEN
 40
0.0
  9
$DIMTSZ
 40
0.0
  9
$DIMTOL
 70
     0
  9
$DIMLIM
 70
     0
  9
$DIMTIH
 70
     0
  9
$DIMTOH
 70
     0
  9
$DIMSE1
 70
     0
  9
$DIMSE2
 70
     0
  9
$DIMTAD
 70
     0
  9
$DIMZIN
 70
     0
  9
$DIMBLK
  1

  9
$DIMASO
 70
     1
  9
$DIMSHO
 70
     1
  9
$DIMPOST
  1

  9
$DIMAPOST
  1

  9
$DIMALT
 70
     1
  9
$DIMALTD
 70
     2
  9
$DIMALTF
 40
0.03937
  9
$DIMLFAC
 40
1.0
  9
$DIMTOFL
 70
     0
  9
$DIMTVP
 40
0.0
  9
$DIMTIX
 70
     0
  9
$DIMSOXD
 70
     0
  9
$DIMSAH
 70
     0
  9
$DIMBLK1
  1

  9
$DIMBLK2
  1

  9
$DIMSTYLE
  2
Standard
  9
$DIMCLRD
 70
     2
  9
$DIMCLRE
 70
     2
  9
$DIMCLRT
 70
     2
  9
$DIMTFAC
 40
1.0
  9
$DIMGAP
 40
1.0
  9
$DIMJUST
 70
     0
  9
$DIMSD1
 70
     0
  9
$DIMSD2
 70
     0
  9
$DIMTOLJ
 70
     1
  9
$DIMTZIN
 70
     0
  9
$DIMALTZ
 70
     0
  9
$DIMALTTZ
 70
     0
  9
$DIMUPT
 70
     0
  9
$DIMDEC
 70
     2
  9
$DIMTDEC
 70
     2
  9
$DIMALTU
 70
     2
  9
$DIMALTTD
 70
     2
  9
$DIMTXSTY
  7
Standard
  9
$DIMAUNIT
 70
     0
  9
$DIMADEC
 70
     0
  9
$DIMALTRND
 40
0.0
  9
$DIMAZIN
 70
     0
  9
$DIMDSEP
 70
    46
  9
$DIMATFIT
 70
     3
  9
$DIMFRAC
 70
     0
  9
$DIMLDRBLK
  1

  9
$DIMLUNIT
 70
     2
  9
$DIMLWD
 70
    -1
  9
$DIMLWE
 70
    -1
  9
$DIMTMOVE
 70
     0
  9
$DIMFXL
 40
1.0
  9
$DIMFXLON
 70
     0
  9
$DIMJOGANG
 40
0.7853981633974483
  9
$DIMTFILL
 70
     0
  9
$DIMTFILLCLR
 70
     2
  9
$DIMARCSYM
 70
     0
  9
$DIMLTYPE
  6
ByLayer
  9
$DIMLTEX1
  6
ByLayer
  9
$DIMLTEX2
  6
ByLayer
  9
$DIMTXTDIRECTION
 70
     0
  9
$LUNITS
 70
     2
  9
$LUPREC
 70
     3
  9
$SKETCHINC
 40
1.0
  9
$FILLETRAD
 40
30.0
  9
$AUNITS
 70
     0
  9
$AUPREC
 70
     0
  9
$MENU
  1
.
  9
$ELEVATION
 40
0.0
  9
$PELEVATION
 40
0.0
  9
$THICKNESS
 40
0.0
  9
$LIMCHECK
 70
     0
  9
$CHAMFERA
 40
10.0
  9
$CHAMFERB
 40
10.0
  9
$CHAMFERC
 40
0.0
  9
$CHAMFERD
 40
0.0
  9
$SKPOLY
 70
     0
  9
$TDCREATE
 40
2455815.639909213
  9
$TDUCREATE
 40
2455815.306575880
  9
$TDUPDATE
 40
2457273.679684352
  9
$TDUUPDATE
 40
2457273.346351019
  9
$TDINDWG
 40
25.3420769097
  9
$TDUSRTIMER
 40
25.3420754630
  9
$USRTIMER
 70
     1
  9
$ANGBASE
 50
0.0
  9
$ANGDIR
 70
     0
  9
$PDMODE
 70
     0
  9
$PDSIZE
 40
0.0
  9
$PLINEWID
 40
0.0
  9
$SPLFRAME
 70
     0
  9
$SPLINETYPE
 70
     6
  9
$SPLINESEGS
 70
     8
  9
$HANDSEED
  5
201
  9
$SURFTAB1
 70
     6
  9
$SURFTAB2
 70
     6
  9
$SURFTYPE
 70
     6
  9
$SURFU
 70
     6
  9
$SURFV
 70
     6
  9
$UCSBASE
  2

  9
$UCSNAME
  2

  9
$UCSORG
 10
0.0
 20
0.0
 30
0.0
  9
$UCSXDIR
 10
1.0
 20
0.0
 30
0.0
  9
$UCSYDIR
 10
0.0
 20
1.0
 30
0.0
  9
$UCSORTHOREF
  2

  9
$UCSORTHOVIEW
 70
     0
  9
$UCSORGTOP
 10
0.0
 20
0.0
 30
0.0
  9
$UCSORGBOTTOM
 10
0.0
 20
0.0
 30
0.0
  9
$UCSORGLEFT
 10
0.0
 20
0.0
 30
0.0
  9
$UCSORGRIGHT
 10
0.0
 20
0.0
 30
0.0
  9
$UCSORGFRONT
 10
0.0
 20
0.0
 30
0.0
  9
$UCSORGBACK
 10
0.0
 20
0.0
 30
0.0
  9
$PUCSBASE
  2

  9
$PUCSNAME
  2

  9
$PUCSORG
 10
0.0
 20
0.0
 30
0.0
  9
$PUCSXDIR
 10
1.0
 20
0.0
 30
0.0
  9
$PUCSYDIR
 10
0.0
 20
1.0
 30
0.0
  9
$PUCSORTHOREF
  2

  9
$PUCSORTHOVIEW
 70
     0
  9
$PUCSORGTOP
 10
0.0
 20
0.0
 30
0.0
  9
$PUCSORGBOTTOM
 10
0.0
 20
0.0
 30
0.0
  9
$PUCSORGLEFT
 10
0.0
 20
0.0
 30
0.0
  9
$PUCSORGRIGHT
 10
0.0
 20
0.0
 30
0.0
  9
$PUCSORGFRONT
 10
0.0
 20
0.0
 30
0.0
  9
$PUCSORGBACK
 10
0.0
 20
0.0
 30
0.0
  9
$USERI1
 70
     0
  9
$USERI2
 70
     0
  9
$USERI3
 70
     0
  9
$USERI4
 70
     0
  9
$USERI5
 70
     0
  9
$USERR1
 40
0.0
  9
$USERR2
 40
0.0
  9
$USERR3
 40
0.0
  9
$USERR4
 40
0.0
  9
$USERR5
 40
2.5
  9
$WORLDVIEW
 70
     1
  9
$SHADEDGE
 70
     3
  9
$SHADEDIF
 70
    70
  9
$TILEMODE
 70
     1
  9
$MAXACTVP
 70
    64
  9
$PINSBASE
 10
0.0
 20
0.0
 30
0.0
  9
$PLIMCHECK
 70
     0
  9
$PEXTMIN
 10
25.69999999999999
 20
19.5
 30
0.0
  9
$PEXTMAX
 10
231.3
 20
175.5
 30
0.0
  9
$PLIMMIN
 10
-20.0
 20
-7.5
  9
$PLIMMAX
 10
277.0
 20
202.5
  9
$UNITMODE
 70
     0
  9
$VISRETAIN
 70
     1
  9
$PLINEGEN
 70
     0
  9
$PSLTSCALE
 70
     1
  9
$TREEDEPTH
 70
  3020
  9
$CMLSTYLE
  2
Standard
  9
$CMLJUST
 70
     0
  9
$CMLSCALE
 40
20.0
  9
$PROXYGRAPHICS
 70
     1
  9
$MEASUREMENT
 70
     1
  9
$CELWEIGHT
370
    -1
  9
$ENDCAPS
280
     0
  9
$JOINSTYLE
280
     0
  9
$LWDISPLAY
290
     0
  9
$INSUNITS
 70
     4
  9
$HYPERLINKBASE
  1

  9
$STYLESHEET
  1

  9
$XEDIT
290
     1
  9
$CEPSNTYPE
380
     0
  9
$PSTYLEMODE
290
     1
  9
$FINGERPRINTGUID
  2
{53531E85-6ECB-4190-BBAD-6F086A51E145}
  9
$VERSIONGUID
  2
{A392AE7D-2D92-4E34-8A73-AC31E1BFDDAA}
  9
$EXTNAMES
290
     1
  9
$PSVPSCALE
 40
0.0
  9
$OLESTARTUP
290
     0
  9
$SORTENTS
280
   127
  9
$INDEXCTL
280
     0
  9
$HIDETEXT
280
     1
  9
$XCLIPFRAME
280
     0
  9
$HALOGAP
280
     0
  9
$OBSCOLOR
 70
   257
  9
$OBSLTYPE
280
     0
  9
$INTERSECTIONDISPLAY
280
     0
  9
$INTERSECTIONCOLOR
 70
   257
  9
$DIMASSOC
280
     2
  9
$PROJECTNAME
  1

  9
$CAMERADISPLAY
290
     0
  9
$LENSLENGTH
 40
50.0
  9
$CAMERAHEIGHT
 40
0.0
  9
$STEPSPERSEC
 40
2.0
  9
$STEPSIZE
 40
6.0
  9
$3DDWFPREC
 40
2.0
  9
$PSOLWIDTH
 40
5.0
  9
$PSOLHEIGHT
 40
80.0
  9
$LOFTANG1
 40
1.570796326794896
  9
$LOFTANG2
 40
1.570796326794896
  9
$LOFTMAG1
 40
0.0
  9
$LOFTMAG2
 40
0.0
  9
$LOFTPARAM
 70
     7
  9
$LOFTNORMALS
280
     1
  9
$LATITUDE
 40
37.795
  9
$LONGITUDE
 40
-122.394
  9
$NORTHDIRECTION
 40
0.0
  9
$TIMEZONE
 70
 -8000
  9
$LIGHTGLYPHDISPLAY
280
     1
  9
$TILEMODELIGHTSYNCH
280
     1
  9
$CMATERIAL
347
3A
  9
$SOLIDHIST
280
     1
  9
$SHOWHIST
280
     1
  9
$DWFFRAME
280
     2
  9
$DGNFRAME
280
     0
  9
$REALWORLDSCALE
290
     1
  9
$INTERFERECOLOR
 62
     1
  9
$INTERFEREOBJVS
345
48
  9
$INTERFEREVPVS
346
49
  9
$CSHADOW
280
     0
  9
$SHADOWPLANELOCATION
 40
0.0
  0
ENDSEC
  0
SECTION
  2
CLASSES
  0
CLASS
  1
ACDBDICTIONARYWDFLT
  2
AcDbDictionaryWithDefault
  3
ObjectDBX Classes
 90
        0
 91
        1
280
     0
281
     0
  0
CLASS
  1
DICTIONARYVAR
  2
AcDbDictionaryVar
  3
ObjectDBX Classes
 90
        0
 91
        9
280
     0
281
     0
  0
CLASS
  1
TABLESTYLE
  2
AcDbTableStyle
  3
ObjectDBX Classes
 90
     4095
 91
        1
280
     0
281
     0
  0
CLASS
  1
MATERIAL
  2
AcDbMaterial
  3
ObjectDBX Classes
 90
     1153
 91
        3
280
     0
281
     0
  0
CLASS
  1
VISUALSTYLE
  2
AcDbVisualStyle
  3
ObjectDBX Classes
 90
     4095
 91
        3
280
     0
281
     0
  0
CLASS
  1
ACAD_EVALUATION_GRAPH
  2
AcDbEvalGraph
  3
ObjectDBX Classes
 90
     1153
 91
        0
280
     0
281
     0
  0
CLASS
  1
BLOCKLOOKUPPARAMETER
  2
AcDbBlockLookupParameter
  3
ObjectDBX Classes
 90
     1153
 91
        0
280
     0
281
     0
  0
CLASS
  1
BLOCKLOOKUPGRIP
  2
AcDbBlockLookupGrip
  3
ObjectDBX Classes
 90
     1153
 91
        0
280
     0
281
     0
  0
CLASS
  1
BLOCKGRIPLOCATIONCOMPONENT
  2
AcDbBlockGripExpr
  3
ObjectDBX Classes
 90
     1153
 91
        0
280
     0
281
     0
  0
CLASS
  1
BLOCKLOOKUPACTION
  2
AcDbBlockLookupAction
  3
ObjectDBX Classes
 90
     1153
 91
        0
280
     0
281
     0
  0
CLASS
  1
BLOCKLINEARPARAMETER
  2
AcDbBlockLinearParameter
  3
ObjectDBX Classes
 90
     1153
 91
        0
280
     0
281
     0
  0
CLASS
  1
BLOCKSCALEACTION
  2
AcDbBlockScaleAction
  3
ObjectDBX Classes
 90
     1153
 91
        0
280
     0
281
     0
  0
CLASS
  1
ACDB_DYNAMICBLOCKPURGEPREVENTER_VERSION
  2
AcDbDynamicBlockPurgePreventer
  3
ObjectDBX Classes
 90
     1153
 91
        0
280
     0
281
     0
  0
CLASS
  1
ACDB_BLOCKREPRESENTATION_DATA
  2
AcDbBlockRepresentationData
  3
ObjectDBX Classes
 90
     1153
 91
        0
280
     0
281
     0
  0
CLASS
  1
BLOCKSTRETCHACTION
  2
AcDbBlockStretchAction
  3
ObjectDBX Classes
 90
     1153
 91
        0
280
     0
281
     0
  0
CLASS
  1
BLOCKMOVEACTION
  2
AcDbBlockMoveAction
  3
ObjectDBX Classes
 90
     1153
 91
        0
280
     0
281
     0
  0
CLASS
  1
BLOCKVISIBILITYPARAMETER
  2
AcDbBlockVisibilityParameter
  3
ObjectDBX Classes
 90
     1153
 91
        0
280
     0
281
     0
  0
CLASS
  1
SORTENTSTABLE
  2
AcDbSortentsTable
  3
ObjectDBX Classes
 90
        0
 91
        2
280
     0
281
     0
  0
CLASS
  1
BLOCKVISIBILITYGRIP
  2
AcDbBlockVisibilityGrip
  3
ObjectDBX Classes
 90
     1153
 91
        0
280
     0
281
     0
  0
CLASS
  1
BLOCKFLIPPARAMETER
  2
AcDbBlockFlipParameter
  3
ObjectDBX Classes
 90
     1153
 91
        0
280
     0
281
     0
  0
CLASS
  1
BLOCKFLIPGRIP
  2
AcDbBlockFlipGrip
  3
ObjectDBX Classes
 90
     1153
 91
        0
280
     0
281
     0
  0
CLASS
  1
BLOCKFLIPACTION
  2
AcDbBlockFlipAction
  3
ObjectDBX Classes
 90
     1153
 91
        0
280
     0
281
     0
  0
CLASS
  1
BLOCKALIGNMENTPARAMETER
  2
AcDbBlockAlignmentParameter
  3
ObjectDBX Classes
 90
     1153
 91
        0
280
     0
281
     0
  0
CLASS
  1
BLOCKALIGNMENTGRIP
  2
AcDbBlockAlignmentGrip
  3
ObjectDBX Classes
 90
     1153
 91
        0
280
     0
281
     0
  0
CLASS
  1
BLOCKPOINTPARAMETER
  2
AcDbBlockPointParameter
  3
ObjectDBX Classes
 90
     1153
 91
        0
280
     0
281
     0
  0
CLASS
  1
BLOCKLINEARGRIP
  2
AcDbBlockLinearGrip
  3
ObjectDBX Classes
 90
     1153
 91
        0
280
     0
281
     0
  0
CLASS
  1
BLOCKBASEPOINTPARAMETER
  2
AcDbBlockBasepointParameter
  3
ObjectDBX Classes
 90
     1153
 91
        0
280
     0
281
     0
  0
CLASS
  1
BLOCKARRAYACTION
  2
AcDbBlockArrayAction
  3
ObjectDBX Classes
 90
     1153
 91
        0
280
     0
281
     0
  0
CLASS
  1
BLOCKROTATIONPARAMETER
  2
AcDbBlockRotationParameter
  3
ObjectDBX Classes
 90
     1153
 91
        0
280
     0
281
     0
  0
CLASS
  1
BLOCKROTATIONGRIP
  2
AcDbBlockRotationGrip
  3
ObjectDBX Classes
 90
     1153
 91
        0
280
     0
281
     0
  0
CLASS
  1
BLOCKROTATEACTION
  2
AcDbBlockRotateAction
  3
ObjectDBX Classes
 90
     1153
 91
        0
280
     0
281
     0
  0
CLASS
  1
BLOCKPOLARPARAMETER
  2
AcDbBlockPolarParameter
  3
ObjectDBX Classes
 90
     1153
 91
        0
280
     0
281
     0
  0
CLASS
  1
BLOCKPOLARGRIP
  2
AcDbBlockPolarGrip
  3
ObjectDBX Classes
 90
     1153
 91
        0
280
     0
281
     0
  0
CLASS
  1
BLOCKPOLARSTRETCHACTION
  2
AcDbBlockPolarStretchAction
  3
ObjectDBX Classes
 90
     1153
 91
        0
280
     0
281
     0
  0
CLASS
  1
BLOCKXYPARAMETER
  2
AcDbBlockXYParameter
  3
ObjectDBX Classes
 90
     1153
 91
        0
280
     0
281
     0
  0
CLASS
  1
BLOCKXYGRIP
  2
AcDbBlockXYGrip
  3
ObjectDBX Classes
 90
     1153
 91
        0
280
     0
281
     0
  0
CLASS
  1
ACAD_TABLE
  2
AcDbTable
  3
ObjectDBX Classes
 90
     1025
 91
        0
280
     0
281
     1
  0
CLASS
  1
DIMASSOC
  2
AcDbDimAssoc
  3
"AcDbDimAssoc|Product Desc:     AcDim ARX App For Dimension|Company:          Autodesk, Inc.|WEB Address:      www.autodesk.com"
 90
        0
 91
       20
280
     0
281
     0
  0
CLASS
  1
LARGE_RADIAL_DIMENSION
  2
AcDbRadialDimensionLarge
  3
ObjectDBX Classes
 90
     1025
 91
        0
280
     0
281
     1
  0
CLASS
  1
SCALE
  2
AcDbScale
  3
ObjectDBX Classes
 90
     1153
 91
       33
280
     0
281
     0
  0
CLASS
  1
MLEADERSTYLE
  2
AcDbMLeaderStyle
  3
ACDB_MLEADERSTYLE_CLASS
 90
     4095
 91
        0
280
     0
281
     0
  0
CLASS
  1
VLO-VL
  2
vlo_VL
  3
VL|AutoLISP based application
 90
      129
 91
        0
280
     1
281
     0
  0
CLASS
  1
CELLSTYLEMAP
  2
AcDbCellStyleMap
  3
ObjectDBX Classes
 90
     1152
 91
        1
280
     0
281
     0
  0
CLASS
  1
RASTERVARIABLES
  2
AcDbRasterVariables
  3
ISM
 90
        0
 91
        0
280
     0
281
     0
  0
CLASS
  1
IMAGEDEF
  2
AcDbRasterImageDef
  3
ISM
 90
        0
 91
        0
280
     0
281
     0
  0
CLASS
  1
IMAGEDEF_REACTOR
  2
AcDbRasterImageDefReactor
  3
ISM
 90
        1
 91
        0
280
     0
281
     0
  0
CLASS
  1
IMAGE
  2
AcDbRasterImage
  3
ISM
 90
     2175
 91
        0
280
     0
281
     1
  0
CLASS
  1
ACDBSECTIONVIEWSTYLE
  2
AcDbSectionViewStyle
  3
ObjectDBX Classes
 90
     1025
 91
        0
280
     0
281
     0
  0
CLASS
  1
ACDBDETAILVIEWSTYLE
  2
AcDbDetailViewStyle
  3
ObjectDBX Classes
 90
     1025
 91
        0
280
     0
281
     0
  0
CLASS
  1
SOLID_BACKGROUND
  2
AcDbSolidBackground
  3
SCENEOE
 90
     4095
 91
        0
280
     1
281
     0
  0
CLASS
  1
NPOCOLLECTION
  2
AcDbImpNonPersistentObjectsCollection
  3
ObjectDBX Classes
 90
     1153
 91
        0
280
     0
281
     0
  0
ENDSEC
  0
SECTION
  2
TABLES
  0
TABLE
  2
VPORT
  5
27
102
{ACAD_XDICTIONARY
360
2C
102
}
330
0
100
AcDbSymbolTable
 70
     1
  0
VPORT
  5
28
330
27
100
AcDbSymbolTableRecord
100
AcDbViewportTableRecord
  2
*Active
 70
     0
 10
0.0
 20
0.0
 11
1.0
 21
1.0
 12
-28853.08574902992
 22
28473.28618698075
 13
0.0
 23
0.0
 14
10.0
 24
10.0
 15
10.0
 25
10.0
 16
0.0
 26
0.0
 36
1.0
 17
0.0
 27
0.0
 37
0.0
 40
1721.285887496386
 41
2.720081135902637
 42
50.0
 43
0.0
 44
0.0
 50
0.0
 51
0.0
 71
     0
 72
  1000
 73
     1
 74
     3
 75
     0
 76
     1
 77
     0
 78
     0
281
     0
 65
     1
110
0.0
120
0.0
130
0.0
111
1.0
121
0.0
131
0.0
112
0.0
122
1.0
132
0.0
 79
     0
146
0.0
348
29
 60
     2
 61
     5
292
     1
282
     1
141
0.0
142
0.0
 63
   250
421
  3355443
1001
ACAD_NAV_VCDISPLAY
1070
     3
  0
ENDTAB
  0
TABLE
  2
LTYPE
  5
22
330
0
100
AcDbSymbolTable
 70
     2
  0
LTYPE
  5
23
330
22
100
AcDbSymbolTableRecord
100
AcDbLinetypeTableRecord
  2
ByBlock
 70
     0
  3

 72
    65
 73
     0
 40
0.0
  0
LTYPE
  5
24
330
22
100
AcDbSymbolTableRecord
100
AcDbLinetypeTableRecord
  2
ByLayer
 70
     0
  3

 72
    65
 73
     0
 40
0.0
  0
LTYPE
  5
E
330
22
100
AcDbSymbolTableRecord
100
AcDbLinetypeTableRecord
  2
Continuous
 70
     0
  3
Solid line
 72
    65
 73
     0
 40
0.0
  0
LTYPE
  5
89
330
22
100
AcDbSymbolTableRecord
100
AcDbLinetypeTableRecord
  2
HIDDEN2
 70
     0
  3
Hidden (.5x) _ _ _ _ _ _ _ _ _ _ _ _ _ _ _ _ _
 72
    65
 73
     2
 40
0.1875
 49
0.125
 74
     0
 49
-0.0625
 74
     0
  0
ENDTAB
  0
TABLE
  2
LAYER
  5
19
102
{ACAD_XDICTIONARY
360
1A
102
}
330
0
100
AcDbSymbolTable
 70
     5
  0
LAYER
  5
6
102
{ACAD_XDICTIONARY
360
7
102
}
330
19
100
AcDbSymbolTableRecord
100
AcDbLayerTableRecord
  2
0
 70
     0
 62
     7
  6
Continuous
370
    -3
390
9
347
C
348
0
  0
LAYER
  5
A5
330
19
100
AcDbSymbolTableRecord
100
AcDbLayerTableRecord
  2
Defpoints
 70
     0
 62
     8
  6
Continuous
290
     0
370
    -3
390
9
347
C
348
0
  0
LAYER
  5
40
102
{ACAD_XDICTIONARY
360
41
102
}
330
19
100
AcDbSymbolTableRecord
100
AcDbLayerTableRecord
  2
标注
 70
     0
 62
     1
  6
Continuous
370
    -3
390
9
347
C
348
0
1001
AcAecLayerStandard
1000

1000

  0
LAYER
  5
86
102
{ACAD_XDICTIONARY
360
87
102
}
330
19
100
AcDbSymbolTableRecord
100
AcDbLayerTableRecord
  2
虚线
 70
     0
 62
   252
  6
HIDDEN2
370
    -3
390
9
347
C
348
0
1001
AcAecLayerStandard
1000

1000

  0
LAYER
  5
1E6
102
{ACAD_XDICTIONARY
360
1E7
102
}
330
19
100
AcDbSymbolTableRecord
100
AcDbLayerTableRecord
  2
填充层
 70
     0
 62
     7
  6
Continuous
370
    -3
390
9
347
C
348
0
1001
AcAecLayerStandard
1000

1000

  0
ENDTAB
  0
TABLE
  2
STYLE
  5
1F
330
0
100
AcDbSymbolTable
 70
     2
  0
STYLE
  5
20
330
1F
100
AcDbSymbolTableRecord
100
AcDbTextStyleTableRecord
  2
Standard
 70
     0
 40
0.0
 41
0.7800000000000001
 50
0.0
 71
     0
 42
2.5
  3
times.ttf
  4

1001
ACAD
1000
Times New Roman
1071
       18
  0
STYLE
  5
44
330
1F
100
AcDbSymbolTableRecord
100
AcDbTextStyleTableRecord
  2
样式 2
 70
     0
 40
0.0
 41
0.7800000000000001
 50
0.0
 71
     0
 42
2.5
  3
@Dotum.shx
  4

  0
ENDTAB
  0
TABLE
  2
VIEW
  5
25
330
0
100
AcDbSymbolTable
 70
     0
  0
ENDTAB
  0
TABLE
  2
UCS
  5
26
330
0
100
AcDbSymbolTable
 70
     0
  0
ENDTAB
  0
TABLE
  2
APPID
  5
2D
330
0
100
AcDbSymbolTable
 70
     7
  0
APPID
  5
1E
330
2D
100
AcDbSymbolTableRecord
100
AcDbRegAppTableRecord
  2
ACAD
 70
     0
  0
APPID
  5
13
330
2D
100
AcDbSymbolTableRecord
100
AcDbRegAppTableRecord
  2
ACAD_PSEXT
 70
     0
  0
APPID
  5
43
330
2D
100
AcDbSymbolTableRecord
100
AcDbRegAppTableRecord
  2
AcAecLayerStandard
 70
     0
  0
APPID
  5
30
330
2D
100
AcDbSymbolTableRecord
100
AcDbRegAppTableRecord
  2
ACAD_DSTYLE_DIMJAG
 70
     0
  0
APPID
  5
31
330
2D
100
AcDbSymbolTableRecord
100
AcDbRegAppTableRecord
  2
ACAD_DSTYLE_DIMTALN
 70
     0
  0
APPID
  5
C4
330
2D
100
AcDbSymbolTableRecord
100
AcDbRegAppTableRecord
  2
ACAD_DSTYLE_DIMRADIAL_EXTENSION
 70
     0
  0
APPID
  5
2B
330
2D
100
AcDbSymbolTableRecord
100
AcDbRegAppTableRecord
  2
ACAD_NAV_VCDISPLAY
 70
     0
  0
ENDTAB
  0
TABLE
  2
DIMSTYLE
  5
2E
330
0
100
AcDbSymbolTable
 70
     5
100
AcDbDimStyleTable
 71
     5
340
2F
340
32
340
33
340
34
340
35
  0
DIMSTYLE
105
2F
102
{ACAD_REACTORS
330
98
330
A9
330
B9
330
C5
330
D0
330
DC
330
EC
330
FC
330
10A
330
11A
330
125
330
130
330
13C
330
147
330
167
330
177
330
187
330
195
330
1A5
330
1B3
330
1C3
330
1D3
330
157
102
}
330
2E
100
AcDbSymbolTableRecord
100
AcDbDimStyleTableRecord
  2
Standard
 70
     0
 41
25.0
 42
2.0
 70
     2
 73
     0
 74
     0
140
25.0
141
0.0
143
0.03937
147
1.0
170
     1
176
     2
177
     2
178
     2
271
     2
272
     2
340
20
345
24
346
24
347
24
371
    -1
372
    -1
1001
ACAD_DSTYLE_DIMJAG
1070
   388
1040
1.5
1001
ACAD_DSTYLE_DIMTALN
1070
   392
1070
     0
  0
DIMSTYLE
105
35
330
2E
100
AcDbSymbolTableRecord
100
AcDbDimStyleTableRecord
  2
ISO-60
 70
     0
 41
55.0
 42
5.0
 43
3.75
 44
1.25
 73
     0
 77
     1
 78
     8
140
60.0
141
2.5
143
0.03937007874016
147
5.0
171
     3
271
     0
272
     0
274
     3
283
     0
284
     8
340
20
  0
DIMSTYLE
105
34
330
2E
100
AcDbSymbolTableRecord
100
AcDbDimStyleTableRecord
  2
0-ISO-40
 70
     0
 41
35.0
 42
5.0
 43
3.75
 44
1.25
 73
     0
 77
     1
 78
     8
140
40.0
141
2.5
143
0.03937007874016
147
5.0
171
     3
172
     1
176
   256
177
   256
178
   256
271
     2
272
     2
274
     3
283
     0
284
     8
340
20
345
24
346
24
347
24
371
    -1
372
    -1
  0
DIMSTYLE
105
32
330
2E
100
AcDbSymbolTableRecord
100
AcDbDimStyleTableRecord
  2
ISO-35
 70
     0
 41
30.0
 42
8.0
 43
3.75
 44
1.25
 73
     0
 77
     1
 78
     8
140
35.0
141
2.5
143
0.03937007874016
147
3.0
171
     3
176
   256
177
   256
178
   256
271
     2
272
     2
274
     3
283
     0
284
     8
340
20
345
24
346
24
347
24
371
    -1
372
    -1
  0
DIMSTYLE
105
33
330
2E
100
AcDbSymbolTableRecord
100
AcDbDimStyleTableRecord
  2
ISO-45
 70
     0
 41
35.0
 42
2.0
 43
3.75
 44
2.0
 73
     0
 77
     1
 78
     8
140
45.0
141
2.5
143
0.03937007874016
147
3.0
171
     3
176
   256
177
   256
178
   256
271
     2
272
     2
274
     3
283
     0
284
     8
340
20
345
24
346
24
347
24
371
    -1
372
    -1
  0
ENDTAB
  0
TABLE
  2
BLOCK_RECORD
  5
1
330
0
100
AcDbSymbolTable
 70
    23
  0
BLOCK_RECORD
  5
2
102
{ACAD_XDICTIONARY
360
3
102
}
330
1
100
AcDbSymbolTableRecord
100
AcDbBlockTableRecord
  2
*Model_Space
340
10
 70
     0
280
     1
281
     0
  0
BLOCK_RECORD
  5
14
330
1
100
AcDbSymbolTableRecord
100
AcDbBlockTableRecord
  2
*Paper_Space
340
17
 70
     0
280
     1
281
     0
  0
BLOCK_RECORD
  5
9B
330
1
100
AcDbSymbolTableRecord
100
AcDbBlockTableRecord
  2
*D0
340
0
 70
     0
280
     1
281
     0
  0
BLOCK_RECORD
  5
AC
330
1
100
AcDbSymbolTableRecord
100
AcDbBlockTableRecord
  2
*D1
340
0
 70
     0
280
     1
281
     0
  0
BLOCK_RECORD
  5
BC
330
1
100
AcDbSymbolTableRecord
100
AcDbBlockTableRecord
  2
*D2
340
0
 70
     0
280
     1
281
     0
  0
BLOCK_RECORD
  5
C8
330
1
100
AcDbSymbolTableRecord
100
AcDbBlockTableRecord
  2
*D3
340
0
 70
     0
280
     1
281
     0
  0
BLOCK_RECORD
  5
D3
330
1
100
AcDbSymbolTableRecord
100
AcDbBlockTableRecord
  2
*D4
340
0
 70
     0
280
     1
281
     0
  0
BLOCK_RECORD
  5
DF
330
1
100
AcDbSymbolTableRecord
100
AcDbBlockTableRecord
  2
*D5
340
0
 70
     0
280
     1
281
     0
  0
BLOCK_RECORD
  5
EF
330
1
100
AcDbSymbolTableRecord
100
AcDbBlockTableRecord
  2
*D6
340
0
 70
     0
280
     1
281
     0
  0
BLOCK_RECORD
  5
FD
330
1
100
AcDbSymbolTableRecord
100
AcDbBlockTableRecord
  2
*D7
340
0
 70
     0
280
     1
281
     0
  0
BLOCK_RECORD
  5
10D
330
1
100
AcDbSymbolTableRecord
100
AcDbBlockTableRecord
  2
*D8
340
0
 70
     0
280
     1
281
     0
  0
BLOCK_RECORD
  5
11D
330
1
100
AcDbSymbolTableRecord
100
AcDbBlockTableRecord
  2
*D9
340
0
 70
     0
280
     1
281
     0
  0
BLOCK_RECORD
  5
128
330
1
100
AcDbSymbolTableRecord
100
AcDbBlockTableRecord
  2
*D10
340
0
 70
     0
280
     1
281
     0
  0
BLOCK_RECORD
  5
133
330
1
100
AcDbSymbolTableRecord
100
AcDbBlockTableRecord
  2
*D11
340
0
 70
     0
280
     1
281
     0
  0
BLOCK_RECORD
  5
13F
330
1
100
AcDbSymbolTableRecord
100
AcDbBlockTableRecord
  2
*D12
340
0
 70
     0
280
     1
281
     0
  0
BLOCK_RECORD
  5
14A
330
1
100
AcDbSymbolTableRecord
100
AcDbBlockTableRecord
  2
*D13
340
0
 70
     0
280
     1
281
     0
  0
BLOCK_RECORD
  5
15A
330
1
100
AcDbSymbolTableRecord
100
AcDbBlockTableRecord
  2
*D14
340
0
 70
     0
280
     1
281
     0
  0
BLOCK_RECORD
  5
16A
330
1
100
AcDbSymbolTableRecord
100
AcDbBlockTableRecord
  2
*D15
340
0
 70
     0
280
     1
281
     0
  0
BLOCK_RECORD
  5
17A
330
1
100
AcDbSymbolTableRecord
100
AcDbBlockTableRecord
  2
*D16
340
0
 70
     0
280
     1
281
     0
  0
BLOCK_RECORD
  5
188
330
1
100
AcDbSymbolTableRecord
100
AcDbBlockTableRecord
  2
*D17
340
0
 70
     0
280
     1
281
     0
  0
BLOCK_RECORD
  5
198
330
1
100
AcDbSymbolTableRecord
100
AcDbBlockTableRecord
  2
*D18
340
0
 70
     0
280
     1
281
     0
  0
BLOCK_RECORD
  5
1A6
330
1
100
AcDbSymbolTableRecord
100
AcDbBlockTableRecord
  2
*D19
340
0
 70
     0
280
     1
281
     0
  0
BLOCK_RECORD
  5
1B6
330
1
100
AcDbSymbolTableRecord
100
AcDbBlockTableRecord
  2
*D20
340
0
 70
     0
280
     1
281
     0
  0
BLOCK_RECORD
  5
1C6
330
1
100
AcDbSymbolTableRecord
100
AcDbBlockTableRecord
  2
*D21
340
0
 70
     0
280
     1
281
     0
  0
BLOCK_RECORD
  5
1D6
330
1
100
AcDbSymbolTableRecord
100
AcDbBlockTableRecord
  2
*D22
340
0
 70
     0
280
     1
281
     0
  0
ENDTAB
  0
ENDSEC
  0
SECTION
  2
BLOCKS
  0
BLOCK
  5
5
330
2
100
AcDbEntity
  8
0
100
AcDbBlockBegin
  2
*Model_Space
 70
     0
 10
0.0
 20
0.0
 30
0.0
  3
*Model_Space
  1

  0
ENDBLK
  5
F
330
2
100
AcDbEntity
  8
0
100
AcDbBlockEnd
  0
BLOCK
  5
15
330
14
100
AcDbEntity
 67
     1
  8
0
100
AcDbBlockBegin
  2
*Paper_Space
 70
     0
 10
0.0
 20
0.0
 30
0.0
  3
*Paper_Space
  1

  0
ENDBLK
  5
16
330
14
100
AcDbEntity
 67
     1
  8
0
100
AcDbBlockEnd
  0
BLOCK
  5
9C
330
9B
100
AcDbEntity
  8
0
 62
     0
370
   100
100
AcDbBlockBegin
  2
*D0
 70
     1
 10
0.0
 20
0.0
 30
0.0
  3
*D0
  1

  0
LINE
  5
9D
330
9B
100
AcDbEntity
  8
标注
 62
     2
440
 16777216
100
AcDbLine
 10
-29423.09100301358
 20
29078.76480964384
 30
0.0
 11
-29711.44796197538
 21
29078.76480964384
 31
0.0
  0
LINE
  5
9E
330
9B
100
AcDbEntity
  8
标注
 62
     2
440
 16777216
100
AcDbLine
 10
-29599.2149583064
 20
28628.76483424896
 30
0.0
 11
-29711.44796197538
 21
28628.76483424896
 31
0.0
  0
LINE
  5
9F
330
9B
100
AcDbEntity
  8
标注
 62
     2
440
 16777216
100
AcDbLine
 10
-29711.26796197538
 20
29053.76480964384
 30
0.0
 11
-29711.26796197538
 21
28938.53609087214
 31
0.0
  0
LINE
  5
A0
330
9B
100
AcDbEntity
  8
标注
 62
     2
440
 16777216
100
AcDbLine
 10
-29711.26796197538
 20
28653.76483424896
 30
0.0
 11
-29711.26796197538
 21
28768.99355302067
 31
0.0
  0
SOLID
  5
A1
330
9B
100
AcDbEntity
  8
标注
 62
     2
440
 16777216
370
   100
100
AcDbTrace
 10
-29715.43462864205
 20
29053.76480964384
 30
0.0
 11
-29707.10129530872
 21
29053.76480964384
 31
0.0
 12
-29711.26796197538
 22
29078.76480964384
 32
0.0
 13
-29711.26796197538
 23
29078.76480964384
 33
0.0
  0
SOLID
  5
A2
330
9B
100
AcDbEntity
  8
标注
 62
     2
440
 16777216
370
   100
100
AcDbTrace
 10
-29715.43462864205
 20
28653.76483424896
 30
0.0
 11
-29707.10129530872
 21
28653.76483424896
 31
0.0
 12
-29711.26796197538
 22
28628.76483424896
 32
0.0
 13
-29711.26796197538
 23
28628.76483424896
 33
0.0
  0
MTEXT
  5
A3
330
9B
100
AcDbEntity
  8
标注
 62
     2
440
 16777216
370
   100
100
AcDbMText
 10
-29711.26796197539
 20
28853.7648219464
 30
0.0
 40
25.0
 41
0.0
 46
0.0
 71
     5
 72
     1
  1
\A1;450.00 [17.72]
 11
0.0000000000000001
 21
1.0
 31
0.0
 73
     1
 44
1.0
  0
POINT
  5
A4
330
9B
100
AcDbEntity
  8
Defpoints
 62
     0
440
 16777216
370
   100
100
AcDbPoint
 10
-29421.09100301358
 20
29078.76480964384
 30
0.0
  0
POINT
  5
A6
330
9B
100
AcDbEntity
  8
Defpoints
 62
     0
440
 16777216
370
   100
100
AcDbPoint
 10
-29597.2149583064
 20
28628.76483424896
 30
0.0
  0
POINT
  5
A7
330
9B
100
AcDbEntity
  8
Defpoints
 62
     0
440
 16777216
370
   100
100
AcDbPoint
 10
-29711.26796197538
 20
28628.76483424896
 30
0.0
  0
ENDBLK
  5
A8
330
9B
100
AcDbEntity
  8
0
 62
     0
370
   100
100
AcDbBlockEnd
  0
BLOCK
  5
AD
330
AC
100
AcDbEntity
  8
0
 62
     0
370
   100
100
AcDbBlockBegin
  2
*D1
 70
     1
 10
0.0
 20
0.0
 30
0.0
  3
*D1
  1

  0
LINE
  5
AE
330
AC
100
AcDbEntity
  8
标注
 62
     2
440
 16777216
100
AcDbLine
 10
-28891.21495830639
 20
29006.76483424896
 30
0.0
 11
-28797.34094387496
 21
29006.76483424896
 31
0.0
  0
LINE
  5
AF
330
AC
100
AcDbEntity
  8
标注
 62
     2
440
 16777216
100
AcDbLine
 10
-28889.2149583064
 20
28628.76483424896
 30
0.0
 11
-28797.34094387496
 21
28628.76483424896
 31
0.0
  0
LINE
  5
B0
330
AC
100
AcDbEntity
  8
标注
 62
     2
440
 16777216
100
AcDbLine
 10
-28797.52094387496
 20
28981.76483424896
 30
0.0
 11
-28797.52094387496
 21
28902.17759560441
 31
0.0
  0
LINE
  5
B1
330
AC
100
AcDbEntity
  8
标注
 62
     2
440
 16777216
100
AcDbLine
 10
-28797.52094387496
 20
28653.76483424896
 30
0.0
 11
-28797.52094387496
 21
28733.35207289352
 31
0.0
  0
SOLID
  5
B2
330
AC
100
AcDbEntity
  8
标注
 62
     2
440
 16777216
370
   100
100
AcDbTrace
 10
-28801.68761054163
 20
28981.76483424896
 30
0.0
 11
-28793.35427720829
 21
28981.76483424896
 31
0.0
 12
-28797.52094387496
 22
29006.76483424896
 32
0.0
 13
-28797.52094387496
 23
29006.76483424896
 33
0.0
  0
SOLID
  5
B3
330
AC
100
AcDbEntity
  8
标注
 62
     2
440
 16777216
370
   100
100
AcDbTrace
 10
-28801.68761054163
 20
28653.76483424896
 30
0.0
 11
-28793.35427720829
 21
28653.76483424896
 31
0.0
 12
-28797.52094387496
 22
28628.76483424896
 32
0.0
 13
-28797.52094387496
 23
28628.76483424896
 33
0.0
  0
MTEXT
  5
B4
330
AC
100
AcDbEntity
  8
标注
 62
     2
440
 16777216
370
   100
100
AcDbMText
 10
-28797.52094387497
 20
28817.76483424896
 30
0.0
 40
25.0
 41
0.0
 46
0.0
 71
     5
 72
     1
  1
\A1;378.00 [14.88]
 11
0.0000000000000001
 21
1.0
 31
0.0
 73
     1
 44
1.0
  0
POINT
  5
B5
330
AC
100
AcDbEntity
  8
Defpoints
 62
     0
440
 16777216
370
   100
100
AcDbPoint
 10
-28893.21495830639
 20
29006.76483424896
 30
0.0
  0
POINT
  5
B6
330
AC
100
AcDbEntity
  8
Defpoints
 62
     0
440
 16777216
370
   100
100
AcDbPoint
 10
-28891.21495830639
 20
28628.76483424896
 30
0.0
  0
POINT
  5
B7
330
AC
100
AcDbEntity
  8
Defpoints
 62
     0
440
 16777216
370
   100
100
AcDbPoint
 10
-28797.52094387496
 20
28628.76483424896
 30
0.0
  0
ENDBLK
  5
B8
330
AC
100
AcDbEntity
  8
0
 62
     0
370
   100
100
AcDbBlockEnd
  0
BLOCK
  5
BD
330
BC
100
AcDbEntity
  8
0
 62
     0
370
   100
100
AcDbBlockBegin
  2
*D2
 70
     1
 10
0.0
 20
0.0
 30
0.0
  3
*D2
  1

  0
LINE
  5
BE
330
BC
100
AcDbEntity
  8
标注
 62
     2
440
 16777216
100
AcDbLine
 10
-29377.38141297654
 20
29025.40647693145
 30
0.0
 11
-29373.39316360291
 21
29050.08630405674
 31
0.0
  0
MTEXT
  5
BF
330
BC
100
AcDbEntity
  8
标注
 62
     2
440
 16777216
370
   100
100
AcDbMText
 10
-29393.96534174542
 20
28922.78288027761
 30
0.0
 40
25.0
 41
0.0
 46
0.0
 71
     5
 72
     1
  1
\A1;R312.23 [R12.29]
 11
0.1595299749450847
 21
0.9871930850112459
 31
0.0
 73
     1
 44
1.0
  0
SOLID
  5
C0
330
BC
100
AcDbEntity
  8
标注
 62
     2
440
 16777216
370
   100
100
AcDbTrace
 10
-29377.50646812379
 20
29050.75101228568
 30
0.0
 11
-29369.27985908203
 21
29049.42159582781
 31
0.0
 12
-29369.40491422928
 22
29074.76613118202
 32
0.0
 13
-29369.40491422928
 23
29074.76613118202
 33
0.0
  0
POINT
  5
C1
330
BC
100
AcDbEntity
  8
Defpoints
 62
     0
440
 16777216
370
   100
100
AcDbPoint
 10
-29369.40491422928
 20
29074.76613118202
 30
0.0
  0
POINT
  5
C2
330
BC
100
AcDbEntity
  8
Defpoints
 62
     0
440
 16777216
370
   100
100
AcDbPoint
 10
-29419.21495830638
 20
28766.534834249
 30
0.0
  0
ENDBLK
  5
C3
330
BC
100
AcDbEntity
  8
0
 62
     0
370
   100
100
AcDbBlockEnd
  0
BLOCK
  5
C9
330
C8
100
AcDbEntity
  8
0
 62
     0
370
   100
100
AcDbBlockBegin
  2
*D3
 70
     1
 10
0.0
 20
0.0
 30
0.0
  3
*D3
  1

  0
LINE
  5
CA
330
C8
100
AcDbEntity
  8
标注
 62
     2
440
 16777216
100
AcDbLine
 10
-29579.69879607746
 20
28671.60254881025
 30
0.0
 11
-29597.21495830636
 21
28653.76483424893
 31
0.0
  0
MTEXT
  5
CB
330
C8
100
AcDbEntity
  8
标注
 62
     2
440
 16777216
370
   100
100
AcDbMText
 10
-29516.95001794717
 20
28735.50323542943
 30
0.0
 40
25.0
 41
0.0
 46
0.0
 71
     5
 72
     1
  1
\A1;R25.00 [R0.98]
 11
0.7006464891558855
 21
0.7135085824526091
 31
0.0
 73
     1
 44
1.0
  0
SOLID
  5
CC
330
C8
100
AcDbEntity
  8
标注
 62
     2
440
 16777216
370
   100
100
AcDbTrace
 10
-29600.18791073325
 20
28656.68419462041
 30
0.0
 11
-29594.24200587948
 21
28650.84547387745
 31
0.0
 12
-29614.73112053526
 22
28635.92711968762
 32
0.0
 13
-29614.73112053526
 23
28635.92711968762
 33
0.0
  0
POINT
  5
CD
330
C8
100
AcDbEntity
  8
Defpoints
 62
     0
440
 16777216
370
   100
100
AcDbPoint
 10
-29614.73112053526
 20
28635.92711968762
 30
0.0
  0
POINT
  5
CE
330
C8
100
AcDbEntity
  8
Defpoints
 62
     0
440
 16777216
370
   100
100
AcDbPoint
 10
-29597.21495830637
 20
28653.76483424893
 30
0.0
  0
ENDBLK
  5
CF
330
C8
100
AcDbEntity
  8
0
 62
     0
370
   100
100
AcDbBlockEnd
  0
BLOCK
  5
D4
330
D3
100
AcDbEntity
  8
0
 62
     0
370
   100
100
AcDbBlockBegin
  2
*D4
 70
     1
 10
0.0
 20
0.0
 30
0.0
  3
*D4
  1

  0
LINE
  5
D5
330
D3
100
AcDbEntity
  8
标注
 62
     2
440
 16777216
100
AcDbLine
 10
-28960.14429895896
 20
28687.60952895603
 30
0.0
 11
-28937.83451874144
 21
28676.32796405367
 31
0.0
  0
MTEXT
  5
D6
330
D3
100
AcDbEntity
  8
标注
 62
     2
440
 16777216
370
   100
100
AcDbMText
 10
-29040.06542726953
 20
28728.02388478181
 30
0.0
 40
25.0
 41
0.0
 46
0.0
 71
     5
 72
     1
  1
\A1;R25.00 [R0.98]
 11
0.8923912087006138
 21
-0.4512625960943999
 31
0.0
 73
     1
 44
1.0
  0
SOLID
  5
D7
330
D3
100
AcDbEntity
  8
标注
 62
     2
440
 16777216
370
   100
100
AcDbTrace
 10
-28935.95425792438
 20
28680.04626075659
 30
0.0
 11
-28939.71477955849
 21
28672.60966735075
 31
0.0
 12
-28915.52473852392
 22
28665.04639915131
 32
0.0
 13
-28915.52473852392
 23
28665.04639915131
 33
0.0
  0
ARC
  5
D8
330
D3
100
AcDbEntity
  8
标注
 62
     2
440
 16777216
100
AcDbCircle
 10
-28893.21495830639
 20
28653.76483424894
 30
0.0
 40
25.00000000002183
100
AcDbArc
 50
152.7627506864617
 51
265.4163376389574
  0
POINT
  5
D9
330
D3
100
AcDbEntity
  8
Defpoints
 62
     0
440
 16777216
370
   100
100
AcDbPoint
 10
-28915.52473852392
 20
28665.04639915131
 30
0.0
  0
POINT
  5
DA
330
D3
100
AcDbEntity
  8
Defpoints
 62
     0
440
 16777216
370
   100
100
AcDbPoint
 10
-28893.21495830639
 20
28653.76483424894
 30
0.0
  0
ENDBLK
  5
DB
330
D3
100
AcDbEntity
  8
0
 62
     0
370
   100
100
AcDbBlockEnd
  0
BLOCK
  5
E0
330
DF
100
AcDbEntity
  8
0
 62
     0
370
   100
100
AcDbBlockBegin
  2
*D5
 70
     1
 10
0.0
 20
0.0
 30
0.0
  3
*D5
  1

  0
LINE
  5
E1
330
DF
100
AcDbEntity
  8
标注
 62
     2
440
 16777216
100
AcDbLine
 10
-29622.2149583064
 20
28651.76483424896
 30
0.0
 11
-29622.2149583064
 21
28567.251514323
 31
0.0
  0
LINE
  5
E2
330
DF
100
AcDbEntity
  8
标注
 62
     2
440
 16777216
100
AcDbLine
 10
-28868.21495830639
 20
28651.76483424896
 30
0.0
 11
-28868.21495830639
 21
28567.251514323
 31
0.0
  0
LINE
  5
E3
330
DF
100
AcDbEntity
  8
标注
 62
     2
440
 16777216
100
AcDbLine
 10
-29597.2149583064
 20
28567.43151432301
 30
0.0
 11
-29329.67692658325
 21
28567.43151432301
 31
0.0
  0
LINE
  5
E4
330
DF
100
AcDbEntity
  8
标注
 62
     2
440
 16777216
100
AcDbLine
 10
-28893.21495830639
 20
28567.43151432301
 30
0.0
 11
-29160.75299002954
 21
28567.43151432301
 31
0.0
  0
SOLID
  5
E5
330
DF
100
AcDbEntity
  8
标注
 62
     2
440
 16777216
370
   100
100
AcDbTrace
 10
-29597.2149583064
 20
28571.59818098967
 30
0.0
 11
-29597.2149583064
 21
28563.26484765634
 31
0.0
 12
-29622.2149583064
 22
28567.43151432301
 32
0.0
 13
-29622.2149583064
 23
28567.43151432301
 33
0.0
  0
SOLID
  5
E6
330
DF
100
AcDbEntity
  8
标注
 62
     2
440
 16777216
370
   100
100
AcDbTrace
 10
-28893.21495830639
 20
28571.59818098967
 30
0.0
 11
-28893.21495830639
 21
28563.26484765634
 31
0.0
 12
-28868.21495830639
 22
28567.43151432301
 32
0.0
 13
-28868.21495830639
 23
28567.43151432301
 33
0.0
  0
MTEXT
  5
E7
330
DF
100
AcDbEntity
  8
标注
 62
     2
440
 16777216
370
   100
100
AcDbMText
 10
-29245.2149583064
 20
28567.43151432301
 30
0.0
 40
25.0
 41
0.0
 46
0.0
 71
     5
 72
     1
  1
\A1;754.00 [29.68]
 73
     1
 44
1.0
  0
POINT
  5
E8
330
DF
100
AcDbEntity
  8
Defpoints
 62
     0
440
 16777216
370
   100
100
AcDbPoint
 10
-29622.2149583064
 20
28653.76483424896
 30
0.0
  0
POINT
  5
E9
330
DF
100
AcDbEntity
  8
Defpoints
 62
     0
440
 16777216
370
   100
100
AcDbPoint
 10
-28868.21495830639
 20
28653.76483424896
 30
0.0
  0
POINT
  5
EA
330
DF
100
AcDbEntity
  8
Defpoints
 62
     0
440
 16777216
370
   100
100
AcDbPoint
 10
-28868.21495830639
 20
28567.43151432301
 30
0.0
  0
ENDBLK
  5
EB
330
DF
100
AcDbEntity
  8
0
 62
     0
370
   100
100
AcDbBlockEnd
  0
BLOCK
  5
F0
330
EF
100
AcDbEntity
  8
0
 62
     0
370
   100
100
AcDbBlockBegin
  2
*D6
 70
     1
 10
0.0
 20
0.0
 30
0.0
  3
*D6
  1

  0
LINE
  5
F1
330
EF
100
AcDbEntity
  8
标注
 62
     2
440
 16777216
100
AcDbLine
 10
-29622.75730823061
 20
27954.66542480478
 30
0.0
 11
-29622.75730823061
 21
27830.40317418753
 31
0.0
  0
LINE
  5
F2
330
EF
100
AcDbEntity
  8
标注
 62
     2
440
 16777216
100
AcDbLine
 10
-28862.75730823061
 20
27952.66542480478
 30
0.0
 11
-28862.75730823061
 21
27830.40317418753
 31
0.0
  0
LINE
  5
F3
330
EF
100
AcDbEntity
  8
标注
 62
     2
440
 16777216
100
AcDbLine
 10
-29597.75730823061
 20
27830.58317418753
 30
0.0
 11
-29327.21927650747
 21
27830.58317418753
 31
0.0
  0
LINE
  5
F4
330
EF
100
AcDbEntity
  8
标注
 62
     2
440
 16777216
100
AcDbLine
 10
-28887.75730823061
 20
27830.58317418753
 30
0.0
 11
-29158.29533995376
 21
27830.58317418753
 31
0.0
  0
SOLID
  5
F5
330
EF
100
AcDbEntity
  8
标注
 62
     2
440
 16777216
370
   100
100
AcDbTrace
 10
-29597.75730823061
 20
27834.7498408542
 30
0.0
 11
-29597.75730823061
 21
27826.41650752086
 31
0.0
 12
-29622.75730823061
 22
27830.58317418753
 32
0.0
 13
-29622.75730823061
 23
27830.58317418753
 33
0.0
  0
SOLID
  5
F6
330
EF
100
AcDbEntity
  8
标注
 62
     2
440
 16777216
370
   100
100
AcDbTrace
 10
-28887.75730823061
 20
27834.7498408542
 30
0.0
 11
-28887.75730823061
 21
27826.41650752086
 31
0.0
 12
-28862.75730823061
 22
27830.58317418753
 32
0.0
 13
-28862.75730823061
 23
27830.58317418753
 33
0.0
  0
MTEXT
  5
F7
330
EF
100
AcDbEntity
  8
标注
 62
     2
440
 16777216
370
   100
100
AcDbMText
 10
-29242.75730823061
 20
27830.58317418753
 30
0.0
 40
25.0
 41
0.0
 46
0.0
 71
     5
 72
     1
  1
\A1;760.00 [29.92]
 73
     1
 44
1.0
  0
POINT
  5
F8
330
EF
100
AcDbEntity
  8
Defpoints
 62
     0
440
 16777216
370
   100
100
AcDbPoint
 10
-29622.75730823061
 20
27956.66542480478
 30
0.0
  0
POINT
  5
F9
330
EF
100
AcDbEntity
  8
Defpoints
 62
     0
440
 16777216
370
   100
100
AcDbPoint
 10
-28862.75730823061
 20
27954.66542480478
 30
0.0
  0
POINT
  5
FA
330
EF
100
AcDbEntity
  8
Defpoints
 62
     0
440
 16777216
370
   100
100
AcDbPoint
 10
-28862.75730823061
 20
27830.58317418753
 30
0.0
  0
ENDBLK
  5
FB
330
EF
100
AcDbEntity
  8
0
 62
     0
370
   100
100
AcDbBlockEnd
  0
BLOCK
  5
FE
330
FD
100
AcDbEntity
  8
0
 62
     0
370
   100
100
AcDbBlockBegin
  2
*D7
 70
     1
 10
0.0
 20
0.0
 30
0.0
  3
*D7
  1

  0
LINE
  5
FF
330
FD
100
AcDbEntity
  8
标注
 62
     2
440
 16777216
100
AcDbLine
 10
-29420.63216193768
 20
28384.66539996324
 30
0.0
 11
-29726.17143898764
 21
28384.66539996324
 31
0.0
  0
LINE
  5
100
330
FD
100
AcDbEntity
  8
标注
 62
     2
440
 16777216
100
AcDbLine
 10
-29594.75900847711
 20
27928.73682301209
 30
0.0
 11
-29726.17143898764
 21
27928.73682301209
 31
0.0
  0
LINE
  5
101
330
FD
100
AcDbEntity
  8
标注
 62
     2
440
 16777216
100
AcDbLine
 10
-29725.99143898764
 20
28359.66539996324
 30
0.0
 11
-29725.99143898764
 21
28241.4723804134
 31
0.0
  0
LINE
  5
102
330
FD
100
AcDbEntity
  8
标注
 62
     2
440
 16777216
100
AcDbLine
 10
-29725.99143898764
 20
27953.7368230121
 30
0.0
 11
-29725.99143898764
 21
28071.92984256193
 31
0.0
  0
SOLID
  5
103
330
FD
100
AcDbEntity
  8
标注
 62
     2
440
 16777216
370
   100
100
AcDbTrace
 10
-29730.1581056543
 20
28359.66539996324
 30
0.0
 11
-29721.82477232097
 21
28359.66539996324
 31
0.0
 12
-29725.99143898764
 22
28384.66539996324
 32
0.0
 13
-29725.99143898764
 23
28384.66539996324
 33
0.0
  0
SOLID
  5
104
330
FD
100
AcDbEntity
  8
标注
 62
     2
440
 16777216
370
   100
100
AcDbTrace
 10
-29730.1581056543
 20
27953.7368230121
 30
0.0
 11
-29721.82477232097
 21
27953.7368230121
 31
0.0
 12
-29725.99143898764
 22
27928.73682301209
 32
0.0
 13
-29725.99143898764
 23
27928.73682301209
 33
0.0
  0
MTEXT
  5
105
330
FD
100
AcDbEntity
  8
标注
 62
     2
440
 16777216
370
   100
100
AcDbMText
 10
-29725.99143898764
 20
28156.70111148767
 30
0.0
 40
25.0
 41
0.0
 46
0.0
 71
     5
 72
     1
  1
\A1;455.93 [17.95]
 11
0.0000000000000001
 21
1.0
 31
0.0
 73
     1
 44
1.0
  0
POINT
  5
106
330
FD
100
AcDbEntity
  8
Defpoints
 62
     0
440
 16777216
370
   100
100
AcDbPoint
 10
-29418.63216193768
 20
28384.66539996324
 30
0.0
  0
POINT
  5
107
330
FD
100
AcDbEntity
  8
Defpoints
 62
     0
440
 16777216
370
   100
100
AcDbPoint
 10
-29592.75900847711
 20
27928.73682301209
 30
0.0
  0
POINT
  5
108
330
FD
100
AcDbEntity
  8
Defpoints
 62
     0
440
 16777216
370
   100
100
AcDbPoint
 10
-29725.99143898764
 20
27928.73682301209
 30
0.0
  0
ENDBLK
  5
109
330
FD
100
AcDbEntity
  8
0
 62
     0
370
   100
100
AcDbBlockEnd
  0
BLOCK
  5
10E
330
10D
100
AcDbEntity
  8
0
 62
     0
370
   100
100
AcDbBlockBegin
  2
*D8
 70
     1
 10
0.0
 20
0.0
 30
0.0
  3
*D8
  1

  0
LINE
  5
10F
330
10D
100
AcDbEntity
  8
标注
 62
     2
440
 16777216
100
AcDbLine
 10
-28888.75730823061
 20
28312.66542480478
 30
0.0
 11
-28791.45772406661
 21
28312.66542480478
 31
0.0
  0
LINE
  5
110
330
10D
100
AcDbEntity
  8
标注
 62
     2
440
 16777216
100
AcDbLine
 10
-28886.75730823061
 20
27928.66542480478
 30
0.0
 11
-28791.45772406661
 21
27928.66542480478
 31
0.0
  0
LINE
  5
111
330
10D
100
AcDbEntity
  8
标注
 62
     2
440
 16777216
100
AcDbLine
 10
-28791.63772406661
 20
28287.66542480478
 30
0.0
 11
-28791.63772406661
 21
28205.07818616023
 31
0.0
  0
LINE
  5
112
330
10D
100
AcDbEntity
  8
标注
 62
     2
440
 16777216
100
AcDbLine
 10
-28791.63772406661
 20
27953.66542480478
 30
0.0
 11
-28791.63772406661
 21
28036.25266344933
 31
0.0
  0
SOLID
  5
113
330
10D
100
AcDbEntity
  8
标注
 62
     2
440
 16777216
370
   100
100
AcDbTrace
 10
-28795.80439073327
 20
28287.66542480478
 30
0.0
 11
-28787.47105739994
 21
28287.66542480478
 31
0.0
 12
-28791.63772406661
 22
28312.66542480478
 32
0.0
 13
-28791.63772406661
 23
28312.66542480478
 33
0.0
  0
SOLID
  5
114
330
10D
100
AcDbEntity
  8
标注
 62
     2
440
 16777216
370
   100
100
AcDbTrace
 10
-28795.80439073327
 20
27953.66542480478
 30
0.0
 11
-28787.47105739994
 21
27953.66542480478
 31
0.0
 12
-28791.63772406661
 22
27928.66542480478
 32
0.0
 13
-28791.63772406661
 23
27928.66542480478
 33
0.0
  0
MTEXT
  5
115
330
10D
100
AcDbEntity
  8
标注
 62
     2
440
 16777216
370
   100
100
AcDbMText
 10
-28791.63772406661
 20
28120.66542480477
 30
0.0
 40
25.0
 41
0.0
 46
0.0
 71
     5
 72
     1
  1
\A1;384.00 [15.12]
 11
0.0000000000000001
 21
1.0
 31
0.0
 73
     1
 44
1.0
  0
POINT
  5
116
330
10D
100
AcDbEntity
  8
Defpoints
 62
     0
440
 16777216
370
   100
100
AcDbPoint
 10
-28890.75730823061
 20
28312.66542480478
 30
0.0
  0
POINT
  5
117
330
10D
100
AcDbEntity
  8
Defpoints
 62
     0
440
 16777216
370
   100
100
AcDbPoint
 10
-28888.75730823061
 20
27928.66542480478
 30
0.0
  0
POINT
  5
118
330
10D
100
AcDbEntity
  8
Defpoints
 62
     0
440
 16777216
370
   100
100
AcDbPoint
 10
-28791.63772406661
 20
27928.66542480478
 30
0.0
  0
ENDBLK
  5
119
330
10D
100
AcDbEntity
  8
0
 62
     0
370
   100
100
AcDbBlockEnd
  0
BLOCK
  5
11E
330
11D
100
AcDbEntity
  8
0
 62
     0
370
   100
100
AcDbBlockBegin
  2
*D9
 70
     1
 10
0.0
 20
0.0
 30
0.0
  3
*D9
  1

  0
LINE
  5
11F
330
11D
100
AcDbEntity
  8
标注
 62
     2
440
 16777216
100
AcDbLine
 10
-28907.05809438511
 20
27971.43987473516
 30
0.0
 11
-28888.53447375502
 21
27954.65072708697
 31
0.0
  0
MTEXT
  5
120
330
11D
100
AcDbEntity
  8
标注
 62
     2
440
 16777216
370
   100
100
AcDbMText
 10
-28973.41592699123
 20
28031.58424237724
 30
0.0
 40
25.0
 41
0.0
 46
0.0
 71
     5
 72
     1
  1
\A1;R28.00 [R1.10]
 11
0.7409448252033675
 21
-0.671565905927595
 31
0.0
 73
     1
 44
1.0
  0
SOLID
  5
121
330
11D
100
AcDbEntity
  8
标注
 62
     2
440
 16777216
370
   100
100
AcDbTrace
 10
-28885.73628248032
 20
27957.73799719199
 30
0.0
 11
-28891.33266502972
 21
27951.56345698196
 31
0.0
 12
-28870.01085312494
 22
27937.86157943878
 32
0.0
 13
-28870.01085312494
 23
27937.86157943878
 33
0.0
  0
POINT
  5
122
330
11D
100
AcDbEntity
  8
Defpoints
 62
     0
440
 16777216
370
   100
100
AcDbPoint
 10
-28870.01085312494
 20
27937.86157943878
 30
0.0
  0
POINT
  5
123
330
11D
100
AcDbEntity
  8
Defpoints
 62
     0
440
 16777216
370
   100
100
AcDbPoint
 10
-28890.75730823064
 20
27956.66542480476
 30
0.0
  0
ENDBLK
  5
124
330
11D
100
AcDbEntity
  8
0
 62
     0
370
   100
100
AcDbBlockEnd
  0
BLOCK
  5
129
330
128
100
AcDbEntity
  8
0
 62
     0
370
   100
100
AcDbBlockBegin
  2
*D10
 70
     1
 10
0.0
 20
0.0
 30
0.0
  3
*D10
  1

  0
LINE
  5
12A
330
128
100
AcDbEntity
  8
标注
 62
     2
440
 16777216
100
AcDbLine
 10
-29409.70663787931
 20
28334.57169344337
 30
0.0
 11
-29409.04205710496
 21
28359.56285853015
 31
0.0
  0
MTEXT
  5
12B
330
128
100
AcDbEntity
  8
标注
 62
     2
440
 16777216
370
   100
100
AcDbMText
 10
-29412.47009602613
 20
28230.65349204123
 30
0.0
 40
25.0
 41
0.0
 46
0.0
 71
     5
 72
     1
  1
\A1;R315.23 [R12.41]
 11
0.0265832309741332
 21
0.9996466034709346
 31
0.0
 73
     1
 44
1.0
  0
SOLID
  5
12C
330
128
100
AcDbEntity
  8
标注
 62
     2
440
 16777216
370
   100
100
AcDbTrace
 10
-29413.20725128609
 20
28359.67362199253
 30
0.0
 11
-29404.87686292383
 21
28359.45209506775
 31
0.0
 12
-29408.37747633061
 22
28384.55402361692
 32
0.0
 13
-29408.37747633061
 23
28384.55402361692
 33
0.0
  0
POINT
  5
12D
330
128
100
AcDbEntity
  8
Defpoints
 62
     0
440
 16777216
370
   100
100
AcDbPoint
 10
-29408.37747633061
 20
28384.55402361692
 30
0.0
  0
POINT
  5
12E
330
128
100
AcDbEntity
  8
Defpoints
 62
     0
440
 16777216
370
   100
100
AcDbPoint
 10
-29416.75730823058
 20
28069.43542480476
 30
0.0
  0
ENDBLK
  5
12F
330
128
100
AcDbEntity
  8
0
 62
     0
370
   100
100
AcDbBlockEnd
  0
BLOCK
  5
134
330
133
100
AcDbEntity
  8
0
 62
     0
370
   100
100
AcDbBlockBegin
  2
*D11
 70
     1
 10
0.0
 20
0.0
 30
0.0
  3
*D11
  1

  0
LINE
  5
135
330
133
100
AcDbEntity
  8
标注
 62
     2
440
 16777216
100
AcDbLine
 10
-29580.49068989473
 20
28278.1735861324
 30
0.0
 11
-29594.11806980047
 21
28299.13294005624
 31
0.0
  0
MTEXT
  5
136
330
133
100
AcDbEntity
  8
标注
 62
     2
440
 16777216
370
   100
100
AcDbMText
 10
-29531.67283658714
 20
28203.09013851786
 30
0.0
 40
25.0
 41
0.0
 46
0.0
 71
     5
 72
     1
  1
\A1;R33.00 [R1.30]
 11
0.5450951962294459
 21
-0.8383741569535539
 31
0.0
 73
     1
 44
1.0
  0
SOLID
  5
137
330
133
100
AcDbEntity
  8
标注
 62
     2
440
 16777216
370
   100
100
AcDbTrace
 10
-29590.6248441465
 20
28301.40417004054
 30
0.0
 11
-29597.61129545444
 21
28296.86171007196
 31
0.0
 12
-29607.7454497062
 22
28320.09229398009
 32
0.0
 13
-29607.7454497062
 23
28320.09229398009
 33
0.0
  0
ARC
  5
138
330
133
100
AcDbEntity
  8
标注
 62
     2
440
 16777216
100
AcDbCircle
 10
-29589.75730823063
 20
28292.42594680061
 30
0.0
 40
33.00000000000728
100
AcDbArc
 50
122.718646814591
 51
124.3324725034692
  0
POINT
  5
139
330
133
100
AcDbEntity
  8
Defpoints
 62
     0
440
 16777216
370
   100
100
AcDbPoint
 10
-29607.7454497062
 20
28320.09229398009
 30
0.0
  0
POINT
  5
13A
330
133
100
AcDbEntity
  8
Defpoints
 62
     0
440
 16777216
370
   100
100
AcDbPoint
 10
-29589.75730823063
 20
28292.42594680061
 30
0.0
  0
ENDBLK
  5
13B
330
133
100
AcDbEntity
  8
0
 62
     0
370
   100
100
AcDbBlockEnd
  0
BLOCK
  5
140
330
13F
100
AcDbEntity
  8
0
 62
     0
370
   100
100
AcDbBlockBegin
  2
*D12
 70
     1
 10
0.0
 20
0.0
 30
0.0
  3
*D12
  1

  0
LINE
  5
141
330
13F
100
AcDbEntity
  8
标注
 62
     2
440
 16777216
100
AcDbLine
 10
-29236.49363451166
 20
28268.63614442396
 30
0.0
 11
-29226.84120950313
 21
28291.69759909305
 31
0.0
  0
MTEXT
  5
142
330
13F
100
AcDbEntity
  8
标注
 62
     2
440
 16777216
370
   100
100
AcDbMText
 10
-29271.0718638843
 20
28186.02226568254
 30
0.0
 40
25.0
 41
0.0
 46
0.0
 71
     5
 72
     1
  1
\A1;R27.00 [R1.06]
 11
0.3860970003409891
 21
0.9224581867638718
 31
0.0
 73
     1
 44
1.0
  0
SOLID
  5
143
330
13F
100
AcDbEntity
  8
标注
 62
     2
440
 16777216
370
   100
100
AcDbTrace
 10
-29230.68478528131
 20
28293.30633659448
 30
0.0
 11
-29222.99763372495
 21
28290.08886159163
 31
0.0
 12
-29217.1887844946
 22
28314.75905376215
 32
0.0
 13
-29217.1887844946
 23
28314.75905376215
 33
0.0
  0
POINT
  5
144
330
13F
100
AcDbEntity
  8
Defpoints
 62
     0
440
 16777216
370
   100
100
AcDbPoint
 10
-29217.1887844946
 20
28314.75905376215
 30
0.0
  0
POINT
  5
145
330
13F
100
AcDbEntity
  8
Defpoints
 62
     0
440
 16777216
370
   100
100
AcDbPoint
 10
-29206.7641654854
 20
28339.66542480476
 30
0.0
  0
ENDBLK
  5
146
330
13F
100
AcDbEntity
  8
0
 62
     0
370
   100
100
AcDbBlockEnd
  0
BLOCK
  5
14B
330
14A
100
AcDbEntity
  8
0
 62
     0
370
   100
100
AcDbBlockBegin
  2
*D13
 70
     1
 10
0.0
 20
0.0
 30
0.0
  3
*D13
  1

  0
LINE
  5
14C
330
14A
100
AcDbEntity
  8
标注
 62
     2
440
 16777216
100
AcDbLine
 10
-28125.08590441362
 20
29106.76483424897
 30
0.0
 11
-28468.37743674198
 21
29106.76483424897
 31
0.0
  0
LINE
  5
14D
330
14A
100
AcDbEntity
  8
标注
 62
     2
440
 16777216
100
AcDbLine
 10
-28324.08590441362
 20
28600.76483424896
 30
0.0
 11
-28468.37743674198
 21
28600.76483424896
 31
0.0
  0
LINE
  5
14E
330
14A
100
AcDbEntity
  8
标注
 62
     2
440
 16777216
100
AcDbLine
 10
-28468.19743674198
 20
29081.76483424896
 30
0.0
 11
-28468.19743674198
 21
28938.07215220138
 31
0.0
  0
LINE
  5
14F
330
14A
100
AcDbEntity
  8
标注
 62
     2
440
 16777216
100
AcDbLine
 10
-28468.19743674198
 20
28625.76483424896
 30
0.0
 11
-28468.19743674198
 21
28769.45751629655
 31
0.0
  0
SOLID
  5
150
330
14A
100
AcDbEntity
  8
标注
 62
     2
440
 16777216
370
   100
100
AcDbTrace
 10
-28472.36410340864
 20
29081.76483424896
 30
0.0
 11
-28464.03077007531
 21
29081.76483424896
 31
0.0
 12
-28468.19743674198
 22
29106.76483424897
 32
0.0
 13
-28468.19743674198
 23
29106.76483424897
 33
0.0
  0
SOLID
  5
151
330
14A
100
AcDbEntity
  8
标注
 62
     2
440
 16777216
370
   100
100
AcDbTrace
 10
-28472.36410340864
 20
28625.76483424896
 30
0.0
 11
-28464.03077007531
 21
28625.76483424896
 31
0.0
 12
-28468.19743674198
 22
28600.76483424896
 32
0.0
 13
-28468.19743674198
 23
28600.76483424896
 33
0.0
  0
MTEXT
  5
152
330
14A
100
AcDbEntity
  8
标注
 62
     2
440
 16777216
370
   100
100
AcDbMText
 10
-28468.19743674198
 20
28853.76483424895
 30
0.0
 40
25.0
 41
0.0
 46
0.0
 71
     5
 72
     1
  1
\A1;506.00 [19.92]
 11
0.0000000000000001
 21
1.0
 31
0.0
 73
     1
 44
1.0
  0
POINT
  5
153
330
14A
100
AcDbEntity
  8
Defpoints
 62
     0
440
 16777216
370
   100
100
AcDbPoint
 10
-28123.08590441362
 20
29106.76483424897
 30
0.0
  0
POINT
  5
154
330
14A
100
AcDbEntity
  8
Defpoints
 62
     0
440
 16777216
370
   100
100
AcDbPoint
 10
-28322.08590441362
 20
28600.76483424896
 30
0.0
  0
POINT
  5
155
330
14A
100
AcDbEntity
  8
Defpoints
 62
     0
440
 16777216
370
   100
100
AcDbPoint
 10
-28468.19743674198
 20
28600.76483424896
 30
0.0
  0
ENDBLK
  5
156
330
14A
100
AcDbEntity
  8
0
 62
     0
370
   100
100
AcDbBlockEnd
  0
BLOCK
  5
15B
330
15A
100
AcDbEntity
  8
0
 62
     0
370
   100
100
AcDbBlockBegin
  2
*D14
 70
     1
 10
0.0
 20
0.0
 30
0.0
  3
*D14
  1

  0
LINE
  5
15C
330
15A
100
AcDbEntity
  8
标注
 62
     2
440
 16777216
100
AcDbLine
 10
-28125.08590441362
 20
29078.76483424896
 30
0.0
 11
-28423.85206692841
 21
29078.76483424896
 31
0.0
  0
LINE
  5
15D
330
15A
100
AcDbEntity
  8
标注
 62
     2
440
 16777216
100
AcDbLine
 10
-28301.08590441362
 20
28628.76483424896
 30
0.0
 11
-28423.85206692841
 21
28628.76483424896
 31
0.0
  0
LINE
  5
15E
330
15A
100
AcDbEntity
  8
标注
 62
     2
440
 16777216
100
AcDbLine
 10
-28423.6720669284
 20
29053.76483424896
 30
0.0
 11
-28423.6720669284
 21
28938.5361031747
 31
0.0
  0
LINE
  5
15F
330
15A
100
AcDbEntity
  8
标注
 62
     2
440
 16777216
100
AcDbLine
 10
-28423.6720669284
 20
28653.76483424896
 30
0.0
 11
-28423.6720669284
 21
28768.99356532323
 31
0.0
  0
SOLID
  5
160
330
15A
100
AcDbEntity
  8
标注
 62
     2
440
 16777216
370
   100
100
AcDbTrace
 10
-28427.83873359507
 20
29053.76483424896
 30
0.0
 11
-28419.50540026174
 21
29053.76483424896
 31
0.0
 12
-28423.6720669284
 22
29078.76483424896
 32
0.0
 13
-28423.6720669284
 23
29078.76483424896
 33
0.0
  0
SOLID
  5
161
330
15A
100
AcDbEntity
  8
标注
 62
     2
440
 16777216
370
   100
100
AcDbTrace
 10
-28427.83873359507
 20
28653.76483424896
 30
0.0
 11
-28419.50540026174
 21
28653.76483424896
 31
0.0
 12
-28423.6720669284
 22
28628.76483424896
 32
0.0
 13
-28423.6720669284
 23
28628.76483424896
 33
0.0
  0
MTEXT
  5
162
330
15A
100
AcDbEntity
  8
标注
 62
     2
440
 16777216
370
   100
100
AcDbMText
 10
-28423.67206692841
 20
28853.76483424895
 30
0.0
 40
25.0
 41
0.0
 46
0.0
 71
     5
 72
     1
  1
\A1;450.00 [17.72]
 11
0.0000000000000001
 21
1.0
 31
0.0
 73
     1
 44
1.0
  0
POINT
  5
163
330
15A
100
AcDbEntity
  8
Defpoints
 62
     0
440
 16777216
370
   100
100
AcDbPoint
 10
-28123.08590441362
 20
29078.76483424896
 30
0.0
  0
POINT
  5
164
330
15A
100
AcDbEntity
  8
Defpoints
 62
     0
440
 16777216
370
   100
100
AcDbPoint
 10
-28299.08590441363
 20
28628.76483424896
 30
0.0
  0
POINT
  5
165
330
15A
100
AcDbEntity
  8
Defpoints
 62
     0
440
 16777216
370
   100
100
AcDbPoint
 10
-28423.6720669284
 20
28628.76483424896
 30
0.0
  0
ENDBLK
  5
166
330
15A
100
AcDbEntity
  8
0
 62
     0
370
   100
100
AcDbBlockEnd
  0
BLOCK
  5
16B
330
16A
100
AcDbEntity
  8
0
 62
     0
370
   100
100
AcDbBlockBegin
  2
*D15
 70
     1
 10
0.0
 20
0.0
 30
0.0
  3
*D15
  1

  0
LINE
  5
16C
330
16A
100
AcDbEntity
  8
标注
 62
     2
440
 16777216
100
AcDbLine
 10
-27591.08590441362
 20
29006.76483424896
 30
0.0
 11
-27458.24538220645
 21
29006.76483424896
 31
0.0
  0
LINE
  5
16D
330
16A
100
AcDbEntity
  8
标注
 62
     2
440
 16777216
100
AcDbLine
 10
-27593.08590441362
 20
28628.76483424896
 30
0.0
 11
-27458.24538220645
 21
28628.76483424896
 31
0.0
  0
LINE
  5
16E
330
16A
100
AcDbEntity
  8
标注
 62
     2
440
 16777216
100
AcDbLine
 10
-27458.42538220645
 20
28981.76483424896
 30
0.0
 11
-27458.42538220645
 21
28902.17759560441
 31
0.0
  0
LINE
  5
16F
330
16A
100
AcDbEntity
  8
标注
 62
     2
440
 16777216
100
AcDbLine
 10
-27458.42538220645
 20
28653.76483424896
 30
0.0
 11
-27458.42538220645
 21
28733.35207289352
 31
0.0
  0
SOLID
  5
170
330
16A
100
AcDbEntity
  8
标注
 62
     2
440
 16777216
370
   100
100
AcDbTrace
 10
-27462.59204887312
 20
28981.76483424896
 30
0.0
 11
-27454.25871553979
 21
28981.76483424896
 31
0.0
 12
-27458.42538220645
 22
29006.76483424896
 32
0.0
 13
-27458.42538220645
 23
29006.76483424896
 33
0.0
  0
SOLID
  5
171
330
16A
100
AcDbEntity
  8
标注
 62
     2
440
 16777216
370
   100
100
AcDbTrace
 10
-27462.59204887312
 20
28653.76483424896
 30
0.0
 11
-27454.25871553979
 21
28653.76483424896
 31
0.0
 12
-27458.42538220645
 22
28628.76483424896
 32
0.0
 13
-27458.42538220645
 23
28628.76483424896
 33
0.0
  0
MTEXT
  5
172
330
16A
100
AcDbEntity
  8
标注
 62
     2
440
 16777216
370
   100
100
AcDbMText
 10
-27458.42538220646
 20
28817.76483424896
 30
0.0
 40
25.0
 41
0.0
 46
0.0
 71
     5
 72
     1
  1
\A1;378.00 [14.88]
 11
0.0000000000000001
 21
1.0
 31
0.0
 73
     1
 44
1.0
  0
POINT
  5
173
330
16A
100
AcDbEntity
  8
Defpoints
 62
     0
440
 16777216
370
   100
100
AcDbPoint
 10
-27593.08590441362
 20
29006.76483424896
 30
0.0
  0
POINT
  5
174
330
16A
100
AcDbEntity
  8
Defpoints
 62
     0
440
 16777216
370
   100
100
AcDbPoint
 10
-27595.08590441362
 20
28628.76483424896
 30
0.0
  0
POINT
  5
175
330
16A
100
AcDbEntity
  8
Defpoints
 62
     0
440
 16777216
370
   100
100
AcDbPoint
 10
-27458.42538220645
 20
28628.76483424896
 30
0.0
  0
ENDBLK
  5
176
330
16A
100
AcDbEntity
  8
0
 62
     0
370
   100
100
AcDbBlockEnd
  0
BLOCK
  5
17B
330
17A
100
AcDbEntity
  8
0
 62
     0
370
   100
100
AcDbBlockBegin
  2
*D16
 70
     1
 10
0.0
 20
0.0
 30
0.0
  3
*D16
  1

  0
LINE
  5
17C
330
17A
100
AcDbEntity
  8
标注
 62
     2
440
 16777216
100
AcDbLine
 10
-27570.08590441362
 20
29034.76483424896
 30
0.0
 11
-27403.13121894283
 21
29034.76483424896
 31
0.0
  0
LINE
  5
17D
330
17A
100
AcDbEntity
  8
标注
 62
     2
440
 16777216
100
AcDbLine
 10
-27568.08590441362
 20
28602.76483424896
 30
0.0
 11
-27403.13121894283
 21
28602.76483424896
 31
0.0
  0
LINE
  5
17E
330
17A
100
AcDbEntity
  8
标注
 62
     2
440
 16777216
100
AcDbLine
 10
-27403.31121894283
 20
29009.76483424896
 30
0.0
 11
-27403.31121894283
 21
28903.5361031747
 31
0.0
  0
LINE
  5
17F
330
17A
100
AcDbEntity
  8
标注
 62
     2
440
 16777216
100
AcDbLine
 10
-27403.31121894283
 20
28627.76483424896
 30
0.0
 11
-27403.31121894283
 21
28733.99356532322
 31
0.0
  0
SOLID
  5
180
330
17A
100
AcDbEntity
  8
标注
 62
     2
440
 16777216
370
   100
100
AcDbTrace
 10
-27407.4778856095
 20
29009.76483424896
 30
0.0
 11
-27399.14455227616
 21
29009.76483424896
 31
0.0
 12
-27403.31121894283
 22
29034.76483424896
 32
0.0
 13
-27403.31121894283
 23
29034.76483424896
 33
0.0
  0
SOLID
  5
181
330
17A
100
AcDbEntity
  8
标注
 62
     2
440
 16777216
370
   100
100
AcDbTrace
 10
-27407.4778856095
 20
28627.76483424896
 30
0.0
 11
-27399.14455227616
 21
28627.76483424896
 31
0.0
 12
-27403.31121894283
 22
28602.76483424896
 32
0.0
 13
-27403.31121894283
 23
28602.76483424896
 33
0.0
  0
MTEXT
  5
182
330
17A
100
AcDbEntity
  8
标注
 62
     2
440
 16777216
370
   100
100
AcDbMText
 10
-27403.31121894284
 20
28818.76483424896
 30
0.0
 40
25.0
 41
0.0
 46
0.0
 71
     5
 72
     1
  1
\A1;432.00 [17.01]
 11
0.0000000000000001
 21
1.0
 31
0.0
 73
     1
 44
1.0
  0
POINT
  5
183
330
17A
100
AcDbEntity
  8
Defpoints
 62
     0
440
 16777216
370
   100
100
AcDbPoint
 10
-27572.08590441362
 20
29034.76483424896
 30
0.0
  0
POINT
  5
184
330
17A
100
AcDbEntity
  8
Defpoints
 62
     0
440
 16777216
370
   100
100
AcDbPoint
 10
-27570.08590441362
 20
28602.76483424896
 30
0.0
  0
POINT
  5
185
330
17A
100
AcDbEntity
  8
Defpoints
 62
     0
440
 16777216
370
   100
100
AcDbPoint
 10
-27403.31121894283
 20
28602.76483424896
 30
0.0
  0
ENDBLK
  5
186
330
17A
100
AcDbEntity
  8
0
 62
     0
370
   100
100
AcDbBlockEnd
  0
BLOCK
  5
189
330
188
100
AcDbEntity
  8
0
 62
     0
370
   100
100
AcDbBlockBegin
  2
*D17
 70
     1
 10
0.0
 20
0.0
 30
0.0
  3
*D17
  1

  0
LINE
  5
18A
330
188
100
AcDbEntity
  8
标注
 62
     2
440
 16777216
100
AcDbLine
 10
-28324.08590441362
 20
28649.76483424896
 30
0.0
 11
-28324.08590441362
 21
28549.80284198037
 31
0.0
  0
LINE
  5
18B
330
188
100
AcDbEntity
  8
标注
 62
     2
440
 16777216
100
AcDbLine
 10
-27918.08590441362
 20
28649.76483424896
 30
0.0
 11
-27918.08590441362
 21
28549.80284198037
 31
0.0
  0
LINE
  5
18C
330
188
100
AcDbEntity
  8
标注
 62
     2
440
 16777216
100
AcDbLine
 10
-28299.08590441363
 20
28549.98284198037
 30
0.0
 11
-28205.85717333936
 21
28549.98284198037
 31
0.0
  0
LINE
  5
18D
330
188
100
AcDbEntity
  8
标注
 62
     2
440
 16777216
100
AcDbLine
 10
-27943.08590441362
 20
28549.98284198037
 30
0.0
 11
-28036.31463548788
 21
28549.98284198037
 31
0.0
  0
SOLID
  5
18E
330
188
100
AcDbEntity
  8
标注
 62
     2
440
 16777216
370
   100
100
AcDbTrace
 10
-28299.08590441363
 20
28554.14950864704
 30
0.0
 11
-28299.08590441363
 21
28545.81617531371
 31
0.0
 12
-28324.08590441362
 22
28549.98284198037
 32
0.0
 13
-28324.08590441362
 23
28549.98284198037
 33
0.0
  0
SOLID
  5
18F
330
188
100
AcDbEntity
  8
标注
 62
     2
440
 16777216
370
   100
100
AcDbTrace
 10
-27943.08590441362
 20
28554.14950864704
 30
0.0
 11
-27943.08590441362
 21
28545.81617531371
 31
0.0
 12
-27918.08590441362
 22
28549.98284198037
 32
0.0
 13
-27918.08590441362
 23
28549.98284198037
 33
0.0
  0
MTEXT
  5
190
330
188
100
AcDbEntity
  8
标注
 62
     2
440
 16777216
370
   100
100
AcDbMText
 10
-28121.08590441362
 20
28549.98284198037
 30
0.0
 40
25.0
 41
0.0
 46
0.0
 71
     5
 72
     1
  1
\A1;406.00 [15.98]
 73
     1
 44
1.0
  0
POINT
  5
191
330
188
100
AcDbEntity
  8
Defpoints
 62
     0
440
 16777216
370
   100
100
AcDbPoint
 10
-28324.08590441362
 20
28651.76483424896
 30
0.0
  0
POINT
  5
192
330
188
100
AcDbEntity
  8
Defpoints
 62
     0
440
 16777216
370
   100
100
AcDbPoint
 10
-27918.08590441362
 20
28651.76483424896
 30
0.0
  0
POINT
  5
193
330
188
100
AcDbEntity
  8
Defpoints
 62
     0
440
 16777216
370
   100
100
AcDbPoint
 10
-27918.08590441362
 20
28549.98284198037
 30
0.0
  0
ENDBLK
  5
194
330
188
100
AcDbEntity
  8
0
 62
     0
370
   100
100
AcDbBlockEnd
  0
BLOCK
  5
199
330
198
100
AcDbEntity
  8
0
 62
     0
370
   100
100
AcDbBlockBegin
  2
*D18
 70
     1
 10
0.0
 20
0.0
 30
0.0
  3
*D18
  1

  0
LINE
  5
19A
330
198
100
AcDbEntity
  8
标注
 62
     2
440
 16777216
100
AcDbLine
 10
-27888.08590441362
 20
28651.76483424896
 30
0.0
 11
-27888.08590441362
 21
28548.55284198037
 31
0.0
  0
LINE
  5
19B
330
198
100
AcDbEntity
  8
标注
 62
     2
440
 16777216
100
AcDbLine
 10
-27570.08590441362
 20
28651.76483424896
 30
0.0
 11
-27570.08590441362
 21
28548.55284198037
 31
0.0
  0
LINE
  5
19C
330
198
100
AcDbEntity
  8
标注
 62
     2
440
 16777216
100
AcDbLine
 10
-27863.08590441362
 20
28548.73284198037
 30
0.0
 11
-27813.49866576907
 21
28548.73284198037
 31
0.0
  0
LINE
  5
19D
330
198
100
AcDbEntity
  8
标注
 62
     2
440
 16777216
100
AcDbLine
 10
-27595.08590441362
 20
28548.73284198037
 30
0.0
 11
-27644.67314305818
 21
28548.73284198037
 31
0.0
  0
SOLID
  5
19E
330
198
100
AcDbEntity
  8
标注
 62
     2
440
 16777216
370
   100
100
AcDbTrace
 10
-27863.08590441362
 20
28552.89950864704
 30
0.0
 11
-27863.08590441362
 21
28544.5661753137
 31
0.0
 12
-27888.08590441362
 22
28548.73284198037
 32
0.0
 13
-27888.08590441362
 23
28548.73284198037
 33
0.0
  0
SOLID
  5
19F
330
198
100
AcDbEntity
  8
标注
 62
     2
440
 16777216
370
   100
100
AcDbTrace
 10
-27595.08590441362
 20
28552.89950864704
 30
0.0
 11
-27595.08590441362
 21
28544.5661753137
 31
0.0
 12
-27570.08590441362
 22
28548.73284198037
 32
0.0
 13
-27570.08590441362
 23
28548.73284198037
 33
0.0
  0
MTEXT
  5
1A0
330
198
100
AcDbEntity
  8
标注
 62
     2
440
 16777216
370
   100
100
AcDbMText
 10
-27729.08590441363
 20
28548.73284198037
 30
0.0
 40
25.0
 41
0.0
 46
0.0
 71
     5
 72
     1
  1
\A1;318.00 [12.52]
 73
     1
 44
1.0
  0
POINT
  5
1A1
330
198
100
AcDbEntity
  8
Defpoints
 62
     0
440
 16777216
370
   100
100
AcDbPoint
 10
-27888.08590441362
 20
28653.76483424896
 30
0.0
  0
POINT
  5
1A2
330
198
100
AcDbEntity
  8
Defpoints
 62
     0
440
 16777216
370
   100
100
AcDbPoint
 10
-27570.08590441362
 20
28653.76483424896
 30
0.0
  0
POINT
  5
1A3
330
198
100
AcDbEntity
  8
Defpoints
 62
     0
440
 16777216
370
   100
100
AcDbPoint
 10
-27570.08590441362
 20
28548.73284198037
 30
0.0
  0
ENDBLK
  5
1A4
330
198
100
AcDbEntity
  8
0
 62
     0
370
   100
100
AcDbBlockEnd
  0
BLOCK
  5
1A7
330
1A6
100
AcDbEntity
  8
0
 62
     0
370
   100
100
AcDbBlockBegin
  2
*D19
 70
     1
 10
0.0
 20
0.0
 30
0.0
  3
*D19
  1

  0
LINE
  5
1A8
330
1A6
100
AcDbEntity
  8
标注
 62
     2
440
 16777216
100
AcDbLine
 10
-28352.08590441363
 20
28626.76483424897
 30
0.0
 11
-28352.08590441363
 21
28484.17546663532
 31
0.0
  0
LINE
  5
1A9
330
1A6
100
AcDbEntity
  8
标注
 62
     2
440
 16777216
100
AcDbLine
 10
-27542.08590441362
 20
28626.76483424897
 30
0.0
 11
-27542.08590441362
 21
28484.17546663532
 31
0.0
  0
LINE
  5
1AA
330
1A6
100
AcDbEntity
  8
标注
 62
     2
440
 16777216
100
AcDbLine
 10
-28327.08590441362
 20
28484.35546663532
 30
0.0
 11
-28031.21045380079
 21
28484.35546663532
 31
0.0
  0
LINE
  5
1AB
330
1A6
100
AcDbEntity
  8
标注
 62
     2
440
 16777216
100
AcDbLine
 10
-27567.08590441363
 20
28484.35546663532
 30
0.0
 11
-27862.96135502646
 21
28484.35546663532
 31
0.0
  0
SOLID
  5
1AC
330
1A6
100
AcDbEntity
  8
标注
 62
     2
440
 16777216
370
   100
100
AcDbTrace
 10
-28327.08590441362
 20
28488.52213330198
 30
0.0
 11
-28327.08590441362
 21
28480.18879996865
 31
0.0
 12
-28352.08590441363
 22
28484.35546663532
 32
0.0
 13
-28352.08590441363
 23
28484.35546663532
 33
0.0
  0
SOLID
  5
1AD
330
1A6
100
AcDbEntity
  8
标注
 62
     2
440
 16777216
370
   100
100
AcDbTrace
 10
-27567.08590441363
 20
28488.52213330198
 30
0.0
 11
-27567.08590441363
 21
28480.18879996865
 31
0.0
 12
-27542.08590441362
 22
28484.35546663532
 32
0.0
 13
-27542.08590441362
 23
28484.35546663532
 33
0.0
  0
MTEXT
  5
1AE
330
1A6
100
AcDbEntity
  8
标注
 62
     2
440
 16777216
370
   100
100
AcDbMText
 10
-27947.08590441362
 20
28484.35546663532
 30
0.0
 40
25.0
 41
0.0
 46
0.0
 71
     5
 72
     1
  1
\A1;810.00 [31.89]
 73
     1
 44
1.0
  0
POINT
  5
1AF
330
1A6
100
AcDbEntity
  8
Defpoints
 62
     0
440
 16777216
370
   100
100
AcDbPoint
 10
-28352.08590441363
 20
28628.76483424896
 30
0.0
  0
POINT
  5
1B0
330
1A6
100
AcDbEntity
  8
Defpoints
 62
     0
440
 16777216
370
   100
100
AcDbPoint
 10
-27542.08590441362
 20
28628.76483424896
 30
0.0
  0
POINT
  5
1B1
330
1A6
100
AcDbEntity
  8
Defpoints
 62
     0
440
 16777216
370
   100
100
AcDbPoint
 10
-27542.08590441362
 20
28484.35546663532
 30
0.0
  0
ENDBLK
  5
1B2
330
1A6
100
AcDbEntity
  8
0
 62
     0
370
   100
100
AcDbBlockEnd
  0
BLOCK
  5
1B7
330
1B6
100
AcDbEntity
  8
0
 62
     0
370
   100
100
AcDbBlockBegin
  2
*D20
 70
     1
 10
0.0
 20
0.0
 30
0.0
  3
*D20
  1

  0
LINE
  5
1B8
330
1B6
100
AcDbEntity
  8
标注
 62
     2
440
 16777216
100
AcDbLine
 10
-28354.08590441362
 20
28252.86703152174
 30
0.0
 11
-28414.10690157533
 21
28252.86703152174
 31
0.0
  0
LINE
  5
1B9
330
1B6
100
AcDbEntity
  8
标注
 62
     2
440
 16777216
100
AcDbLine
 10
-28168.08590441362
 20
28022.86703152174
 30
0.0
 11
-28414.10690157533
 21
28022.86703152174
 31
0.0
  0
LINE
  5
1BA
330
1B6
100
AcDbEntity
  8
标注
 62
     2
440
 16777216
100
AcDbLine
 10
-28413.92690157533
 20
28227.86703152174
 30
0.0
 11
-28413.92690157533
 21
28215.35567607833
 31
0.0
  0
LINE
  5
1BB
330
1B6
100
AcDbEntity
  8
标注
 62
     2
440
 16777216
100
AcDbLine
 10
-28413.92690157533
 20
28047.86703152174
 30
0.0
 11
-28413.92690157533
 21
28060.37838696514
 31
0.0
  0
SOLID
  5
1BC
330
1B6
100
AcDbEntity
  8
标注
 62
     2
440
 16777216
370
   100
100
AcDbTrace
 10
-28418.09356824199
 20
28227.86703152174
 30
0.0
 11
-28409.76023490866
 21
28227.86703152174
 31
0.0
 12
-28413.92690157533
 22
28252.86703152174
 32
0.0
 13
-28413.92690157533
 23
28252.86703152174
 33
0.0
  0
SOLID
  5
1BD
330
1B6
100
AcDbEntity
  8
标注
 62
     2
440
 16777216
370
   100
100
AcDbTrace
 10
-28418.09356824199
 20
28047.86703152174
 30
0.0
 11
-28409.76023490866
 21
28047.86703152174
 31
0.0
 12
-28413.92690157533
 22
28022.86703152174
 32
0.0
 13
-28413.92690157533
 23
28022.86703152174
 33
0.0
  0
MTEXT
  5
1BE
330
1B6
100
AcDbEntity
  8
标注
 62
     2
440
 16777216
370
   100
100
AcDbMText
 10
-28413.92690157534
 20
28137.86703152173
 30
0.0
 40
25.0
 41
0.0
 46
0.0
 71
     5
 72
     1
  1
\A1;230.00 [9.06]
 11
0.0000000000000001
 21
1.0
 31
0.0
 73
     1
 44
1.0
  0
POINT
  5
1BF
330
1B6
100
AcDbEntity
  8
Defpoints
 62
     0
440
 16777216
370
   100
100
AcDbPoint
 10
-28352.08590441363
 20
28252.86703152174
 30
0.0
  0
POINT
  5
1C0
330
1B6
100
AcDbEntity
  8
Defpoints
 62
     0
440
 16777216
370
   100
100
AcDbPoint
 10
-28166.08590441362
 20
28022.86703152174
 30
0.0
  0
POINT
  5
1C1
330
1B6
100
AcDbEntity
  8
Defpoints
 62
     0
440
 16777216
370
   100
100
AcDbPoint
 10
-28413.92690157533
 20
28022.86703152174
 30
0.0
  0
ENDBLK
  5
1C2
330
1B6
100
AcDbEntity
  8
0
 62
     0
370
   100
100
AcDbBlockEnd
  0
BLOCK
  5
1C7
330
1C6
100
AcDbEntity
  8
0
 62
     0
370
   100
100
AcDbBlockBegin
  2
*D21
 70
     1
 10
0.0
 20
0.0
 30
0.0
  3
*D21
  1

  0
LINE
  5
1C8
330
1C6
100
AcDbEntity
  8
标注
 62
     2
440
 16777216
100
AcDbLine
 10
-27540.08590441362
 20
28252.86703152174
 30
0.0
 11
-27491.56635775746
 21
28252.86703152174
 31
0.0
  0
LINE
  5
1C9
330
1C6
100
AcDbEntity
  8
标注
 62
     2
440
 16777216
100
AcDbLine
 10
-27680.08590441362
 20
28062.86703152174
 30
0.0
 11
-27491.56635775746
 21
28062.86703152174
 31
0.0
  0
LINE
  5
1CA
330
1C6
100
AcDbEntity
  8
标注
 62
     2
440
 16777216
100
AcDbLine
 10
-27491.74635775746
 20
28277.86703152174
 30
0.0
 11
-27491.74635775746
 21
28302.86703152174
 31
0.0
  0
LINE
  5
1CB
330
1C6
100
AcDbEntity
  8
标注
 62
     2
440
 16777216
100
AcDbLine
 10
-27491.74635775746
 20
28037.86703152174
 30
0.0
 11
-27491.74635775746
 21
28012.86703152174
 31
0.0
  0
SOLID
  5
1CC
330
1C6
100
AcDbEntity
  8
标注
 62
     2
440
 16777216
370
   100
100
AcDbTrace
 10
-27495.91302442413
 20
28277.86703152174
 30
0.0
 11
-27487.57969109079
 21
28277.86703152174
 31
0.0
 12
-27491.74635775746
 22
28252.86703152174
 32
0.0
 13
-27491.74635775746
 23
28252.86703152174
 33
0.0
  0
SOLID
  5
1CD
330
1C6
100
AcDbEntity
  8
标注
 62
     2
440
 16777216
370
   100
100
AcDbTrace
 10
-27495.91302442413
 20
28037.86703152174
 30
0.0
 11
-27487.57969109079
 21
28037.86703152174
 31
0.0
 12
-27491.74635775746
 22
28062.86703152174
 32
0.0
 13
-27491.74635775746
 23
28062.86703152174
 33
0.0
  0
MTEXT
  5
1CE
330
1C6
100
AcDbEntity
  8
标注
 62
     2
440
 16777216
370
   100
100
AcDbMText
 10
-27491.74635775747
 20
28157.86703152173
 30
0.0
 40
25.0
 41
0.0
 46
0.0
 71
     5
 72
     1
  1
\A1;190.00 [7.48]
 11
0.0000000000000001
 21
1.0
 31
0.0
 73
     1
 44
1.0
  0
POINT
  5
1CF
330
1C6
100
AcDbEntity
  8
Defpoints
 62
     0
440
 16777216
370
   100
100
AcDbPoint
 10
-27542.08590441362
 20
28252.86703152174
 30
0.0
  0
POINT
  5
1D0
330
1C6
100
AcDbEntity
  8
Defpoints
 62
     0
440
 16777216
370
   100
100
AcDbPoint
 10
-27682.08590441362
 20
28062.86703152174
 30
0.0
  0
POINT
  5
1D1
330
1C6
100
AcDbEntity
  8
Defpoints
 62
     0
440
 16777216
370
   100
100
AcDbPoint
 10
-27491.74635775746
 20
28062.86703152174
 30
0.0
  0
ENDBLK
  5
1D2
330
1C6
100
AcDbEntity
  8
0
 62
     0
370
   100
100
AcDbBlockEnd
  0
BLOCK
  5
1D7
330
1D6
100
AcDbEntity
  8
0
 62
     0
370
   100
100
AcDbBlockBegin
  2
*D22
 70
     1
 10
0.0
 20
0.0
 30
0.0
  3
*D22
  1

  0
LINE
  5
1D8
330
1D6
100
AcDbEntity
  8
标注
 62
     2
440
 16777216
100
AcDbLine
 10
-27920.08590441362
 20
28252.86703152174
 30
0.0
 11
-27973.6418650468
 21
28252.86703152174
 31
0.0
  0
LINE
  5
1D9
330
1D6
100
AcDbEntity
  8
标注
 62
     2
440
 16777216
100
AcDbLine
 10
-27920.66729976246
 20
28227.86703152174
 30
0.0
 11
-27973.6418650468
 21
28227.86703152174
 31
0.0
  0
LINE
  5
1DA
330
1D6
100
AcDbEntity
  8
标注
 62
     2
440
 16777216
100
AcDbLine
 10
-27973.46186504681
 20
28277.86703152174
 30
0.0
 11
-27973.46186504681
 21
28302.86703152174
 31
0.0
  0
LINE
  5
1DB
330
1D6
100
AcDbEntity
  8
标注
 62
     2
440
 16777216
100
AcDbLine
 10
-27973.46186504681
 20
28202.86703152174
 30
0.0
 11
-27973.46186504681
 21
28177.86703152174
 31
0.0
  0
SOLID
  5
1DC
330
1D6
100
AcDbEntity
  8
标注
 62
     2
440
 16777216
370
   100
100
AcDbTrace
 10
-27977.62853171347
 20
28277.86703152174
 30
0.0
 11
-27969.29519838013
 21
28277.86703152174
 31
0.0
 12
-27973.46186504681
 22
28252.86703152174
 32
0.0
 13
-27973.46186504681
 23
28252.86703152174
 33
0.0
  0
SOLID
  5
1DD
330
1D6
100
AcDbEntity
  8
标注
 62
     2
440
 16777216
370
   100
100
AcDbTrace
 10
-27977.62853171347
 20
28202.86703152174
 30
0.0
 11
-27969.29519838013
 21
28202.86703152174
 31
0.0
 12
-27973.46186504681
 22
28227.86703152174
 32
0.0
 13
-27973.46186504681
 23
28227.86703152174
 33
0.0
  0
MTEXT
  5
1DE
330
1D6
100
AcDbEntity
  8
标注
 62
     2
440
 16777216
370
   100
100
AcDbMText
 10
-27973.46186504681
 20
28107.57665661185
 30
0.0
 40
25.0
 41
0.0
 46
0.0
 71
     5
 72
     1
  1
\A1;25.00 [0.98]
 11
0.0000000000000001
 21
1.0
 31
0.0
 73
     1
 44
1.0
  0
POINT
  5
1DF
330
1D6
100
AcDbEntity
  8
Defpoints
 62
     0
440
 16777216
370
   100
100
AcDbPoint
 10
-27918.08590441362
 20
28252.86703152174
 30
0.0
  0
POINT
  5
1E0
330
1D6
100
AcDbEntity
  8
Defpoints
 62
     0
440
 16777216
370
   100
100
AcDbPoint
 10
-27918.66729976246
 20
28227.86703152174
 30
0.0
  0
POINT
  5
1E1
330
1D6
100
AcDbEntity
  8
Defpoints
 62
     0
440
 16777216
370
   100
100
AcDbPoint
 10
-27973.46186504681
 20
28227.86703152174
 30
0.0
  0
ENDBLK
  5
1E2
330
1D6
100
AcDbEntity
  8
0
 62
     0
370
   100
100
AcDbBlockEnd
  0
ENDSEC
  0
SECTION
  2
ENTITIES
  0
LWPOLYLINE
  5
6B
102
{ACAD_REACTORS
330
169
330
197
102
}
330
2
100
AcDbEntity
  8
0
100
AcDbPolyline
 90
        8
 70
     1
 43
0.0
 10
-27863.08590441362
 20
29006.76483424896
 10
-27595.08590441362
 20
29006.76483424896
 42
-0.4142135623730951
 10
-27570.08590441362
 20
28981.76483424896
 10
-27570.08590441362
 20
28653.76483424896
 42
-0.4142135623730951
 10
-27595.08590441362
 20
28628.76483424896
 10
-27863.08590441362
 20
28628.76483424896
 42
-0.4142135623730951
 10
-27888.08590441362
 20
28653.76483424896
 10
-27888.08590441362
 20
28981.76483424896
 42
-0.4142135623730951
  0
LWPOLYLINE
  5
6C
102
{ACAD_REACTORS
330
159
102
}
330
2
100
AcDbEntity
  8
0
100
AcDbPolyline
 90
        6
 70
     0
 43
0.0
 10
-27918.08590441362
 20
28989.5253562448
 10
-27918.08590441362
 20
28653.76483424896
 42
-0.4142135623730951
 10
-27943.08590441362
 20
28628.76483424896
 10
-28299.08590441363
 20
28628.76483424896
 42
-0.4142135623730951
 10
-28324.08590441362
 20
28653.76483424896
 10
-28324.08590441362
 20
28989.5253562448
  0
ARC
  5
6D
330
2
100
AcDbEntity
  8
0
100
AcDbCircle
 10
-28121.08590441362
 20
28766.53483424896
 30
0.0
 40
312.23
100
AcDbArc
 50
52.19505601089005
 51
127.8049439891099
  0
ARC
  5
6E
330
2
100
AcDbEntity
  8
0
100
AcDbCircle
 10
-27948.08590441359
 20
28989.5253562448
 30
0.0
 40
30.0
100
AcDbArc
 50
0.0
 51
52.19505601089005
  0
ARC
  5
6F
330
2
100
AcDbEntity
  8
0
100
AcDbCircle
 10
-28294.08590441366
 20
28989.5253562448
 30
0.0
 40
30.0
100
AcDbArc
 50
127.8049439891099
 51
180.0
  0
ARC
  5
70
330
2
100
AcDbEntity
  8
0
100
AcDbCircle
 10
-28294.08590441366
 20
28989.5253562448
 30
0.0
 40
58.0
100
AcDbArc
 50
127.8049439891099
 51
180.0
  0
ARC
  5
71
330
2
100
AcDbEntity
  8
0
100
AcDbCircle
 10
-28121.08590441362
 20
28766.53483424896
 30
0.0
 40
340.23
100
AcDbArc
 50
53.66111307889053
 51
127.8049439891099
  0
ARC
  5
72
330
2
100
AcDbEntity
  8
0
100
AcDbCircle
 10
-27901.70240457828
 20
29064.76483424897
 30
0.0
 40
30.0
100
AcDbArc
 50
233.6611130788905
 51
270.0
  0
LWPOLYLINE
  5
73
102
{ACAD_REACTORS
330
149
330
179
102
}
330
2
100
AcDbEntity
  8
0
100
AcDbPolyline
 90
        8
 70
     0
 43
0.0
 10
-28352.08590441363
 20
28989.5253562448
 10
-28352.08590441363
 20
28630.76483424896
 10
-28322.08590441362
 20
28600.76483424896
 10
-27572.08590441362
 20
28600.76483424896
 10
-27542.08590441362
 20
28630.76483424896
 10
-27542.08590441362
 20
29004.76483424896
 10
-27572.08590441362
 20
29034.76483424896
 10
-27901.70240457828
 20
29034.76483424896
  0
CIRCLE
  5
74
330
2
100
AcDbEntity
  8
0
100
AcDbCircle
 10
-28121.08590441362
 20
28903.76483424896
 30
0.0
 40
55.0
  0
CIRCLE
  5
75
330
2
100
AcDbEntity
  8
0
100
AcDbCircle
 10
-28121.08590441362
 20
28903.76483424896
 30
0.0
 40
45.0
  0
CIRCLE
  5
76
330
2
100
AcDbEntity
  8
0
100
AcDbCircle
 10
-27729.08590441363
 20
28867.76483424896
 30
0.0
 40
55.0
  0
CIRCLE
  5
77
330
2
100
AcDbEntity
  8
0
100
AcDbCircle
 10
-27729.08590441363
 20
28867.76483424896
 30
0.0
 40
45.0
  0
LINE
  5
78
330
2
100
AcDbEntity
  8
0
100
AcDbLine
 10
-27948.08590441359
 20
28989.5253562448
 30
0.0
 11
-28071.8084441043
 21
28928.19293088917
 31
0.0
  0
LINE
  5
79
330
2
100
AcDbEntity
  8
0
100
AcDbLine
 10
-28170.36336472294
 20
28928.19293088917
 30
0.0
 11
-28294.08590441366
 21
28989.5253562448
 31
0.0
  0
LINE
  5
7A
330
2
100
AcDbEntity
  8
0
100
AcDbLine
 10
-28299.08590441363
 20
28653.76483424896
 30
0.0
 11
-28152.98615732914
 21
28858.96110824402
 31
0.0
  0
LINE
  5
7B
330
2
100
AcDbEntity
  8
0
100
AcDbLine
 10
-28089.18565149811
 20
28858.96110824402
 30
0.0
 11
-27943.08590441362
 21
28653.76483424896
 31
0.0
  0
LINE
  5
7C
330
2
100
AcDbEntity
  8
0
100
AcDbLine
 10
-27595.08590441362
 20
28981.76483424896
 30
0.0
 11
-27687.1946727443
 21
28903.40364328108
 31
0.0
  0
LINE
  5
7D
330
2
100
AcDbEntity
  8
0
100
AcDbLine
 10
-27770.97713608295
 20
28903.40364328108
 30
0.0
 11
-27863.08590441362
 21
28981.76483424896
 31
0.0
  0
LINE
  5
7E
330
2
100
AcDbEntity
  8
0
100
AcDbLine
 10
-27863.08590441362
 20
28653.76483424896
 30
0.0
 11
-27758.27499611606
 21
28821.14941914209
 31
0.0
  0
LINE
  5
7F
330
2
100
AcDbEntity
  8
0
100
AcDbLine
 10
-27699.89681271118
 20
28821.14941914209
 30
0.0
 11
-27595.08590441362
 21
28653.76483424896
 31
0.0
  0
LINE
  5
80
102
{ACAD_REACTORS
330
1B5
330
1C5
102
}
330
2
100
AcDbEntity
  8
0
100
AcDbLine
 10
-28352.08590441363
 20
28252.86703152174
 30
0.0
 11
-27542.08590441362
 21
28252.86703152174
 31
0.0
  0
LWPOLYLINE
  5
81
330
2
100
AcDbEntity
  8
0
100
AcDbPolyline
 90
        4
 70
     1
 43
0.0
 10
-27784.08590441362
 20
28067.86703152174
 10
-27674.08590441363
 20
28067.86703152174
 10
-27684.08590441362
 20
28062.86703152174
 10
-27774.08590441362
 20
28062.86703152174
  0
LWPOLYLINE
  5
82
102
{ACAD_REACTORS
330
1B5
102
}
330
2
100
AcDbEntity
  8
0
100
AcDbPolyline
 90
        4
 70
     1
 43
0.0
 10
-28176.08590441362
 20
28027.86703152174
 10
-28066.08590441362
 20
28027.86703152174
 10
-28076.08590441363
 20
28022.86703152174
 10
-28166.08590441362
 20
28022.86703152174
  0
LWPOLYLINE
  5
83
330
2
100
AcDbEntity
  8
0
100
AcDbPolyline
 90
        8
 70
     0
 43
0.0
 10
-28324.08590441362
 20
28252.86703152174
 10
-28319.61541754493
 20
28060.63609616821
 42
0.3872099407035525
 10
-28296.36616791448
 20
28036.27823875957
 10
-28176.08590441362
 20
28027.86703152174
 10
-28066.08590441362
 20
28027.86703152174
 10
-27945.80564091277
 20
28036.27823875957
 42
0.387209940703552
 10
-27922.55639128231
 20
28060.63609616821
 10
-27918.66729976246
 20
28227.86703152174
  0
LWPOLYLINE
  5
84
330
2
100
AcDbEntity
  8
0
100
AcDbPolyline
 90
        8
 70
     0
 43
0.0
 10
-27887.37161869934
 20
28227.86703152174
 10
-27883.71311447362
 20
28099.8193836218
 42
0.3768493186989092
 10
-27861.23577996115
 20
28075.65994824371
 10
-27784.08590441362
 20
28067.86703152174
 10
-27674.08590441363
 20
28067.86703152174
 10
-27596.93602886609
 20
28075.65994824371
 42
0.3768493186989099
 10
-27574.45869435362
 20
28099.8193836218
 10
-27570.08590441362
 20
28252.86703152174
  0
LINE
  5
85
102
{ACAD_REACTORS
330
1D5
102
}
330
2
100
AcDbEntity
  8
虚线
 48
50.0
100
AcDbLine
 10
-27918.66729976246
 20
28227.86703152174
 30
0.0
 11
-27918.08590441362
 21
28252.86703152174
 31
0.0
  0
LINE
  5
8A
330
2
100
AcDbEntity
  8
虚线
 48
50.0
100
AcDbLine
 10
-27887.37161869934
 20
28227.86703152174
 30
0.0
 11
-27888.08590441362
 21
28252.86703152174
 31
0.0
  0
LINE
  5
8B
102
{ACAD_REACTORS
330
1D5
102
}
330
2
100
AcDbEntity
  8
0
 48
50.0
100
AcDbLine
 10
-27918.66729976246
 20
28227.86703152174
 30
0.0
 11
-27887.37161869934
 21
28227.86703152174
 31
0.0
  0
LWPOLYLINE
  5
8C
102
{ACAD_REACTORS
330
AB
330
D2
330
DE
102
}
330
2
100
AcDbEntity
  8
0
100
AcDbPolyline
 90
        5
 70
     0
 43
0.0
 10
-29027.2149583064
 20
29006.76483424896
 10
-28893.21495830639
 20
29006.76483424896
 42
-0.4142135623730951
 10
-28868.21495830639
 20
28981.76483424896
 10
-28868.21495830639
 20
28653.76483424896
 42
-0.4142135623730951
 10
-28893.21495830639
 20
28628.76483424896
  0
LWPOLYLINE
  5
8D
102
{ACAD_REACTORS
330
9A
330
C7
330
DE
102
}
330
2
100
AcDbEntity
  8
0
100
AcDbPolyline
 90
        4
 70
     0
 43
0.0
 10
-28893.21495830639
 20
28628.76483424896
 10
-29597.2149583064
 20
28628.76483424896
 42
-0.4142135623730951
 10
-29622.2149583064
 20
28653.76483424896
 10
-29622.2149583064
 20
28989.5253562448
  0
ARC
  5
8E
102
{ACAD_REACTORS
330
BB
102
}
330
2
100
AcDbEntity
  8
0
100
AcDbCircle
 10
-29419.21495830639
 20
28766.53483424896
 30
0.0
 40
312.23
100
AcDbArc
 50
52.14956316696662
 51
127.8049439891099
  0
ARC
  5
8F
330
2
100
AcDbEntity
  8
0
100
AcDbCircle
 10
-29209.22181556119
 20
29036.76483424897
 30
0.0
 40
30.0
100
AcDbArc
 50
232.1495631669666
 51
270.0
  0
ARC
  5
90
330
2
100
AcDbEntity
  8
0
100
AcDbCircle
 10
-29592.21495830643
 20
28989.5253562448
 30
0.0
 40
30.0
100
AcDbArc
 50
127.8049439891099
 51
180.0
  0
LINE
  5
91
330
2
100
AcDbEntity
  8
0
 48
50.0
100
AcDbLine
 10
-29027.2149583064
 20
29006.76483424896
 30
0.0
 11
-29209.22181556119
 21
29006.76483424896
 31
0.0
  0
LWPOLYLINE
  5
92
102
{ACAD_REACTORS
330
10C
330
11C
102
}
330
2
100
AcDbEntity
  8
0
100
AcDbPolyline
 90
        5
 70
     0
 43
0.0
 10
-29024.75730823061
 20
28312.66542480478
 10
-28890.75730823061
 20
28312.66542480478
 42
-0.4142135623730951
 10
-28862.75730823061
 20
28284.66542480478
 10
-28862.75730823061
 20
27956.66542480478
 42
-0.4142135623730951
 10
-28890.75730823061
 20
27928.66542480478
 42
-0.4142135623730951
  0
LWPOLYLINE
  5
93
102
{ACAD_REACTORS
330
EE
102
}
330
2
100
AcDbEntity
  8
0
100
AcDbPolyline
 90
        4
 70
     0
 43
0.0
 10
-28890.75730823061
 20
27928.66542480478
 10
-29594.75730823061
 20
27928.66542480478
 42
-0.4142135623730951
 10
-29622.75730823061
 20
27956.66542480478
 10
-29622.75730823061
 20
28292.42594680061
  0
ARC
  5
94
102
{ACAD_REACTORS
330
127
102
}
330
2
100
AcDbEntity
  8
0
100
AcDbCircle
 10
-29416.75730823061
 20
28069.43542480477
 30
0.0
 40
315.23
100
AcDbArc
 50
52.14956316696662
 51
127.8049439891099
  0
ARC
  5
95
102
{ACAD_REACTORS
330
13E
102
}
330
2
100
AcDbEntity
  8
0
100
AcDbCircle
 10
-29206.76416548541
 20
28339.66542480478
 30
0.0
 40
27.0
100
AcDbArc
 50
232.1495631669666
 51
270.0
  0
ARC
  5
96
102
{ACAD_REACTORS
330
132
102
}
330
2
100
AcDbEntity
  8
0
100
AcDbCircle
 10
-29589.75730823064
 20
28292.42594680061
 30
0.0
 40
33.0
100
AcDbArc
 50
127.8049439891099
 51
180.0
  0
LINE
  5
97
330
2
100
AcDbEntity
  8
0
 48
50.0
100
AcDbLine
 10
-29024.75730823061
 20
28312.66542480478
 30
0.0
 11
-29206.76416548541
 21
28312.66542480478
 31
0.0
  0
DIMENSION
  5
98
102
{ACAD_XDICTIONARY
360
99
102
}
102
{ACAD_REACTORS
330
9A
102
}
330
2
100
AcDbEntity
  8
标注
 62
     0
370
   100
100
AcDbDimension
280
     0
  2
*D0
 10
-29711.26796197538
 20
28628.76483424896
 30
0.0
 11
-29711.26796197539
 21
28853.7648219464
 31
0.0
 71
     5
 42
449.9999753948795
 73
     0
 74
     0
 75
     0
  3
Standard
100
AcDbAlignedDimension
 13
-29421.09100301358
 23
29078.76480964384
 33
0.0
 14
-29597.2149583064
 24
28628.76483424896
 34
0.0
 50
90.0
100
AcDbRotatedDimension
  0
DIMENSION
  5
A9
102
{ACAD_XDICTIONARY
360
AA
102
}
102
{ACAD_REACTORS
330
AB
102
}
330
2
100
AcDbEntity
  8
标注
 62
     0
370
   100
100
AcDbDimension
280
     0
  2
*D1
 10
-28797.52094387496
 20
28628.76483424896
 30
0.0
 11
-28797.52094387497
 21
28817.76483424896
 31
0.0
 71
     5
 42
378.0
 73
     0
 74
     0
 75
     0
  3
Standard
100
AcDbAlignedDimension
 13
-28893.21495830639
 23
29006.76483424896
 33
0.0
 14
-28891.21495830639
 24
28628.76483424896
 34
0.0
 50
90.0
100
AcDbRotatedDimension
  0
DIMENSION
  5
B9
102
{ACAD_XDICTIONARY
360
BA
102
}
102
{ACAD_REACTORS
330
BB
102
}
330
2
100
AcDbEntity
  8
标注
 62
     0
370
   100
100
AcDbDimension
280
     0
  2
*D2
 10
-29419.21495830638
 20
28766.534834249
 30
0.0
 11
-29393.96534174542
 21
28922.78288027761
 31
0.0
 70
   132
 71
     5
 42
312.2299999999595
 73
     0
 74
     0
 75
     0
  3
Standard
100
AcDbRadialDimension
 15
-29369.40491422928
 25
29074.76613118202
 35
0.0
 40
0.0
1001
ACAD
1000
DSTYLE
1002
{
1070
   288
1070
     1
1002
}
1001
ACAD_DSTYLE_DIMRADIAL_EXTENSION
1070
   387
1070
     1
1070
   388
1040
0.9101815807403289
1070
   390
1040
2.230617072936904
  0
DIMENSION
  5
C5
102
{ACAD_XDICTIONARY
360
C6
102
}
102
{ACAD_REACTORS
330
C7
102
}
330
2
100
AcDbEntity
  8
标注
 62
     0
370
   100
100
AcDbDimension
280
     0
  2
*D3
 10
-29597.21495830637
 20
28653.76483424893
 30
0.0
 11
-29516.95001794717
 21
28735.50323542943
 31
0.0
 70
   132
 71
     5
 42
24.99999999998909
 73
     0
 74
     0
 75
     0
  3
Standard
100
AcDbRadialDimension
 15
-29614.73112053526
 25
28635.92711968762
 35
0.0
 40
0.0
1001
ACAD
1000
DSTYLE
1002
{
1070
   288
1070
     1
1002
}
1001
ACAD_DSTYLE_DIMRADIAL_EXTENSION
1070
   387
1070
     1
1070
   388
1040
3.141592653589793
1070
   390
1040
4.712388980384689
  0
DIMENSION
  5
D0
102
{ACAD_XDICTIONARY
360
D1
102
}
102
{ACAD_REACTORS
330
D2
102
}
330
2
100
AcDbEntity
  8
标注
 62
     0
370
   100
100
AcDbDimension
280
     0
  2
*D4
 10
-28893.21495830639
 20
28653.76483424894
 30
0.0
 11
-29040.06542726953
 21
28728.02388478181
 31
0.0
 70
     4
 71
     5
 42
25.00000000002183
 73
     0
 74
     0
 75
     0
  3
Standard
100
AcDbRadialDimension
 15
-28915.52473852392
 25
28665.04639915131
 35
0.0
 40
0.0
1001
ACAD
1000
DSTYLE
1002
{
1070
   288
1070
     1
1002
}
1001
ACAD_DSTYLE_DIMRADIAL_EXTENSION
1070
   387
1070
     1
1070
   388
1040
4.712388980384689
1070
   390
1040
0.0
  0
DIMENSION
  5
DC
102
{ACAD_XDICTIONARY
360
DD
102
}
102
{ACAD_REACTORS
330
DE
102
}
330
2
100
AcDbEntity
  8
标注
 62
     0
370
   100
100
AcDbDimension
280
     0
  2
*D5
 10
-28868.21495830639
 20
28567.43151432301
 30
0.0
 11
-29245.2149583064
 21
28567.43151432301
 31
0.0
 71
     5
 42
754.0000000000036
 73
     0
 74
     0
 75
     0
  3
Standard
100
AcDbAlignedDimension
 13
-29622.2149583064
 23
28653.76483424896
 33
0.0
 14
-28868.21495830639
 24
28653.76483424896
 34
0.0
100
AcDbRotatedDimension
  0
DIMENSION
  5
EC
102
{ACAD_XDICTIONARY
360
ED
102
}
102
{ACAD_REACTORS
330
EE
102
}
330
2
100
AcDbEntity
  8
标注
 62
     0
370
   100
100
AcDbDimension
280
     0
  2
*D6
 10
-28862.75730823061
 20
27830.58317418753
 30
0.0
 11
-29242.75730823061
 21
27830.58317418753
 31
0.0
 71
     5
 42
760.0
 73
     0
 74
     0
 75
     0
  3
Standard
100
AcDbAlignedDimension
 13
-29622.75730823061
 23
27956.66542480478
 33
0.0
 14
-28862.75730823061
 24
27954.66542480478
 34
0.0
100
AcDbRotatedDimension
  0
DIMENSION
  5
FC
330
2
100
AcDbEntity
  8
标注
 62
     0
370
   100
100
AcDbDimension
280
     0
  2
*D7
 10
-29725.99143898764
 20
27928.73682301209
 30
0.0
 11
-29725.99143898764
 21
28156.70111148767
 31
0.0
 71
     5
 42
455.9285769511443
 73
     0
 74
     0
 75
     0
  3
Standard
100
AcDbAlignedDimension
 13
-29418.63216193768
 23
28384.66539996324
 33
0.0
 14
-29592.75900847711
 24
27928.73682301209
 34
0.0
 50
90.0
100
AcDbRotatedDimension
  0
DIMENSION
  5
10A
102
{ACAD_XDICTIONARY
360
10B
102
}
102
{ACAD_REACTORS
330
10C
102
}
330
2
100
AcDbEntity
  8
标注
 62
     0
370
   100
100
AcDbDimension
280
     0
  2
*D8
 10
-28791.63772406661
 20
27928.66542480478
 30
0.0
 11
-28791.63772406661
 21
28120.66542480477
 31
0.0
 71
     5
 42
384.0
 73
     0
 74
     0
 75
     0
  3
Standard
100
AcDbAlignedDimension
 13
-28890.75730823061
 23
28312.66542480478
 33
0.0
 14
-28888.75730823061
 24
27928.66542480478
 34
0.0
 50
90.0
100
AcDbRotatedDimension
  0
DIMENSION
  5
11A
102
{ACAD_XDICTIONARY
360
11B
102
}
102
{ACAD_REACTORS
330
11C
102
}
330
2
100
AcDbEntity
  8
标注
 62
     0
370
   100
100
AcDbDimension
280
     0
  2
*D9
 10
-28890.75730823064
 20
27956.66542480476
 30
0.0
 11
-28973.41592699123
 21
28031.58424237724
 31
0.0
 70
   132
 71
     5
 42
28.00000000000728
 73
     0
 74
     0
 75
     0
  3
Standard
100
AcDbRadialDimension
 15
-28870.01085312494
 25
27937.86157943878
 35
0.0
 40
0.0
1001
ACAD
1000
DSTYLE
1002
{
1070
   288
1070
     1
1002
}
1001
ACAD_DSTYLE_DIMRADIAL_EXTENSION
1070
   387
1070
     1
1070
   388
1040
4.712388980384689
1070
   390
1040
0.0
  0
DIMENSION
  5
125
102
{ACAD_XDICTIONARY
360
126
102
}
102
{ACAD_REACTORS
330
127
102
}
330
2
100
AcDbEntity
  8
标注
 62
     0
370
   100
100
AcDbDimension
280
     0
  2
*D10
 10
-29416.75730823058
 20
28069.43542480476
 30
0.0
 11
-29412.47009602613
 21
28230.65349204123
 31
0.0
 70
   132
 71
     5
 42
315.2300000000105
 73
     0
 74
     0
 75
     0
  3
Standard
100
AcDbRadialDimension
 15
-29408.37747633061
 25
28384.55402361692
 35
0.0
 40
0.0
1001
ACAD
1000
DSTYLE
1002
{
1070
   288
1070
     1
1002
}
1001
ACAD_DSTYLE_DIMRADIAL_EXTENSION
1070
   387
1070
     1
1070
   388
1040
0.9101815807403289
1070
   390
1040
2.230617072936904
  0
DIMENSION
  5
130
102
{ACAD_XDICTIONARY
360
131
102
}
102
{ACAD_REACTORS
330
132
102
}
330
2
100
AcDbEntity
  8
标注
 62
     0
370
   100
100
AcDbDimension
280
     0
  2
*D11
 10
-29589.75730823063
 20
28292.42594680061
 30
0.0
 11
-29531.67283658714
 21
28203.09013851786
 31
0.0
 70
   132
 71
     5
 42
33.00000000000728
 73
     0
 74
     0
 75
     0
  3
Standard
100
AcDbRadialDimension
 15
-29607.7454497062
 25
28320.09229398009
 35
0.0
 40
0.0
1001
ACAD
1000
DSTYLE
1002
{
1070
   288
1070
     1
1002
}
1001
ACAD_DSTYLE_DIMRADIAL_EXTENSION
1070
   387
1070
     1
1070
   388
1040
2.230617072936904
1070
   390
1040
3.141592653589793
  0
DIMENSION
  5
13C
102
{ACAD_XDICTIONARY
360
13D
102
}
102
{ACAD_REACTORS
330
13E
102
}
330
2
100
AcDbEntity
  8
标注
 62
     0
370
   100
100
AcDbDimension
280
     0
  2
*D12
 10
-29206.7641654854
 20
28339.66542480476
 30
0.0
 11
-29271.0718638843
 21
28186.02226568254
 31
0.0
 70
     4
 71
     5
 42
26.99999999998545
 73
     0
 74
     0
 75
     0
  3
Standard
100
AcDbRadialDimension
 15
-29217.1887844946
 25
28314.75905376215
 35
0.0
 40
0.0
1001
ACAD
1000
DSTYLE
1002
{
1070
   288
1070
     1
1002
}
1001
ACAD_DSTYLE_DIMRADIAL_EXTENSION
1070
   387
1070
     1
1070
   388
1040
4.051774234330121
1070
   390
1040
4.712388980384689
  0
DIMENSION
  5
147
102
{ACAD_XDICTIONARY
360
148
102
}
102
{ACAD_REACTORS
330
149
102
}
330
2
100
AcDbEntity
  8
标注
 62
     0
370
   100
100
AcDbDimension
280
     0
  2
*D13
 10
-28468.19743674198
 20
28600.76483424896
 30
0.0
 11
-28468.19743674198
 21
28853.76483424895
 31
0.0
 71
     5
 42
506.0
 73
     0
 74
     0
 75
     0
  3
Standard
100
AcDbAlignedDimension
 13
-28123.08590441362
 23
29106.76483424897
 33
0.0
 14
-28322.08590441362
 24
28600.76483424896
 34
0.0
 50
90.0
100
AcDbRotatedDimension
  0
DIMENSION
  5
157
102
{ACAD_XDICTIONARY
360
158
102
}
102
{ACAD_REACTORS
330
159
102
}
330
2
100
AcDbEntity
  8
标注
 62
     0
370
   100
100
AcDbDimension
280
     0
  2
*D14
 10
-28423.6720669284
 20
28628.76483424896
 30
0.0
 11
-28423.67206692841
 21
28853.76483424895
 31
0.0
 71
     5
 42
450.0
 73
     0
 74
     0
 75
     0
  3
Standard
100
AcDbAlignedDimension
 13
-28123.08590441362
 23
29078.76483424896
 33
0.0
 14
-28299.08590441363
 24
28628.76483424896
 34
0.0
 50
90.0
100
AcDbRotatedDimension
  0
DIMENSION
  5
167
102
{ACAD_XDICTIONARY
360
168
102
}
102
{ACAD_REACTORS
330
169
102
}
330
2
100
AcDbEntity
  8
标注
 62
     0
370
   100
100
AcDbDimension
280
     0
  2
*D15
 10
-27458.42538220645
 20
28628.76483424896
 30
0.0
 11
-27458.42538220646
 21
28817.76483424896
 31
0.0
 71
     5
 42
378.0
 73
     0
 74
     0
 75
     0
  3
Standard
100
AcDbAlignedDimension
 13
-27593.08590441362
 23
29006.76483424896
 33
0.0
 14
-27595.08590441362
 24
28628.76483424896
 34
0.0
 50
90.0
100
AcDbRotatedDimension
  0
DIMENSION
  5
177
102
{ACAD_XDICTIONARY
360
178
102
}
102
{ACAD_REACTORS
330
179
102
}
330
2
100
AcDbEntity
  8
标注
 62
     0
370
   100
100
AcDbDimension
280
     0
  2
*D16
 10
-27403.31121894283
 20
28602.76483424896
 30
0.0
 11
-27403.31121894284
 21
28818.76483424896
 31
0.0
 71
     5
 42
432.0
 73
     0
 74
     0
 75
     0
  3
Standard
100
AcDbAlignedDimension
 13
-27572.08590441362
 23
29034.76483424896
 33
0.0
 14
-27570.08590441362
 24
28602.76483424896
 34
0.0
 50
90.0
100
AcDbRotatedDimension
  0
DIMENSION
  5
187
330
2
100
AcDbEntity
  8
标注
 62
     0
370
   100
100
AcDbDimension
280
     0
  2
*D17
 10
-27918.08590441362
 20
28549.98284198037
 30
0.0
 11
-28121.08590441362
 21
28549.98284198037
 31
0.0
 71
     5
 42
406.0
 73
     0
 74
     0
 75
     0
  3
Standard
100
AcDbAlignedDimension
 13
-28324.08590441362
 23
28651.76483424896
 33
0.0
 14
-27918.08590441362
 24
28651.76483424896
 34
0.0
100
AcDbRotatedDimension
  0
DIMENSION
  5
195
102
{ACAD_XDICTIONARY
360
196
102
}
102
{ACAD_REACTORS
330
197
102
}
330
2
100
AcDbEntity
  8
标注
 62
     0
370
   100
100
AcDbDimension
280
     0
  2
*D18
 10
-27570.08590441362
 20
28548.73284198037
 30
0.0
 11
-27729.08590441363
 21
28548.73284198037
 31
0.0
 71
     5
 42
318.0
 73
     0
 74
     0
 75
     0
  3
Standard
100
AcDbAlignedDimension
 13
-27888.08590441362
 23
28653.76483424896
 33
0.0
 14
-27570.08590441362
 24
28653.76483424896
 34
0.0
100
AcDbRotatedDimension
  0
DIMENSION
  5
1A5
330
2
100
AcDbEntity
  8
标注
 62
     0
370
   100
100
AcDbDimension
280
     0
  2
*D19
 10
-27542.08590441362
 20
28484.35546663532
 30
0.0
 11
-27947.08590441362
 21
28484.35546663532
 31
0.0
 71
     5
 42
810.0
 73
     0
 74
     0
 75
     0
  3
Standard
100
AcDbAlignedDimension
 13
-28352.08590441363
 23
28628.76483424896
 33
0.0
 14
-27542.08590441362
 24
28628.76483424896
 34
0.0
100
AcDbRotatedDimension
  0
DIMENSION
  5
1B3
102
{ACAD_XDICTIONARY
360
1B4
102
}
102
{ACAD_REACTORS
330
1B5
102
}
330
2
100
AcDbEntity
  8
标注
 62
     0
370
   100
100
AcDbDimension
280
     0
  2
*D20
 10
-28413.92690157533
 20
28022.86703152174
 30
0.0
 11
-28413.92690157534
 21
28137.86703152173
 31
0.0
 71
     5
 42
230.0
 73
     0
 74
     0
 75
     0
  3
Standard
100
AcDbAlignedDimension
 13
-28352.08590441363
 23
28252.86703152174
 33
0.0
 14
-28166.08590441362
 24
28022.86703152174
 34
0.0
 50
90.0
100
AcDbRotatedDimension
  0
DIMENSION
  5
1C3
102
{ACAD_XDICTIONARY
360
1C4
102
}
102
{ACAD_REACTORS
330
1C5
102
}
330
2
100
AcDbEntity
  8
标注
 62
     0
370
   100
100
AcDbDimension
280
     0
  2
*D21
 10
-27491.74635775746
 20
28062.86703152174
 30
0.0
 11
-27491.74635775747
 21
28157.86703152173
 31
0.0
 71
     5
 42
190.0
 73
     0
 74
     0
 75
     0
  3
Standard
100
AcDbAlignedDimension
 13
-27542.08590441362
 23
28252.86703152174
 33
0.0
 14
-27682.08590441362
 24
28062.86703152174
 34
0.0
 50
90.0
100
AcDbRotatedDimension
  0
DIMENSION
  5
1D3
102
{ACAD_XDICTIONARY
360
1D4
102
}
102
{ACAD_REACTORS
330
1D5
102
}
330
2
100
AcDbEntity
  8
标注
 62
     0
370
   100
100
AcDbDimension
280
     0
  2
*D22
 10
-27973.46186504681
 20
28227.86703152174
 30
0.0
 11
-27973.46186504681
 21
28107.57665661185
 31
0.0
 71
     5
 42
25.0
 73
     0
 74
     0
 75
     0
  3
Standard
100
AcDbAlignedDimension
 13
-27918.08590441362
 23
28252.86703152174
 33
0.0
 14
-27918.66729976246
 24
28227.86703152174
 34
0.0
 50
90.0
100
AcDbRotatedDimension
  0
HATCH
  5
1E3
330
2
100
AcDbEntity
  8
0
 48
80.0
100
AcDbHatch
 10
0.0
 20
0.0
 30
0.0
210
0.0
220
0.0
230
1.0
  2
SOLID
 70
     1
 71
     0
 91
        1
 92
        7
 72
     1
 73
     1
 93
       10
 10
-30161.59572531056
 20
28862.12509542014
 42
0.0
 10
-30161.59572531056
 20
28847.12509542014
 42
0.0
 10
-30099.09572531056
 20
28847.12509542014
 42
0.0
 10
-30099.09572531056
 20
28822.12509542014
 42
0.4142135623731276
 10
-30064.09572531056
 20
28787.12509542014
 42
0.0
 10
-30009.09572531056
 20
28787.12509542014
 42
0.0
 10
-30009.09572531056
 20
28802.12509542014
 42
0.0
 10
-30064.09572531056
 20
28802.12509542014
 42
-0.4142135623730984
 10
-30084.09572531056
 20
28822.12509542014
 42
0.0
 10
-30084.09572531056
 20
28862.12509542014
 42
0.0
 97
        0
 75
     0
 76
     1
 47
0.4110268789155317
 98
        1
 10
-30102.81930302995
 20
28859.79496687109
450
        0
451
        0
460
0.0
461
0.0
452
        1
462
1.0
453
        2
463
0.0
 63
     5
421
      255
463
1.0
 63
     7
421
 16777215
470
LINEAR
1001
ACAD
1010
0.0
1020
0.0
1030
0.0
  0
LWPOLYLINE
  5
1E4
330
2
100
AcDbEntity
  8
0
 48
80.0
100
AcDbPolyline
 90
        4
 70
     1
 43
0.0
 10
-30189.09572531056
 20
28939.62509542014
 10
-30009.09572531056
 20
28939.62509542014
 10
-30009.09572531056
 20
28759.62509542014
 10
-30189.09572531056
 20
28759.62509542014
  0
HATCH
  5
1E5
330
2
100
AcDbEntity
  8
填充层
 48
80.0
100
AcDbHatch
 10
0.0
 20
0.0
 30
0.0
210
0.0
220
0.0
230
1.0
  2
ANSI31
 70
     0
 71
     0
 91
        1
 92
        7
 72
     0
 73
     1
 93
        4
 10
-30189.09572531056
 20
28939.62509542014
 10
-30189.09572531056
 20
28862.12509542014
 10
-30084.09572531056
 20
28862.12509542015
 10
-30084.09572531056
 20
28939.62509542014
 97
        0
 75
     0
 76
     1
 52
0.0
 41
4.0
 77
     0
 78
     1
 53
45.0
 43
-44163.94583737789
 44
23592.40465099229
 45
-8.980256121069151
 46
8.980256121069153
 79
     0
 47
0.760094809552713
 98
        1
 10
-30134.60400504119
 20
28918.9307428769
1001
ACAD
1010
0.0
1020
0.0
1030
0.0
  0
LWPOLYLINE
  5
1E9
330
2
100
AcDbEntity
  8
0
 48
80.0
100
AcDbPolyline
 90
        4
 70
     1
 43
0.0
 10
-30084.09572531056
 20
28862.12509542014
 10
-30189.09572531056
 20
28862.12509542014
 10
-30189.09572531056
 20
28939.62509542014
 10
-30084.09572531056
 20
28939.62509542014
  0
LWPOLYLINE
  5
1EA
330
2
100
AcDbEntity
  8
0
 48
80.0
100
AcDbPolyline
 90
        5
 70
     0
 43
0.0
 10
-30009.09572531056
 20
28802.12509542014
 10
-30064.09572531056
 20
28802.12509542014
 42
-0.4142135623731251
 10
-30084.09572531056
 20
28822.12509542014
 10
-30084.09572531056
 20
28862.12509542014
 10
-30161.59572531056
 20
28862.12509542014
  0
LWPOLYLINE
  5
1EB
330
2
100
AcDbEntity
  8
0
 48
80.0
100
AcDbPolyline
 90
        5
 70
     0
 43
0.0
 10
-30009.09572531056
 20
28787.12509542014
 10
-30064.09572531056
 20
28787.12509542014
 42
-0.4142135623731275
 10
-30099.09572531056
 20
28822.12509542014
 10
-30099.09572531056
 20
28847.12509542014
 10
-30161.59572531056
 20
28847.12509542014
  0
LINE
  5
1EC
330
2
100
AcDbEntity
  8
0
 48
80.0
100
AcDbLine
 10
-30161.59572531056
 20
28847.12509542014
 30
0.0
 11
-30161.59572531056
 21
28862.12509542014
 31
0.0
  0
LWPOLYLINE
  5
1ED
330
2
100
AcDbEntity
  8
0
 48
80.0
100
AcDbPolyline
 90
        4
 70
     1
 43
0.0
 10
-30189.09572531056
 20
28359.62509542014
 10
-30009.09572531056
 20
28359.62509542014
 10
-30009.09572531056
 20
28179.62509542014
 10
-30189.09572531056
 20
28179.62509542014
  0
HATCH
  5
1EE
330
2
100
AcDbEntity
  8
填充层
 48
80.0
100
AcDbHatch
 10
0.0
 20
0.0
 30
0.0
210
0.0
220
0.0
230
1.0
  2
ANSI31
 70
     0
 71
     0
 91
        1
 92
        7
 72
     0
 73
     1
 93
        4
 10
-30189.09572531056
 20
28359.62509542014
 10
-30189.09572531056
 20
28282.12509542014
 10
-30084.09572531056
 20
28282.12509542014
 10
-30084.09572531056
 20
28359.62509542014
 97
        0
 75
     0
 76
     1
 52
0.0
 41
4.0
 77
     0
 78
     1
 53
45.0
 43
-44163.94583737789
 44
23012.40465099229
 45
-8.980256121069151
 46
8.980256121069153
 79
     0
 47
0.760094809552713
 98
        1
 10
-30134.60400504119
 20
28338.9307428769
1001
ACAD
1010
0.0
1020
0.0
1030
0.0
  0
LWPOLYLINE
  5
1EF
330
2
100
AcDbEntity
  8
0
 48
80.0
100
AcDbPolyline
 90
        4
 70
     1
 43
0.0
 10
-30084.09572531056
 20
28282.12509542014
 10
-30189.09572531056
 20
28282.12509542014
 10
-30189.09572531056
 20
28359.62509542014
 10
-30084.09572531056
 20
28359.62509542014
  0
LWPOLYLINE
  5
1F0
330
2
100
AcDbEntity
  8
0
 48
80.0
100
AcDbPolyline
 90
        5
 70
     0
 43
0.0
 10
-30009.09572531056
 20
28222.12509542014
 10
-30049.09572531056
 20
28222.12509542014
 42
-0.4142135623731251
 10
-30069.09572531056
 20
28242.12509542014
 10
-30069.09572531056
 20
28282.12509542014
 10
-30146.59572531056
 20
28282.12509542014
  0
LWPOLYLINE
  5
1F1
330
2
100
AcDbEntity
  8
0
 48
80.0
100
AcDbPolyline
 90
        5
 70
     0
 43
0.0
 10
-30009.09572531056
 20
28207.12509542014
 10
-30049.09572531056
 20
28207.12509542014
 42
-0.4142135623731275
 10
-30084.09572531056
 20
28242.12509542014
 10
-30084.09572531056
 20
28267.12509542014
 10
-30146.59572531056
 20
28267.12509542014
  0
LINE
  5
1F2
330
2
100
AcDbEntity
  8
0
 48
80.0
100
AcDbLine
 10
-30146.59572531056
 20
28267.12509542014
 30
0.0
 11
-30146.59572531056
 21
28282.12509542014
 31
0.0
  0
ENDSEC
  0
SECTION
  2
OBJECTS
  0
DICTIONARY
  5
B
330
0
100
AcDbDictionary
281
     1
  3
ACAD_COLOR
350
3C
  3
ACAD_GROUP
350
37
  3
ACAD_LAYOUT
350
11
  3
ACAD_MATERIAL
350
D
  3
ACAD_MLEADERSTYLE
350
3F
  3
ACAD_MLINESTYLE
350
38
  3
ACAD_PLOTSETTINGS
350
39
  3
ACAD_PLOTSTYLENAME
350
A
  3
ACAD_SCALELIST
350
3D
  3
ACAD_TABLESTYLE
350
3E
  3
ACAD_VISUALSTYLE
350
2A
  3
ACDB_RECOMPOSE_DATA
350
200
  3
AcDbVariableDictionary
350
1F5
  0
DICTIONARY
  5
2C
330
27
100
AcDbDictionary
280
     1
281
     1
  0
DICTIONARY
  5
1A
330
19
100
AcDbDictionary
280
     1
281
     1
  3
ACAD_LAYERFILTERS
360
1B
  3
ACAD_LAYERSTATES
360
1C
  3
ACLYDICTIONARY
360
1D
  0
DICTIONARY
  5
7
330
6
100
AcDbDictionary
280
     1
281
     1
  3
ADSK_XREC_LAYER_RECONCILED
360
8
  0
DICTIONARY
  5
41
330
40
100
AcDbDictionary
280
     1
281
     1
  3
ADSK_XREC_LAYER_RECONCILED
360
42
  0
DICTIONARY
  5
87
330
86
100
AcDbDictionary
280
     1
281
     1
  3
ADSK_XREC_LAYER_RECONCILED
360
88
  0
DICTIONARY
  5
1E7
330
1E6
100
AcDbDictionary
280
     1
281
     1
  3
ADSK_XREC_LAYER_RECONCILED
360
1E8
  0
DICTIONARY
  5
3
330
2
100
AcDbDictionary
280
     1
281
     1
  3
ACAD_SORTENTS
360
1F3
  0
DICTIONARY
  5
99
330
98
100
AcDbDictionary
280
     1
281
     1
  3
ACAD_DIMASSOC
360
9A
  0
DICTIONARY
  5
AA
330
A9
100
AcDbDictionary
280
     1
281
     1
  3
ACAD_DIMASSOC
360
AB
  0
DICTIONARY
  5
BA
330
B9
100
AcDbDictionary
280
     1
281
     1
  3
ACAD_DIMASSOC
360
BB
  0
DICTIONARY
  5
C6
330
C5
100
AcDbDictionary
280
     1
281
     1
  3
ACAD_DIMASSOC
360
C7
  0
DICTIONARY
  5
D1
330
D0
100
AcDbDictionary
280
     1
281
     1
  3
ACAD_DIMASSOC
360
D2
  0
DICTIONARY
  5
DD
330
DC
100
AcDbDictionary
280
     1
281
     1
  3
ACAD_DIMASSOC
360
DE
  0
DICTIONARY
  5
ED
330
EC
100
AcDbDictionary
280
     1
281
     1
  3
ACAD_DIMASSOC
360
EE
  0
DICTIONARY
  5
10B
330
10A
100
AcDbDictionary
280
     1
281
     1
  3
ACAD_DIMASSOC
360
10C
  0
DICTIONARY
  5
11B
330
11A
100
AcDbDictionary
280
     1
281
     1
  3
ACAD_DIMASSOC
360
11C
  0
DICTIONARY
  5
126
330
125
100
AcDbDictionary
280
     1
281
     1
  3
ACAD_DIMASSOC
360
127
  0
DICTIONARY
  5
131
330
130
100
AcDbDictionary
280
     1
281
     1
  3
ACAD_DIMASSOC
360
132
  0
DICTIONARY
  5
13D
330
13C
100
AcDbDictionary
280
     1
281
     1
  3
ACAD_DIMASSOC
360
13E
  0
DICTIONARY
  5
148
330
147
100
AcDbDictionary
280
     1
281
     1
  3
ACAD_DIMASSOC
360
149
  0
DICTIONARY
  5
158
330
157
100
AcDbDictionary
280
     1
281
     1
  3
ACAD_DIMASSOC
360
159
  0
DICTIONARY
  5
168
330
167
100
AcDbDictionary
280
     1
281
     1
  3
ACAD_DIMASSOC
360
169
  0
DICTIONARY
  5
178
330
177
100
AcDbDictionary
280
     1
281
     1
  3
ACAD_DIMASSOC
360
179
  0
DICTIONARY
  5
196
330
195
100
AcDbDictionary
280
     1
281
     1
  3
ACAD_DIMASSOC
360
197
  0
DICTIONARY
  5
1B4
330
1B3
100
AcDbDictionary
280
     1
281
     1
  3
ACAD_DIMASSOC
360
1B5
  0
DICTIONARY
  5
1C4
330
1C3
100
AcDbDictionary
280
     1
281
     1
  3
ACAD_DIMASSOC
360
1C5
  0
DICTIONARY
  5
1D4
330
1D3
100
AcDbDictionary
280
     1
281
     1
  3
ACAD_DIMASSOC
360
1D5
  0
DICTIONARY
  5
3C
102
{ACAD_REACTORS
330
B
102
}
330
B
100
AcDbDictionary
281
     1
  0
DICTIONARY
  5
37
102
{ACAD_REACTORS
330
B
102
}
330
B
100
AcDbDictionary
281
     1
  0
DICTIONARY
  5
11
102
{ACAD_REACTORS
330
B
102
}
330
B
100
AcDbDictionary
281
     1
  3
Model
350
10
  3
布局1
350
17
  0
DICTIONARY
  5
D
102
{ACAD_REACTORS
330
B
102
}
330
B
100
AcDbDictionary
281
     1
  3
ByBlock
350
3B
  3
ByLayer
350
3A
  3
Global
350
C
  0
DICTIONARY
  5
3F
102
{ACAD_REACTORS
330
B
102
}
330
B
100
AcDbDictionary
281
     1
  0
DICTIONARY
  5
38
102
{ACAD_REACTORS
330
B
102
}
330
B
100
AcDbDictionary
281
     1
  3
Standard
350
45
  0
DICTIONARY
  5
39
102
{ACAD_REACTORS
330
B
102
}
330
B
100
AcDbDictionary
281
     1
  0
ACDBDICTIONARYWDFLT
  5
A
102
{ACAD_REACTORS
330
B
102
}
330
B
100
AcDbDictionary
281
     1
  3
Normal
350
9
100
AcDbDictionaryWithDefault
340
9
  0
DICTIONARY
  5
3D
102
{ACAD_REACTORS
330
B
102
}
330
B
100
AcDbDictionary
281
     1
  3
A0
350
4A
  3
A1
350
4B
  3
A2
350
4C
  3
A3
350
4D
  3
A4
350
4E
  3
A5
350
4F
  3
A6
350
50
  3
A7
350
51
  3
A8
350
52
  3
A9
350
53
  3
B0
350
54
  3
B1
350
55
  3
B2
350
56
  3
B3
350
57
  3
B4
350
58
  3
B5
350
59
  3
B6
350
5A
  3
B7
350
5B
  3
B8
350
5C
  3
B9
350
5D
  3
C0
350
5E
  3
C1
350
5F
  3
C2
350
60
  3
C3
350
61
  3
C4
350
62
  3
C5
350
63
  3
C6
350
64
  3
C7
350
65
  3
C8
350
66
  3
C9
350
67
  3
D0
350
68
  3
D1
350
69
  3
D2
350
6A
  0
DICTIONARY
  5
3E
102
{ACAD_REACTORS
330
B
102
}
330
B
100
AcDbDictionary
281
     1
  3
Standard
350
46
  0
DICTIONARY
  5
2A
102
{ACAD_REACTORS
330
B
102
}
330
B
100
AcDbDictionary
281
     1
  3
2dWireframe
350
29
  3
3dWireframe
350
49
  3
Realistic
350
48
  0
XRECORD
  5
200
102
{ACAD_REACTORS
330
B
102
}
330
B
100
AcDbXrecord
280
     1
 90
        1
330
46
  0
DICTIONARY
  5
1F5
102
{ACAD_REACTORS
330
B
102
}
330
B
100
AcDbDictionary
281
     1
  3
CANNOSCALE
350
1FB
  3
CMLEADERSTYLE
350
1F7
  3
CTABLESTYLE
350
1F6
  3
CVIEWDETAILSTYLE
350
1F8
  3
CVIEWSECTIONSTYLE
350
1F9
  3
LAYEREVAL
350
1FD
  3
LAYERNOTIFY
350
1FE
  3
LIGHTINGUNITS
350
1FC
  3
MSLTSCALE
350
1FA
  0
DICTIONARY
  5
1B
102
{ACAD_REACTORS
330
1A
102
}
330
1A
100
AcDbDictionary
281
     1
  0
DICTIONARY
  5
1C
102
{ACAD_REACTORS
330
1A
102
}
330
1A
100
AcDbDictionary
281
     1
  0
DICTIONARY
  5
1D
102
{ACAD_REACTORS
330
1A
102
}
330
1A
100
AcDbDictionary
281
     1
1001
ACAD
1000
<All
  0
XRECORD
  5
8
102
{ACAD_REACTORS
330
7
102
}
330
7
100
AcDbXrecord
280
     1
290
     1
  0
XRECORD
  5
42
102
{ACAD_REACTORS
330
41
102
}
330
41
100
AcDbXrecord
280
     1
290
     1
  0
XRECORD
  5
88
102
{ACAD_REACTORS
330
87
102
}
330
87
100
AcDbXrecord
280
     1
290
     1
  0
XRECORD
  5
1E8
102
{ACAD_REACTORS
330
1E7
102
}
330
1E7
100
AcDbXrecord
280
     1
290
     1
  0
SORTENTSTABLE
  5
1F3
102
{ACAD_REACTORS
330
3
102
}
330
3
100
AcDbSortentsTable
330
2
  0
DIMASSOC
  5
9A
102
{ACAD_REACTORS
330
99
102
}
330
99
100
AcDbDimAssoc
330
98
 90
        2
 70
     0
 71
     0
  1
AcDbOsnapPointRef
 72
     1
331
8D
 73
     2
 91
        1
 40
1.0
 10
0.0
 20
0.0
 30
2.000000000000000E+50
 75
     0
  0
DIMASSOC
  5
AB
102
{ACAD_REACTORS
330
AA
102
}
330
AA
100
AcDbDimAssoc
330
A9
 90
        1
 70
     0
 71
     0
  1
AcDbOsnapPointRef
 72
     1
331
8C
 73
     2
 91
        1
 40
1.0
 10
0.0
 20
0.0
 30
2.000000000000000E+50
 75
     0
  0
DIMASSOC
  5
BB
102
{ACAD_REACTORS
330
BA
102
}
330
BA
100
AcDbDimAssoc
330
B9
 90
        2
 70
     0
 71
     0
  1
AcDbOsnapPointRef
 72
     3
331
8E
 73
     2
 91
        0
 40
0.0
 10
0.0
 20
0.0
 30
0.0
 75
     0
  0
DIMASSOC
  5
C7
102
{ACAD_REACTORS
330
C6
102
}
330
C6
100
AcDbDimAssoc
330
C5
 90
        2
 70
     0
 71
     0
  1
AcDbOsnapPointRef
 72
     3
331
8D
 73
     2
 91
        2
 40
0.0
 10
0.0
 20
0.0
 30
0.0
 75
     0
  0
DIMASSOC
  5
D2
102
{ACAD_REACTORS
330
D1
102
}
330
D1
100
AcDbDimAssoc
330
D0
 90
        2
 70
     0
 71
     0
  1
AcDbOsnapPointRef
 72
     3
331
8C
 73
     2
 91
        4
 40
0.0
 10
0.0
 20
0.0
 30
0.0
 75
     0
  0
DIMASSOC
  5
DE
102
{ACAD_REACTORS
330
DD
102
}
330
DD
100
AcDbDimAssoc
330
DC
 90
        3
 70
     0
 71
     0
  1
AcDbOsnapPointRef
 72
     6
331
8D
 73
     2
 91
        3
 40
0.0
 10
0.0
 20
0.0
 30
0.0
332
8D
 74
     2
 92
        2
 75
     0
  1
AcDbOsnapPointRef
 72
     1
331
8C
 73
     2
 91
        3
 40
1.0
 10
0.0
 20
0.0
 30
2.000000000000000E+50
 75
     0
  0
DIMASSOC
  5
EE
102
{ACAD_REACTORS
330
ED
102
}
330
ED
100
AcDbDimAssoc
330
EC
 90
        1
 70
     0
 71
     0
  1
AcDbOsnapPointRef
 72
     1
331
93
 73
     2
 91
        2
 40
3.141592653589793
 10
0.0
 20
0.0
 30
2.000000000000000E+50
 75
     0
  0
DIMASSOC
  5
10C
102
{ACAD_REACTORS
330
10B
102
}
330
10B
100
AcDbDimAssoc
330
10A
 90
        1
 70
     0
 71
     0
  1
AcDbOsnapPointRef
 72
     1
331
92
 73
     2
 91
        1
 40
1.0
 10
0.0
 20
0.0
 30
2.000000000000000E+50
 75
     0
  0
DIMASSOC
  5
11C
102
{ACAD_REACTORS
330
11B
102
}
330
11B
100
AcDbDimAssoc
330
11A
 90
        2
 70
     0
 71
     0
  1
AcDbOsnapPointRef
 72
     3
331
92
 73
     2
 91
        4
 40
0.0
 10
0.0
 20
0.0
 30
0.0
 75
     0
  0
DIMASSOC
  5
127
102
{ACAD_REACTORS
330
126
102
}
330
126
100
AcDbDimAssoc
330
125
 90
        2
 70
     0
 71
     0
  1
AcDbOsnapPointRef
 72
     3
331
94
 73
     2
 91
        0
 40
0.0
 10
0.0
 20
0.0
 30
0.0
 75
     0
  0
DIMASSOC
  5
132
102
{ACAD_REACTORS
330
131
102
}
330
131
100
AcDbDimAssoc
330
130
 90
        2
 70
     0
 71
     0
  1
AcDbOsnapPointRef
 72
     3
331
96
 73
     2
 91
        0
 40
0.0
 10
0.0
 20
0.0
 30
0.0
 75
     0
  0
DIMASSOC
  5
13E
102
{ACAD_REACTORS
330
13D
102
}
330
13D
100
AcDbDimAssoc
330
13C
 90
        2
 70
     0
 71
     0
  1
AcDbOsnapPointRef
 72
     3
331
95
 73
     2
 91
        0
 40
0.0
 10
0.0
 20
0.0
 30
0.0
 75
     0
  0
DIMASSOC
  5
149
102
{ACAD_REACTORS
330
148
102
}
330
148
100
AcDbDimAssoc
330
147
 90
        2
 70
     0
 71
     0
  1
AcDbOsnapPointRef
 72
     1
331
73
 73
     2
 91
        2
 40
1.0
 10
0.0
 20
0.0
 30
2.000000000000000E+50
 75
     0
  0
DIMASSOC
  5
159
102
{ACAD_REACTORS
330
158
102
}
330
158
100
AcDbDimAssoc
330
157
 90
        2
 70
     0
 71
     0
  1
AcDbOsnapPointRef
 72
     1
331
6C
 73
     2
 91
        3
 40
1.0
 10
0.0
 20
0.0
 30
2.000000000000000E+50
 75
     0
  0
DIMASSOC
  5
169
102
{ACAD_REACTORS
330
168
102
}
330
168
100
AcDbDimAssoc
330
167
 90
        2
 70
     0
 71
     0
  1
AcDbOsnapPointRef
 72
     1
331
6B
 73
     2
 91
        4
 40
4.712388980384689
 10
0.0
 20
0.0
 30
2.000000000000000E+50
 75
     0
  0
DIMASSOC
  5
179
102
{ACAD_REACTORS
330
178
102
}
330
178
100
AcDbDimAssoc
330
177
 90
        1
 70
     0
 71
     0
  1
AcDbOsnapPointRef
 72
     1
331
73
 73
     2
 91
        6
 40
1.0
 10
0.0
 20
0.0
 30
2.000000000000000E+50
 75
     0
  0
DIMASSOC
  5
197
102
{ACAD_REACTORS
330
196
102
}
330
196
100
AcDbDimAssoc
330
195
 90
        3
 70
     0
 71
     0
  1
AcDbOsnapPointRef
 72
     1
331
6B
 73
     2
 91
        6
 40
3.141592653589793
 10
0.0
 20
0.0
 30
2.000000000000000E+50
 75
     0
  1
AcDbOsnapPointRef
 72
     1
331
6B
 73
     2
 91
        3
 40
1.0
 10
0.0
 20
0.0
 30
2.000000000000000E+50
 75
     0
  0
DIMASSOC
  5
1B5
102
{ACAD_REACTORS
330
1B4
102
}
330
1B4
100
AcDbDimAssoc
330
1B3
 90
        3
 70
     0
 71
     0
  1
AcDbOsnapPointRef
 72
    13
331
80
 73
     2
 91
        0
 40
0.0
 10
0.0
 20
0.0
 30
2.000000000000000E+50
 75
     0
  1
AcDbOsnapPointRef
 72
     1
331
82
 73
     2
 91
        3
 40
1.0
 10
0.0
 20
0.0
 30
2.000000000000000E+50
 75
     0
  0
DIMASSOC
  5
1C5
102
{ACAD_REACTORS
330
1C4
102
}
330
1C4
100
AcDbDimAssoc
330
1C3
 90
        1
 70
     0
 71
     0
  1
AcDbOsnapPointRef
 72
     1
331
80
 73
     2
 91
        0
 40
1.0
 10
0.0
 20
0.0
 30
2.000000000000000E+50
 75
     0
  0
DIMASSOC
  5
1D5
102
{ACAD_REACTORS
330
1D4
102
}
330
1D4
100
AcDbDimAssoc
330
1D3
 90
        3
 70
     0
 71
     0
  1
AcDbOsnapPointRef
 72
     1
331
85
 73
     2
 91
        0
 40
1.0
 10
0.0
 20
0.0
 30
2.000000000000000E+50
 75
     0
  1
AcDbOsnapPointRef
 72
    13
331
8B
 73
     2
 91
        0
 40
0.0
 10
0.0
 20
0.0
 30
2.000000000000000E+50
 75
     0
  0
LAYOUT
  5
10
102
{ACAD_XDICTIONARY
360
12
102
}
102
{ACAD_REACTORS
330
11
102
}
330
11
100
AcDbPlotSettings
  1

  2
none_device
  4
ISO_A4_(210.00_x_297.00_MM)
  6

 40
7.5
 41
20.0
 42
7.5
 43
20.0
 44
210.0
 45
297.0
 46
11.54999923706054
 47
-13.65000009536743
 48
0.0
 49
0.0
140
0.0
141
0.0
142
1.0
143
8.704084754739808
 70
 11952
 72
     1
 73
     0
 74
     0
  7

 75
     0
147
0.1148885871608098
 76
     0
 77
     2
 78
   300
148
0.0
149
0.0
100
AcDbLayout
  1
Model
 70
     1
 71
     0
 10
0.0
 20
0.0
 11
12.0
 21
9.0
 12
0.0
 22
0.0
 32
0.0
 14
0.0
 24
0.0
 34
0.0
 15
0.0
 25
0.0
 35
0.0
146
0.0
 13
0.0
 23
0.0
 33
0.0
 16
1.0
 26
0.0
 36
0.0
 17
0.0
 27
1.0
 37
0.0
 76
     0
330
2
331
28
1001
ACAD_PSEXT
1000
None
1000
None
1000
Not applicable
1000
The layout will not be plotted unless a new plotter configuration name is selected.
1070
     0
  0
LAYOUT
  5
17
102
{ACAD_XDICTIONARY
360
18
102
}
102
{ACAD_REACTORS
330
11
102
}
330
11
100
AcDbPlotSettings
  1

  2
none_device
  4
ISO_A4_(210.00_x_297.00_MM)
  6

 40
7.5
 41
20.0
 42
7.5
 43
20.0
 44
210.0
 45
297.0
 46
0.0
 47
0.0
 48
0.0
 49
0.0
140
0.0
141
0.0
142
1.0
143
1.0
 70
   688
 72
     1
 73
     1
 74
     5
  7

 75
    16
147
1.0
 76
     0
 77
     2
 78
   300
148
0.0
149
0.0
100
AcDbLayout
  1
布局1
 70
     1
 71
     1
 10
-20.0
 20
-7.5
 11
277.0
 21
202.5
 12
0.0
 22
0.0
 32
0.0
 14
25.69999999999999
 24
19.5
 34
0.0
 15
231.3
 25
175.5
 35
0.0
146
0.0
 13
0.0
 23
0.0
 33
0.0
 16
1.0
 26
0.0
 36
0.0
 17
0.0
 27
1.0
 37
0.0
 76
     0
330
14
1001
ACAD_PSEXT
1000
无
1000
无
1000
不可用
1000
在选择新的绘图仪配置名称之前，不能打印该布局。
1070
     0
  0
MATERIAL
  5
3B
102
{ACAD_REACTORS
330
D
102
}
330
D
100
AcDbMaterial
  1
ByBlock
 73
     1
 78
     1
172
     1
176
     1
270
     1
274
     1
 94
       63
  0
MATERIAL
  5
3A
102
{ACAD_REACTORS
330
D
102
}
330
D
100
AcDbMaterial
  1
ByLayer
 73
     1
 78
     1
172
     1
176
     1
270
     1
274
     1
 94
       63
  0
MATERIAL
  5
C
102
{ACAD_REACTORS
330
D
102
}
330
D
100
AcDbMaterial
  1
Global
 73
     1
 78
     1
172
     1
176
     1
270
     1
274
     1
 94
       63
  0
MLINESTYLE
  5
45
102
{ACAD_REACTORS
330
38
102
}
330
38
100
AcDbMlineStyle
  2
STANDARD
 70
     0
  3

 62
   256
 51
90.0
 52
90.0
 71
     2
 49
0.5
 62
   256
  6
BYLAYER
 49
-0.5
 62
   256
  6
BYLAYER
  0
ACDBPLACEHOLDER
  5
9
102
{ACAD_REACTORS
330
A
102
}
330
A
  0
SCALE
  5
4A
102
{ACAD_REACTORS
330
3D
102
}
330
3D
100
AcDbScale
 70
     0
300
1:1
140
1.0
141
1.0
290
     1
  0
SCALE
  5
4B
102
{ACAD_REACTORS
330
3D
102
}
330
3D
100
AcDbScale
 70
     0
300
1:2
140
1.0
141
2.0
290
     0
  0
SCALE
  5
4C
102
{ACAD_REACTORS
330
3D
102
}
330
3D
100
AcDbScale
 70
     0
300
1:4
140
1.0
141
4.0
290
     0
  0
SCALE
  5
4D
102
{ACAD_REACTORS
330
3D
102
}
330
3D
100
AcDbScale
 70
     0
300
1:5
140
1.0
141
5.0
290
     0
  0
SCALE
  5
4E
102
{ACAD_REACTORS
330
3D
102
}
330
3D
100
AcDbScale
 70
     0
300
1:8
140
1.0
141
8.0
290
     0
  0
SCALE
  5
4F
102
{ACAD_REACTORS
330
3D
102
}
330
3D
100
AcDbScale
 70
     0
300
1:10
140
1.0
141
10.0
290
     0
  0
SCALE
  5
50
102
{ACAD_REACTORS
330
3D
102
}
330
3D
100
AcDbScale
 70
     0
300
1:16
140
1.0
141
16.0
290
     0
  0
SCALE
  5
51
102
{ACAD_REACTORS
330
3D
102
}
330
3D
100
AcDbScale
 70
     0
300
1:20
140
1.0
141
20.0
290
     0
  0
SCALE
  5
52
102
{ACAD_REACTORS
330
3D
102
}
330
3D
100
AcDbScale
 70
     0
300
1:30
140
1.0
141
30.0
290
     0
  0
SCALE
  5
53
102
{ACAD_REACTORS
330
3D
102
}
330
3D
100
AcDbScale
 70
     0
300
1:40
140
1.0
141
40.0
290
     0
  0
SCALE
  5
54
102
{ACAD_REACTORS
330
3D
102
}
330
3D
100
AcDbScale
 70
     0
300
1:50
140
1.0
141
50.0
290
     0
  0
SCALE
  5
55
102
{ACAD_REACTORS
330
3D
102
}
330
3D
100
AcDbScale
 70
     0
300
1:100
140
1.0
141
100.0
290
     0
  0
SCALE
  5
56
102
{ACAD_REACTORS
330
3D
102
}
330
3D
100
AcDbScale
 70
     0
300
2:1
140
2.0
141
1.0
290
     0
  0
SCALE
  5
57
102
{ACAD_REACTORS
330
3D
102
}
330
3D
100
AcDbScale
 70
     0
300
4:1
140
4.0
141
1.0
290
     0
  0
SCALE
  5
58
102
{ACAD_REACTORS
330
3D
102
}
330
3D
100
AcDbScale
 70
     0
300
8:1
140
8.0
141
1.0
290
     0
  0
SCALE
  5
59
102
{ACAD_REACTORS
330
3D
102
}
330
3D
100
AcDbScale
 70
     0
300
10:1
140
10.0
141
1.0
290
     0
  0
SCALE
  5
5A
102
{ACAD_REACTORS
330
3D
102
}
330
3D
100
AcDbScale
 70
     0
300
100:1
140
100.0
141
1.0
290
     0
  0
SCALE
  5
5B
102
{ACAD_REACTORS
330
3D
102
}
330
3D
100
AcDbScale
 70
     0
300
1/128" = 1'-0"
140
0.0078125
141
12.0
290
     0
  0
SCALE
  5
5C
102
{ACAD_REACTORS
330
3D
102
}
330
3D
100
AcDbScale
 70
     0
300
1/64" = 1'-0"
140
0.015625
141
12.0
290
     0
  0
SCALE
  5
5D
102
{ACAD_REACTORS
330
3D
102
}
330
3D
100
AcDbScale
 70
     0
300
1/32" = 1'-0"
140
0.03125
141
12.0
290
     0
  0
SCALE
  5
5E
102
{ACAD_REACTORS
330
3D
102
}
330
3D
100
AcDbScale
 70
     0
300
1/16" = 1'-0"
140
0.0625
141
12.0
290
     0
  0
SCALE
  5
5F
102
{ACAD_REACTORS
330
3D
102
}
330
3D
100
AcDbScale
 70
     0
300
3/32" = 1'-0"
140
0.09375
141
12.0
290
     0
  0
SCALE
  5
60
102
{ACAD_REACTORS
330
3D
102
}
330
3D
100
AcDbScale
 70
     0
300
1/8" = 1'-0"
140
0.125
141
12.0
290
     0
  0
SCALE
  5
61
102
{ACAD_REACTORS
330
3D
102
}
330
3D
100
AcDbScale
 70
     0
300
3/16" = 1'-0"
140
0.1875
141
12.0
290
     0
  0
SCALE
  5
62
102
{ACAD_REACTORS
330
3D
102
}
330
3D
100
AcDbScale
 70
     0
300
1/4" = 1'-0"
140
0.25
141
12.0
290
     0
  0
SCALE
  5
63
102
{ACAD_REACTORS
330
3D
102
}
330
3D
100
AcDbScale
 70
     0
300
3/8" = 1'-0"
140
0.375
141
12.0
290
     0
  0
SCALE
  5
64
102
{ACAD_REACTORS
330
3D
102
}
330
3D
100
AcDbScale
 70
     0
300
1/2" = 1'-0"
140
0.5
141
12.0
290
     0
  0
SCALE
  5
65
102
{ACAD_REACTORS
330
3D
102
}
330
3D
100
AcDbScale
 70
     0
300
3/4" = 1'-0"
140
0.75
141
12.0
290
     0
  0
SCALE
  5
66
102
{ACAD_REACTORS
330
3D
102
}
330
3D
100
AcDbScale
 70
     0
300
1" = 1'-0"
140
1.0
141
12.0
290
     0
  0
SCALE
  5
67
102
{ACAD_REACTORS
330
3D
102
}
330
3D
100
AcDbScale
 70
     0
300
1-1/2" = 1'-0"
140
1.5
141
12.0
290
     0
  0
SCALE
  5
68
102
{ACAD_REACTORS
330
3D
102
}
330
3D
100
AcDbScale
 70
     0
300
3" = 1'-0"
140
3.0
141
12.0
290
     0
  0
SCALE
  5
69
102
{ACAD_REACTORS
330
3D
102
}
330
3D
100
AcDbScale
 70
     0
300
6" = 1'-0"
140
6.0
141
12.0
290
     0
  0
SCALE
  5
6A
102
{ACAD_REACTORS
330
3D
102
}
330
3D
100
AcDbScale
 70
     0
300
1'-0" = 1'-0"
140
12.0
141
12.0
290
     0
  0
TABLESTYLE
  5
46
102
{ACAD_XDICTIONARY
360
47
102
}
102
{ACAD_REACTORS
330
3E
102
}
330
3E
100
AcDbTableStyle
280
     0
  3
Standard
 70
     0
 71
     0
 40
1.5
 41
1.5
280
     0
281
     0
  7
Standard
140
4.5
170
     2
 62
     0
 63
     7
283
     0
 90
      512
 91
        0
  1

274
    -2
284
     1
 64
     0
275
    -2
285
     1
 65
     0
276
    -2
286
     1
 66
     0
277
    -2
287
     1
 67
     0
278
    -2
288
     1
 68
     0
279
    -2
289
     1
 69
     0
  7
Standard
140
6.0
170
     5
 62
     0
 63
     7
283
     0
 90
      512
 91
        0
  1

274
    -2
284
     1
 64
     0
275
    -2
285
     1
 65
     0
276
    -2
286
     1
 66
     0
277
    -2
287
     1
 67
     0
278
    -2
288
     1
 68
     0
279
    -2
289
     1
 69
     0
  7
Standard
140
4.5
170
     5
 62
     0
 63
     7
283
     0
 90
      512
 91
        0
  1

274
    -2
284
     1
 64
     0
275
    -2
285
     1
 65
     0
276
    -2
286
     1
 66
     0
277
    -2
287
     1
 67
     0
278
    -2
288
     1
 68
     0
279
    -2
289
     1
 69
     0
  0
VISUALSTYLE
  5
29
102
{ACAD_REACTORS
330
2A
102
}
330
2A
100
AcDbVisualStyle
  2
2dWireframe
 70
     4
177
     3
291
     0
 70
    58
 90
        0
176
     1
 90
        2
176
     1
 90
        1
176
     1
 90
        0
176
     1
 40
0.6
176
     1
 40
30.0
176
     1
 62
     7
420
 16777215
176
     1
 90
        1
176
     1
 90
        4
176
     1
 62
     7
176
     1
 62
   257
176
     1
 90
        1
176
     1
 90
        1
176
     1
 40
1.0
176
     1
 90
        0
176
     1
 62
   257
176
     1
 40
1.0
176
     1
 90
        1
176
     1
 90
        6
176
     1
 90
        2
176
     1
 62
     7
176
     1
 90
        5
176
     1
 90
        0
176
     1
 90
        0
176
     1
290
     0
176
     1
 90
        1
176
     1
 40
0.0
176
     1
 90
        0
176
     1
290
     1
176
     1
290
     1
176
     1
290
     0
176
     1
290
     0
176
     1
290
     0
176
     1
290
     0
176
     1
290
     0
176
     1
290
     0
176
     1
290
     0
176
     1
 90
       50
176
     1
 40
0.0
176
     1
 40
1.0
176
     1
 90
        0
176
     1
 62
    18
420
        0
176
     1
 90
       50
176
     1
 90
        3
176
     1
 62
     5
420
      255
176
     1
290
     0
176
     1
 90
       50
176
     1
 90
       50
176
     1
 90
       50
176
     1
290
     0
176
     1
 90
       50
176
     1
 62
   256
176
     0
 40
1.0
176
     0
 90
        2
176
     1
  1
strokes_ogs.tif
176
     1
290
     0
176
     1
 40
1.0
176
     1
 40
1.0
176
     1
  0
VISUALSTYLE
  5
49
102
{ACAD_REACTORS
330
2A
102
}
330
2A
100
AcDbVisualStyle
  2
3dWireframe
 70
     5
177
     3
291
     0
 70
    58
 90
        0
176
     1
 90
        2
176
     1
 90
        1
176
     1
 90
        0
176
     1
 40
0.6
176
     1
 40
30.0
176
     1
 62
     7
420
 16777215
176
     1
 90
        1
176
     1
 90
        4
176
     1
 62
     7
176
     1
 62
   257
176
     1
 90
        1
176
     1
 90
        1
176
     1
 40
1.0
176
     1
 90
        0
176
     1
 62
   257
176
     1
 40
1.0
176
     1
 90
        1
176
     1
 90
        6
176
     1
 90
        2
176
     1
 62
     7
176
     1
 90
        5
176
     1
 90
        0
176
     1
 90
        0
176
     1
290
     0
176
     1
 90
        1
176
     1
 40
0.0
176
     1
 90
        0
176
     1
290
     0
176
     1
290
     1
176
     1
290
     1
176
     1
290
     0
176
     1
290
     0
176
     1
290
     0
176
     1
290
     0
176
     1
290
     0
176
     1
290
     0
176
     1
 90
       50
176
     1
 40
0.0
176
     1
 40
1.0
176
     1
 90
        0
176
     1
 62
    18
420
        0
176
     1
 90
       50
176
     1
 90
        3
176
     1
 62
     5
420
      255
176
     1
290
     0
176
     1
 90
       50
176
     1
 90
       50
176
     1
 90
       50
176
     1
290
     0
176
     1
 90
       50
176
     1
 62
   256
176
     0
 40
1.0
176
     0
 90
        2
176
     1
  1
strokes_ogs.tif
176
     1
290
     0
176
     1
 40
1.0
176
     1
 40
1.0
176
     1
  0
VISUALSTYLE
  5
48
102
{ACAD_REACTORS
330
2A
102
}
330
2A
100
AcDbVisualStyle
  2
Realistic
 70
     8
177
     3
291
     0
 70
    58
 90
        2
176
     1
 90
        2
176
     1
 90
        1
176
     1
 90
        0
176
     1
 40
0.6
176
     1
 40
30.0
176
     1
 62
     7
420
 16777215
176
     1
 90
        1
176
     1
 90
        0
176
     1
 62
     7
176
     1
 62
   257
176
     1
 90
        1
176
     1
 90
        1
176
     1
 40
1.0
176
     1
 90
        8
176
     1
 62
     8
420
  7895160
176
     1
 40
1.0
176
     1
 90
        1
176
     1
 90
        6
176
     1
 90
        2
176
     1
 62
     7
176
     1
 90
        5
176
     1
 90
        0
176
     1
 90
        0
176
     1
290
     0
176
     1
 90
       13
176
     1
 40
0.0
176
     1
 90
        0
176
     1
290
     0
176
     1
290
     1
176
     1
290
     1
176
     1
290
     0
176
     1
290
     0
176
     1
290
     0
176
     1
290
     0
176
     1
290
     0
176
     1
290
     0
176
     1
 90
       50
176
     1
 40
0.0
176
     1
 40
1.0
176
     1
 90
        0
176
     1
 62
    18
420
        0
176
     1
 90
       50
176
     1
 90
        3
176
     1
 62
     5
420
      255
176
     1
290
     0
176
     1
 90
       50
176
     1
 90
       50
176
     1
 90
       50
176
     1
290
     0
176
     1
 90
       50
176
     1
 62
   256
176
     0
 40
1.0
176
     0
 90
        2
176
     1
  1
strokes_ogs.tif
176
     1
290
     0
176
     1
 40
1.0
176
     1
 40
1.0
176
     1
  0
DICTIONARYVAR
  5
1FB
102
{ACAD_REACTORS
330
1F5
102
}
330
1F5
100
DictionaryVariables
280
     0
  1
1:1
  0
DICTIONARYVAR
  5
1F7
102
{ACAD_REACTORS
330
1F5
102
}
330
1F5
100
DictionaryVariables
280
     0
  1
STANDARD
  0
DICTIONARYVAR
  5
1F6
102
{ACAD_REACTORS
330
1F5
102
}
330
1F5
100
DictionaryVariables
280
     0
  1
STANDARD
  0
DICTIONARYVAR
  5
1F8
102
{ACAD_REACTORS
330
1F5
102
}
330
1F5
100
DictionaryVariables
280
     0
  1

  0
DICTIONARYVAR
  5
1F9
102
{ACAD_REACTORS
330
1F5
102
}
330
1F5
100
DictionaryVariables
280
     0
  1

  0
DICTIONARYVAR
  5
1FD
102
{ACAD_REACTORS
330
1F5
102
}
330
1F5
100
DictionaryVariables
280
     0
  1
1
  0
DICTIONARYVAR
  5
1FE
102
{ACAD_REACTORS
330
1F5
102
}
330
1F5
100
DictionaryVariables
280
     0
  1
15
  0
DICTIONARYVAR
  5
1FC
102
{ACAD_REACTORS
330
1F5
102
}
330
1F5
100
DictionaryVariables
280
     0
  1
0
  0
DICTIONARYVAR
  5
1FA
102
{ACAD_REACTORS
330
1F5
102
}
330
1F5
100
DictionaryVariables
280
     0
  1
0
  0
DICTIONARY
  5
12
330
10
100
AcDbDictionary
280
     1
281
     1
  0
DICTIONARY
  5
18
330
17
100
AcDbDictionary
280
     1
281
     1
  0
DICTIONARY
  5
47
330
46
100
AcDbDictionary
280
     1
281
     1
  3
ACAD_ROUNDTRIP_2008_TABLESTYLE_CELLSTYLEMAP
360
1FF
  0
CELLSTYLEMAP
  5
1FF
102
{ACAD_REACTORS
330
47
102
}
330
47
100
AcDbCellStyleMap
 90
        3
300
CELLSTYLE
  1
TABLEFORMAT_BEGIN
 90
        5
170
     1
 91
        0
 92
    32768
 62
   257
 93
        1
300
CONTENTFORMAT
  1
CONTENTFORMAT_BEGIN
 90
        0
 91
        0
 92
      512
 93
        0
300

 40
0.0
140
1.0
 94
        5
 62
     0
340
20
144
6.0
309
CONTENTFORMAT_END
171
     1
301
MARGIN
  1
CELLMARGIN_BEGIN
 40
1.5
 40
1.5
 40
1.5
 40
1.5
 40
0.18
 40
0.18
309
CELLMARGIN_END
 94
        6
 95
        1
302
GRIDFORMAT
  1
GRIDFORMAT_BEGIN
 90
        0
 91
        1
 62
     0
 92
       -2
340
0
 93
        0
 40
0.045
309
GRIDFORMAT_END
 95
        2
302
GRIDFORMAT
  1
GRIDFORMAT_BEGIN
 90
        0
 91
        1
 62
     0
 92
       -2
340
0
 93
        0
 40
0.045
309
GRIDFORMAT_END
 95
        4
302
GRIDFORMAT
  1
GRIDFORMAT_BEGIN
 90
        0
 91
        1
 62
     0
 92
       -2
340
0
 93
        0
 40
0.045
309
GRIDFORMAT_END
 95
        8
302
GRIDFORMAT
  1
GRIDFORMAT_BEGIN
 90
        0
 91
        1
 62
     0
 92
       -2
340
0
 93
        0
 40
0.045
309
GRIDFORMAT_END
 95
       16
302
GRIDFORMAT
  1
GRIDFORMAT_BEGIN
 90
        0
 91
        1
 62
     0
 92
       -2
340
0
 93
        0
 40
0.045
309
GRIDFORMAT_END
 95
       32
302
GRIDFORMAT
  1
GRIDFORMAT_BEGIN
 90
        0
 91
        1
 62
     0
 92
       -2
340
0
 93
        0
 40
0.045
309
GRIDFORMAT_END
309
TABLEFORMAT_END
  1
CELLSTYLE_BEGIN
 90
        1
 91
        1
300
_TITLE
309
CELLSTYLE_END
300
CELLSTYLE
  1
TABLEFORMAT_BEGIN
 90
        5
170
     1
 91
        0
 92
        0
 62
   257
 93
        1
300
CONTENTFORMAT
  1
CONTENTFORMAT_BEGIN
 90
        0
 91
        0
 92
      512
 93
        0
300

 40
0.0
140
1.0
 94
        5
 62
     0
340
20
144
4.5
309
CONTENTFORMAT_END
171
     1
301
MARGIN
  1
CELLMARGIN_BEGIN
 40
1.5
 40
1.5
 40
1.5
 40
1.5
 40
0.18
 40
0.18
309
CELLMARGIN_END
 94
        6
 95
        1
302
GRIDFORMAT
  1
GRIDFORMAT_BEGIN
 90
        0
 91
        1
 62
     0
 92
       -2
340
0
 93
        0
 40
0.045
309
GRIDFORMAT_END
 95
        2
302
GRIDFORMAT
  1
GRIDFORMAT_BEGIN
 90
        0
 91
        1
 62
     0
 92
       -2
340
0
 93
        0
 40
0.045
309
GRIDFORMAT_END
 95
        4
302
GRIDFORMAT
  1
GRIDFORMAT_BEGIN
 90
        0
 91
        1
 62
     0
 92
       -2
340
0
 93
        0
 40
0.045
309
GRIDFORMAT_END
 95
        8
302
GRIDFORMAT
  1
GRIDFORMAT_BEGIN
 90
        0
 91
        1
 62
     0
 92
       -2
340
0
 93
        0
 40
0.045
309
GRIDFORMAT_END
 95
       16
302
GRIDFORMAT
  1
GRIDFORMAT_BEGIN
 90
        0
 91
        1
 62
     0
 92
       -2
340
0
 93
        0
 40
0.045
309
GRIDFORMAT_END
 95
       32
302
GRIDFORMAT
  1
GRIDFORMAT_BEGIN
 90
        0
 91
        1
 62
     0
 92
       -2
340
0
 93
        0
 40
0.045
309
GRIDFORMAT_END
309
TABLEFORMAT_END
  1
CELLSTYLE_BEGIN
 90
        2
 91
        1
300
_HEADER
309
CELLSTYLE_END
300
CELLSTYLE
  1
TABLEFORMAT_BEGIN
 90
        5
170
     1
 91
        0
 92
        0
 62
   257
 93
        1
300
CONTENTFORMAT
  1
CONTENTFORMAT_BEGIN
 90
        0
 91
        0
 92
      512
 93
        0
300

 40
0.0
140
1.0
 94
        2
 62
     0
340
20
144
4.5
309
CONTENTFORMAT_END
171
     1
301
MARGIN
  1
CELLMARGIN_BEGIN
 40
1.5
 40
1.5
 40
1.5
 40
1.5
 40
0.18
 40
0.18
309
CELLMARGIN_END
 94
        6
 95
        1
302
GRIDFORMAT
  1
GRIDFORMAT_BEGIN
 90
        0
 91
        1
 62
     0
 92
       -2
340
0
 93
        0
 40
0.045
309
GRIDFORMAT_END
 95
        2
302
GRIDFORMAT
  1
GRIDFORMAT_BEGIN
 90
        0
 91
        1
 62
     0
 92
       -2
340
0
 93
        0
 40
0.045
309
GRIDFORMAT_END
 95
        4
302
GRIDFORMAT
  1
GRIDFORMAT_BEGIN
 90
        0
 91
        1
 62
     0
 92
       -2
340
0
 93
        0
 40
0.045
309
GRIDFORMAT_END
 95
        8
302
GRIDFORMAT
  1
GRIDFORMAT_BEGIN
 90
        0
 91
        1
 62
     0
 92
       -2
340
0
 93
        0
 40
0.045
309
GRIDFORMAT_END
 95
       16
302
GRIDFORMAT
  1
GRIDFORMAT_BEGIN
 90
        0
 91
        1
 62
     0
 92
       -2
340
0
 93
        0
 40
0.045
309
GRIDFORMAT_END
 95
       32
302
GRIDFORMAT
  1
GRIDFORMAT_BEGIN
 90
        0
 91
        1
 62
     0
 92
       -2
340
0
 93
        0
 40
0.045
309
GRIDFORMAT_END
309
TABLEFORMAT_END
  1
CELLSTYLE_BEGIN
 90
        3
 91
        2
300
_DATA
309
CELLSTYLE_END
  0
ENDSEC
  0
SECTION
  2
ACDSDATA
 70
     2
 71
     6
  0
ACDSSCHEMA
 90
        0
  1
AcDb_Thumbnail_Schema
  2
AcDbDs::ID
280
    10
 91
        8
  2
Thumbnail_Data
280
    15
 91
        0
101
ACDSRECORD
 95
        0
 90
        1
  2
AcDbDs::TreatedAsObjectData
280
     1
291
     1
101
ACDSRECORD
 95
        0
 90
        2
  2
AcDbDs::Legacy
280
     1
291
     1
101
ACDSRECORD
  1
AcDbDs::ID
 90
        3
  2
AcDs:Indexable
280
     1
291
     1
101
ACDSRECORD
  1
AcDbDs::ID
 90
        4
  2
AcDbDs::HandleAttribute
280
     7
282
     1
  0
ACDSSCHEMA
 90
        1
  1
AcDbDs::TreatedAsObjectDataSchema
  2
AcDbDs::TreatedAsObjectData
280
     1
 91
        0
  0
ACDSSCHEMA
 90
        2
  1
AcDbDs::LegacySchema
  2
AcDbDs::Legacy
280
     1
 91
        0
  0
ACDSSCHEMA
 90
        3
  1
AcDbDs::IndexedPropertySchema
  2
AcDs:Indexable
280
     1
 91
        0
  0
ACDSSCHEMA
 90
        4
  1
AcDbDs::HandleAttributeSchema
  2
AcDbDs::HandleAttribute
280
     7
 91
        1
284
     1
  0
ACDSRECORD
 90
        0
  2
AcDbDs::ID
280
    10
320
10
  2
Thumbnail_Data
280
    15
 94
     3088
310
89504E470D0A1A0A0000000D49484452000001000000005E0803000000FB5F3A6700000300504C5445212830000000C8C8C80000000000000000000000000000000000000000000000000000330000660000990000CC0000FF0033000033330033660033990033CC0033FF0066000066330066660066990066CC0066FF0099
310
000099330099660099990099CC0099FF00CC0000CC3300CC6600CC9900CCCC00CCFF00FF0000FF3300FF6600FF9900FFCC00FFFF3300003300333300663300993300CC3300FF3333003333333333663333993333CC3333FF3366003366333366663366993366CC3366FF3399003399333399663399993399CC3399FF33CC00
310
33CC3333CC6633CC9933CCCC33CCFF33FF0033FF3333FF6633FF9933FFCC33FFFF6600006600336600666600996600CC6600FF6633006633336633666633996633CC6633FF6666006666336666666666996666CC6666FF6699006699336699666699996699CC6699FF66CC0066CC3366CC6666CC9966CCCC66CCFF66FF0066
310
FF3366FF6666FF9966FFCC66FFFF9900009900339900669900999900CC9900FF9933009933339933669933999933CC9933FF9966009966339966669966999966CC9966FF9999009999339999669999999999CC9999FF99CC0099CC3399CC6699CC9999CCCC99CCFF99FF0099FF3399FF6699FF9999FFCC99FFFFCC0000CC00
310
33CC0066CC0099CC00CCCC00FFCC3300CC3333CC3366CC3399CC33CCCC33FFCC6600CC6633CC6666CC6699CC66CCCC66FFCC9900CC9933CC9966CC9999CC99CCCC99FFCCCC00CCCC33CCCC66CCCC99CCCCCCCCCCFFCCFF00CCFF33CCFF66CCFF99CCFFCCCCFFFFFF0000FF0033FF0066FF0099FF00CCFF00FFFF3300FF3333
310
FF3366FF3399FF33CCFF33FFFF6600FF6633FF6666FF6699FF66CCFF66FFFF9900FF9933FF9966FF9999FF99CCFF99FFFFCC00FFCC33FFCC66FFCC99FFCCCCFFCCFFFFFF00FFFF33FFFF66FFFF99FFFFCCFFFFFF0000000D0D0D1A1A1A2828283535354343435050505D5D5D6B6B6B787878868686939393A1A1A1AEAEAEBB
310
BBBBC9C9C9D6D6D6E4E4E4F1F1F1FFFFFF000000000000000000000000000000000000000000000000000000000000B21171F6000002A84944415478DAED9A4196E3200C447503EE7F199F4427E8BDF6632410C276DC9DD909EABFD7B1439405655148A48900000000000000000000BEA25484B97C2484C9F9C262D7C7B08C
310
0288C285EAABDE1C42F55A3FA98331ACB4EB79432DBCF4EFE71640CE09B12B41365716620E02F024007749B87E33AF00E79F4D28DE7018B130D607AE0FFE1C61BBB10C508DF20A50A4BC333CE0F7B0A42628DDD5F4890EC43382CA71B4414D78B160594180A34DC84CCD56B9BA9BBD2717E010398207C86482893DA07A18B7
310
C5CDD1E7EDE2029CD3AF59A0AAB00B602658079632417BB414DCAD981B16DD2CFCA6EA63B6C8A93D60671314DBCEEAF326694F747CC2BDC291661145CBA436F063B99FBC101AA6E602D4F9C40A69AA04E9A8E8D2672F84329B6014805B06E87A6F2E475701C62EF013B683CC8590EFE6615BE75B1DE0C5823E7E8D615B3BCC
310
232CA7097A73E7D769C0C3CA87309326AD09F67AC69B1B4B729ADC4DAC17200F93BE42C4F651CAED01560871BF69738DEE36B7C3BD2DAC6192BC12AC7E37BB5BCB800701D83DDF0B46D20C4ADD0E8F25DD4D90E5A9106A2D501196D5BAC1BBF7BD9AE05B584E131C271DBDBB5377EBC97E291835E5FBF7B87B65E23A407773
310
EECD8D146F834D107E2884CC225B9D945E8031B3D6DD4D02B80912D3D82C7CDE2B08C02CBB1F897D59092E6682A119224F6996FE09533041A65827DA487A13EC56E7955D9B105D8EC462B36C3AD11A1E100E39A3BBFD51005AC004373F12FBC504E56A827737AC594489917B4ADBC1EFF8D5B4970B5CDFB4EEB72F86BCA9FF
310
2A807C10E0DC0C9E2D626101A6F3009A3220F741C87F9A202D637E5F0AB02E32FF2478EB72640701C2BF7EB46E90371340AE026C9401DB7BC026D37C3D11D2BA6F6701BCEBDF5380454A7A7800000000000000000000000000000000000000000058967F7E34618580B8E1270000000049454E44AE4260828D57344085533A
310
0580AEA7FD552D3B02C847C8BD016403CAED7A3C001DEDA1C1D9F5027032E3B730812280D258771480AC6C970AD749C1B31C8C454264020075275F1E431600AE49CBDCF4414EB069C63B15C0CFD761015800168005600158001680056001302A7C6D9C5CB2C45042C68E62EA8E4A493CBBD221969EE6E240A301E41971180F
310
20ECBD1D0C40379B7D1E537AE965C45000697788AEC59CD2619CFD852A40A802C8CE185E3A1DBB9486B67FC992254B96FCBAACD9E04A88B4D6218C27261EA3B30E51793B80371FA404738EB0C97DC0D46374266BC0EBA3C00270AD0ED99AB43C4BD4B488E71F05407CD7C6B16FBDF0605FDB0F2600CA8CE9CEE92AF74EB190
310
B999748C47E1780BA4FA86B6BB00D8DE2D60C5472E640C402CD81400C442DE00000AAB7D9F01905B22F9312A49F7E23EEB6F1CEE02286BC0FE849D24530600CF00886D33E9E7C45EE1E37499EF0B49EF01A899400AEB9600B812C49F13B6457EB178A8C07000700EE0A90F10DB6618805DE3D3794E13017C31812E00A00000
310
BCCB4D657702A0F3FD55A7969C1024A5BC6D02D5D70C54E4C95E139800006AD500C8A2807E7184CD004A3B95CE0040F23F1EFD4F0000AE0F22327501204C008895F6174573F054823B1F380000000049454E44AE426082E4C1E43AC59A6B00284C54F282C9029C3BB50420FF97A517AA844E1B401637811F61980190444E60
310
D9BFD35209004A002EEF0131857B0280DEF7808CA10CBC4099231E6DE89C4E05186EB79C4C273543F1A32087AA87634E3C2354247861C10B28D17656E66B399F09D4DC144B9A9904BA3A41BE1D07AC08BD835AED38A09087A7220E3543228E46E75F1D79DA7083CA11AF00907A239DB38E03168411452D072AE939391A9D41
310
9E7683AED7A7B61790B158DA50D30DC2348042504BE2636A0A731CF01600A2BE9A733974837A9B1E0360DF396CA994540B00C1E8F523326F8803AA5F16000C744E13C0B8A55254E70723D2A379F9FC78D80ADD7B01AC5AC0C89AAB4028C8C36EF068D9210ED097A683D302E0840568F5D5999A756B1334EC7E62130C2DF057
310
8EB996482A959955573D1AB11D078C8F228FBB3505A0DB58CF0DEA4AB6F7BF3A1FB033962F4888FC848CD00DE006706DA55B1768BE3EE644D9BADBBEC8B77B48D5B8CD6702B8CB5D3EB97C8F17B8D4117C651CE075CE07AD34C47E6747EAA4C71BFBFE36001BB7FB3B0076E3B34B83C11DAF8ABF1080E1D71F0BA3C6C651D7
310
DF02C00C6D16DA780700A559B11E447048D54C003083B44E923BE594D41B4273C66B0540B104F6DE2728EF67F4C99D0C00CA74ED18801DA6B64ECE25F12DBC361548254AB72C20533C6901247DA8F2D56300E0729A7302404E2852FE29FEBF0DC09D01A0327CEA44F0E1BC7E1300CF7B3C3E380B0038D11B6DA11009573641
310
EA1FF35A04404A211DEC01FA4497A4C8BB395EB5D9387912A5A98DF40BC6974A52FC1109D3F332A70048F71B1A470D80F2B89321CE01187CAB5D7283AD37349F7383D3004084BEA117303EEF9D379CF402E8CEBE57588D9A9AA7D9C64B601C0758808ADD7F17803BF75A5DE505C40D1E17E67813DC0C84F4EEBF1B08B9732F
310
562EDC600E848EDD9A8D03681580218ECD00F80FFCCA34FB22FED71E0000000049454E44AE426082E09220F07EE34716487C3D00DF78FC0FC44B3A62B4C2B0830000000049454E44AE42608202604C066904C036B8BECFEA63A6F44200E4F233003801207375E978465C7A4027F3DE0338E10A792CD05E901DCF095F0D8138
310
579801602140D1A8E59D951610AAE8DEEF6A68C8006BC7D26B43C013F0EE014EF78510C8C62B8FB68610200F005835625C0368CA2A378700C569F9C4CF40FB93D14A05D701004C00A8CE7B19EBBB120278BB33E70098A1029367836F51E19FA2BD6FA305DE0A80BFCD046F90ED878C5F7876F8D5FF33E8073CE0DD8FDD5AE0
310
171C9DCC432C8F0B298D6DBB8EF763C8DB8BF545ECEDE93C40B8909179CDD90145008CF747007804DCF37F7E5E02008E1EC0143FB6EEF764FE0080F47BFD460FE8091DFFCF6BBA1448ED3A81F71F9EEB6FEAE77F65081897752180931070D2DF42A073E15F0980FEA31F98787B0A0179D4011300FC7CF36F0D814CE6AF3055
310
A790C32ED007F88D00ECD302BF0080BFC004FF01B681ADE50E1690DA0000000049454E44AE426082
  0
ACDSRECORD
 90
        0
  2
AcDbDs::ID
280
    10
320
17
  2
Thumbnail_Data
280
    15
 94
     1943
310
89504E470D0A1A0A0000000D49484452000000B80000007F08030000006B00F8F900000300504C5445FFFFFF000000FFFFFF0000000000000000000000000000000000000000000000000000330000660000990000CC0000FF0033000033330033660033990033CC0033FF0066000066330066660066990066CC0066FF0099
310
000099330099660099990099CC0099FF00CC0000CC3300CC6600CC9900CCCC00CCFF00FF0000FF3300FF6600FF9900FFCC00FFFF3300003300333300663300993300CC3300FF3333003333333333663333993333CC3333FF3366003366333366663366993366CC3366FF3399003399333399663399993399CC3399FF33CC00
310
33CC3333CC6633CC9933CCCC33CCFF33FF0033FF3333FF6633FF9933FFCC33FFFF6600006600336600666600996600CC6600FF6633006633336633666633996633CC6633FF6666006666336666666666996666CC6666FF6699006699336699666699996699CC6699FF66CC0066CC3366CC6666CC9966CCCC66CCFF66FF0066
310
FF3366FF6666FF9966FFCC66FFFF9900009900339900669900999900CC9900FF9933009933339933669933999933CC9933FF9966009966339966669966999966CC9966FF9999009999339999669999999999CC9999FF99CC0099CC3399CC6699CC9999CCCC99CCFF99FF0099FF3399FF6699FF9999FFCC99FFFFCC0000CC00
310
33CC0066CC0099CC00CCCC00FFCC3300CC3333CC3366CC3399CC33CCCC33FFCC6600CC6633CC6666CC6699CC66CCCC66FFCC9900CC9933CC9966CC9999CC99CCCC99FFCCCC00CCCC33CCCC66CCCC99CCCCCCCCCCFFCCFF00CCFF33CCFF66CCFF99CCFFCCCCFFFFFF0000FF0033FF0066FF0099FF00CCFF00FFFF3300FF3333
310
FF3366FF3399FF33CCFF33FFFF6600FF6633FF6666FF6699FF66CCFF66FFFF9900FF9933FF9966FF9999FF99CCFF99FFFFCC00FFCC33FFCC66FFCC99FFCCCCFFCCFFFFFF00FFFF33FFFF66FFFF99FFFFCCFFFFFF0000000D0D0D1A1A1A2828283535354343435050505D5D5D6B6B6B787878868686939393A1A1A1AEAEAEBB
310
BBBBC9C9C9D6D6D6E4E4E4F1F1F1FFFFFF000000000000000000000000000000000000000000000000000000000000790CAC0F000004524944415478DAED9C5B92E3200C457B03296DC3FB5F801673FF7A01FE1F03120870E2C476067B46547742223F0E422F70557E30DFAEE127340777F01DE0D0D67FB329998F48DEB8CD
310
6BF00B6BD9C11DDCC11DFC2F827BE674F0FF0D1C03DB31F06B441107BF1E38AE0B0E0777700777700777700777F017470344F7D4F8427E4F70BA32F8FE7A1C331E783CEEB09000D82C0C69017F00B70067669415757C7FDC0E9C22F8E31E1ADFD843F0C5F279E0D12D97170AFFF1134BA324E4F4B27CE2245B5E108F260AA7
310
8C0347200978020E0154F0481EC09380C24029B591E02117051A8E1A8F5A8D2A65FD1407B5BC0938A21F07DE059CBF028EF74D25AA51512366D2384B37998A50733A7289F6BBC1712278C281804350A59B3F41A640344E34103C6917195C5B724716764E1ACFF331BE1E57D4A4D50C9E2C1E6520622A024E9F45D9AF2C2432
310
99D8B8D8B4A012178D4B1894195A44F1148CD3B844BCA871FC26EB50E7D481A461B0E81C31A0F058E7FC65D65092C025EB041B9F72CED1381E2A996446F360F01C9D610260F994C849C0A72906F8B47E1AADF11CF08A03E65CC91A56248FE626E043C361059EBB098E21F1A68A2AA04F97DA5F0297C229C771709F39D539A3
310
3064CDF1FB2A14DC2DFC49CA11238E1A5F64596C8EBC88C6818F33E11576B2A434F12DB8A1FB2ABEE63C177C9AB45364B9BB261C0F3EED019FB687504E9ABE028E6A87D944402E256E125AD9D41E34B5DF404B16E97077E1A3E069FD55DF25769545C16571660F2B747969CF65CF9A6C07FDD00E8287CBE64283CAE63E7306
310
4F5054C0739AE49AAE9928A31A7DD323F83078BABE5ED53C95985445508D970D13D98BB0F68056E38C6A324A49B00F1C7D39654DC5541CD96896D42F1A2FE07AFC1B1A97D3D4E09E837F98391B533170DAD3C1982DD04C513055E36A6C6826B19993E3E05C598175CE1EDCCC06D3BA618411C8A5A8BAE4B6A9EC02CFCE9627
310
543625D69D93559D9D6198A88297CED9D7707BC0B37AD9C0C982271B74B9756F2A2BCE59AC4FC06B8DCB3383A31ACF536F6D1CB55B113F3795F9453894B8D5D838D1291A2FA6626C5C2759BEB3326C6B5CE747C6DB829F632A26031A1B6F7465ED1F5D1CD76DAF671AA7169CCE01A795A802420DCE2DB80DF6B245DED72A12
310
0E8B734E279A8AE4982A0141328FDED280E7606D071CB7548AC689AAA8424D02024E76CE5248E94EB79A4F1D2A3B8DD393EA50AF124DC9809FEB9C553D4273F5DDA2A3E97991A57B0205BCD5B88027C1D9CE694C25F74AE62C95E976386C8BACF8F80B79B0A7D978EF9C2BB9B0C8A80D874017C7A90A87F149184ECF9CDCDA
310
C00AB89575AB9915F0B5871CFB13D0FC1ADCDC8DDAC95F5DD6992AF33538911638672D24DE867B094EB4A5F1B8857A3DF04D51798E7833F066957F5BF0D9C11DDCC13FCA9C23C1E1E0D706BFCE13090777700777700777700777F0CDB30782CF0E7E6DF0BBFE68C6459B833BF86E70FF9D2C0777700777F0BA36795EAD3C95
310
CC4724477F8CD433A783FF93E0376C81FB0FE8D566DAC99D001A0000000049454E44AE426082
  0
ENDSEC
  0
EOF
