  0
SECTION
  2
HEADER
  9
$ACADVER
  1
AC1027
  9
$ACADMAINTVER
 70
    55
  9
$DWGCODEPAGE
  3
ANSI_936
  9
$REQUIREDVERSIONS
160
                 0
  9
$INSBASE
 10
0.0
 20
0.0
 30
0.0
  9
$EXTMIN
 10
-34607.30634793638
 20
16112.5105673383
 30
0.0
  9
$EXTMAX
 10
-1202.65293636074
 20
36148.28396290183
 30
506.0
  9
$LIMMIN
 10
0.0
 20
0.0
  9
$LIMMAX
 10
420.0
 20
297.0
  9
$ORTHOMODE
 70
     0
  9
$REGENMODE
 70
     1
  9
$FILLMODE
 70
     1
  9
$QTEXTMODE
 70
     0
  9
$MIRRTEXT
 70
     0
  9
$LTSCALE
 40
1.0
  9
$ATTMODE
 70
     1
  9
$TEXTSIZE
 40
2.5
  9
$TRACEWID
 40
1.0
  9
$TEXTSTYLE
  7
样式 2
  9
$CLAYER
  8
标注
  9
$CELTYPE
  6
ByLayer
  9
$CECOLOR
 62
     0
  9
$CELTSCALE
 40
1.0
  9
$DISPSILH
 70
     0
  9
$DIMSCALE
 40
1.0
  9
$DIMASZ
 40
25.0
  9
$DIMEXO
 40
2.0
  9
$DIMDLI
 40
0.38
  9
$DIMRND
 40
0.0
  9
$DIMDLE
 40
0.0
  9
$DIMEXE
 40
0.18
  9
$DIMTP
 40
0.0
  9
$DIMTM
 40
0.0
  9
$DIMTXT
 40
25.0
  9
$DIMCEN
 40
0.0
  9
$DIMTSZ
 40
0.0
  9
$DIMTOL
 70
     0
  9
$DIMLIM
 70
     0
  9
$DIMTIH
 70
     0
  9
$DIMTOH
 70
     0
  9
$DIMSE1
 70
     0
  9
$DIMSE2
 70
     0
  9
$DIMTAD
 70
     0
  9
$DIMZIN
 70
     0
  9
$DIMBLK
  1

  9
$DIMASO
 70
     1
  9
$DIMSHO
 70
     1
  9
$DIMPOST
  1

  9
$DIMAPOST
  1

  9
$DIMALT
 70
     1
  9
$DIMALTD
 70
     2
  9
$DIMALTF
 40
0.03937
  9
$DIMLFAC
 40
1.0
  9
$DIMTOFL
 70
     0
  9
$DIMTVP
 40
0.0
  9
$DIMTIX
 70
     0
  9
$DIMSOXD
 70
     0
  9
$DIMSAH
 70
     0
  9
$DIMBLK1
  1

  9
$DIMBLK2
  1

  9
$DIMSTYLE
  2
Standard
  9
$DIMCLRD
 70
     2
  9
$DIMCLRE
 70
     2
  9
$DIMCLRT
 70
     2
  9
$DIMTFAC
 40
1.0
  9
$DIMGAP
 40
1.0
  9
$DIMJUST
 70
     0
  9
$DIMSD1
 70
     0
  9
$DIMSD2
 70
     0
  9
$DIMTOLJ
 70
     1
  9
$DIMTZIN
 70
     0
  9
$DIMALTZ
 70
     0
  9
$DIMALTTZ
 70
     0
  9
$DIMUPT
 70
     0
  9
$DIMDEC
 70
     2
  9
$DIMTDEC
 70
     2
  9
$DIMALTU
 70
     2
  9
$DIMALTTD
 70
     2
  9
$DIMTXSTY
  7
Standard
  9
$DIMAUNIT
 70
     0
  9
$DIMADEC
 70
     0
  9
$DIMALTRND
 40
0.0
  9
$DIMAZIN
 70
     0
  9
$DIMDSEP
 70
    46
  9
$DIMATFIT
 70
     3
  9
$DIMFRAC
 70
     0
  9
$DIMLDRBLK
  1

  9
$DIMLUNIT
 70
     2
  9
$DIMLWD
 70
    -1
  9
$DIMLWE
 70
    -1
  9
$DIMTMOVE
 70
     0
  9
$DIMFXL
 40
1.0
  9
$DIMFXLON
 70
     0
  9
$DIMJOGANG
 40
0.7853981633974483
  9
$DIMTFILL
 70
     0
  9
$DIMTFILLCLR
 70
     2
  9
$DIMARCSYM
 70
     0
  9
$DIMLTYPE
  6
ByLayer
  9
$DIMLTEX1
  6
ByLayer
  9
$DIMLTEX2
  6
ByLayer
  9
$DIMTXTDIRECTION
 70
     0
  9
$LUNITS
 70
     2
  9
$LUPREC
 70
     3
  9
$SKETCHINC
 40
1.0
  9
$FILLETRAD
 40
30.0
  9
$AUNITS
 70
     0
  9
$AUPREC
 70
     0
  9
$MENU
  1
.
  9
$ELEVATION
 40
0.0
  9
$PELEVATION
 40
0.0
  9
$THICKNESS
 40
0.0
  9
$LIMCHECK
 70
     0
  9
$CHAMFERA
 40
10.0
  9
$CHAMFERB
 40
10.0
  9
$CHAMFERC
 40
0.0
  9
$CHAMFERD
 40
0.0
  9
$SKPOLY
 70
     0
  9
$TDCREATE
 40
2455815.639909213
  9
$TDUCREATE
 40
2455815.306575880
  9
$TDUPDATE
 40
2457273.679684352
  9
$TDUUPDATE
 40
2457273.346351019
  9
$TDINDWG
 40
25.3465722569
  9
$TDUSRTIMER
 40
25.3465708102
  9
$USRTIMER
 70
     1
  9
$ANGBASE
 50
0.0
  9
$ANGDIR
 70
     0
  9
$PDMODE
 70
     0
  9
$PDSIZE
 40
0.0
  9
$PLINEWID
 40
0.0
  9
$SPLFRAME
 70
     0
  9
$SPLINETYPE
 70
     6
  9
$SPLINESEGS
 70
     8
  9
$HANDSEED
  5
201
  9
$SURFTAB1
 70
     6
  9
$SURFTAB2
 70
     6
  9
$SURFTYPE
 70
     6
  9
$SURFU
 70
     6
  9
$SURFV
 70
     6
  9
$UCSBASE
  2

  9
$UCSNAME
  2

  9
$UCSORG
 10
0.0
 20
0.0
 30
0.0
  9
$UCSXDIR
 10
1.0
 20
0.0
 30
0.0
  9
$UCSYDIR
 10
0.0
 20
1.0
 30
0.0
  9
$UCSORTHOREF
  2

  9
$UCSORTHOVIEW
 70
     0
  9
$UCSORGTOP
 10
0.0
 20
0.0
 30
0.0
  9
$UCSORGBOTTOM
 10
0.0
 20
0.0
 30
0.0
  9
$UCSORGLEFT
 10
0.0
 20
0.0
 30
0.0
  9
$UCSORGRIGHT
 10
0.0
 20
0.0
 30
0.0
  9
$UCSORGFRONT
 10
0.0
 20
0.0
 30
0.0
  9
$UCSORGBACK
 10
0.0
 20
0.0
 30
0.0
  9
$PUCSBASE
  2

  9
$PUCSNAME
  2

  9
$PUCSORG
 10
0.0
 20
0.0
 30
0.0
  9
$PUCSXDIR
 10
1.0
 20
0.0
 30
0.0
  9
$PUCSYDIR
 10
0.0
 20
1.0
 30
0.0
  9
$PUCSORTHOREF
  2

  9
$PUCSORTHOVIEW
 70
     0
  9
$PUCSORGTOP
 10
0.0
 20
0.0
 30
0.0
  9
$PUCSORGBOTTOM
 10
0.0
 20
0.0
 30
0.0
  9
$PUCSORGLEFT
 10
0.0
 20
0.0
 30
0.0
  9
$PUCSORGRIGHT
 10
0.0
 20
0.0
 30
0.0
  9
$PUCSORGFRONT
 10
0.0
 20
0.0
 30
0.0
  9
$PUCSORGBACK
 10
0.0
 20
0.0
 30
0.0
  9
$USERI1
 70
     0
  9
$USERI2
 70
     0
  9
$USERI3
 70
     0
  9
$USERI4
 70
     0
  9
$USERI5
 70
     0
  9
$USERR1
 40
0.0
  9
$USERR2
 40
0.0
  9
$USERR3
 40
0.0
  9
$USERR4
 40
0.0
  9
$USERR5
 40
2.5
  9
$WORLDVIEW
 70
     1
  9
$SHADEDGE
 70
     3
  9
$SHADEDIF
 70
    70
  9
$TILEMODE
 70
     1
  9
$MAXACTVP
 70
    64
  9
$PINSBASE
 10
0.0
 20
0.0
 30
0.0
  9
$PLIMCHECK
 70
     0
  9
$PEXTMIN
 10
25.69999999999999
 20
19.5
 30
0.0
  9
$PEXTMAX
 10
231.3
 20
175.5
 30
0.0
  9
$PLIMMIN
 10
-20.0
 20
-7.5
  9
$PLIMMAX
 10
277.0
 20
202.5
  9
$UNITMODE
 70
     0
  9
$VISRETAIN
 70
     1
  9
$PLINEGEN
 70
     0
  9
$PSLTSCALE
 70
     1
  9
$TREEDEPTH
 70
  3020
  9
$CMLSTYLE
  2
Standard
  9
$CMLJUST
 70
     0
  9
$CMLSCALE
 40
20.0
  9
$PROXYGRAPHICS
 70
     1
  9
$MEASUREMENT
 70
     1
  9
$CELWEIGHT
370
    -1
  9
$ENDCAPS
280
     0
  9
$JOINSTYLE
280
     0
  9
$LWDISPLAY
290
     0
  9
$INSUNITS
 70
     4
  9
$HYPERLINKBASE
  1

  9
$STYLESHEET
  1

  9
$XEDIT
290
     1
  9
$CEPSNTYPE
380
     0
  9
$PSTYLEMODE
290
     1
  9
$FINGERPRINTGUID
  2
{B67F3840-CB30-4C1A-8DF2-7F5E795210B1}
  9
$VERSIONGUID
  2
{A392AE7D-2D92-4E34-8A73-AC31E1BFDDAA}
  9
$EXTNAMES
290
     1
  9
$PSVPSCALE
 40
0.0
  9
$OLESTARTUP
290
     0
  9
$SORTENTS
280
   127
  9
$INDEXCTL
280
     0
  9
$HIDETEXT
280
     1
  9
$XCLIPFRAME
280
     0
  9
$HALOGAP
280
     0
  9
$OBSCOLOR
 70
   257
  9
$OBSLTYPE
280
     0
  9
$INTERSECTIONDISPLAY
280
     0
  9
$INTERSECTIONCOLOR
 70
   257
  9
$DIMASSOC
280
     2
  9
$PROJECTNAME
  1

  9
$CAMERADISPLAY
290
     0
  9
$LENSLENGTH
 40
50.0
  9
$CAMERAHEIGHT
 40
0.0
  9
$STEPSPERSEC
 40
2.0
  9
$STEPSIZE
 40
6.0
  9
$3DDWFPREC
 40
2.0
  9
$PSOLWIDTH
 40
5.0
  9
$PSOLHEIGHT
 40
80.0
  9
$LOFTANG1
 40
1.570796326794896
  9
$LOFTANG2
 40
1.570796326794896
  9
$LOFTMAG1
 40
0.0
  9
$LOFTMAG2
 40
0.0
  9
$LOFTPARAM
 70
     7
  9
$LOFTNORMALS
280
     1
  9
$LATITUDE
 40
37.795
  9
$LONGITUDE
 40
-122.394
  9
$NORTHDIRECTION
 40
0.0
  9
$TIMEZONE
 70
 -8000
  9
$LIGHTGLYPHDISPLAY
280
     1
  9
$TILEMODELIGHTSYNCH
280
     1
  9
$CMATERIAL
347
3A
  9
$SOLIDHIST
280
     1
  9
$SHOWHIST
280
     1
  9
$DWFFRAME
280
     2
  9
$DGNFRAME
280
     0
  9
$REALWORLDSCALE
290
     1
  9
$INTERFERECOLOR
 62
     1
  9
$INTERFEREOBJVS
345
48
  9
$INTERFEREVPVS
346
49
  9
$CSHADOW
280
     0
  9
$SHADOWPLANELOCATION
 40
0.0
  0
ENDSEC
  0
SECTION
  2
CLASSES
  0
CLASS
  1
ACDBDICTIONARYWDFLT
  2
AcDbDictionaryWithDefault
  3
ObjectDBX Classes
 90
        0
 91
        1
280
     0
281
     0
  0
CLASS
  1
DICTIONARYVAR
  2
AcDbDictionaryVar
  3
ObjectDBX Classes
 90
        0
 91
        9
280
     0
281
     0
  0
CLASS
  1
TABLESTYLE
  2
AcDbTableStyle
  3
ObjectDBX Classes
 90
     4095
 91
        1
280
     0
281
     0
  0
CLASS
  1
MATERIAL
  2
AcDbMaterial
  3
ObjectDBX Classes
 90
     1153
 91
        3
280
     0
281
     0
  0
CLASS
  1
VISUALSTYLE
  2
AcDbVisualStyle
  3
ObjectDBX Classes
 90
     4095
 91
        3
280
     0
281
     0
  0
CLASS
  1
ACAD_EVALUATION_GRAPH
  2
AcDbEvalGraph
  3
ObjectDBX Classes
 90
     1153
 91
        0
280
     0
281
     0
  0
CLASS
  1
BLOCKLOOKUPPARAMETER
  2
AcDbBlockLookupParameter
  3
ObjectDBX Classes
 90
     1153
 91
        0
280
     0
281
     0
  0
CLASS
  1
BLOCKLOOKUPGRIP
  2
AcDbBlockLookupGrip
  3
ObjectDBX Classes
 90
     1153
 91
        0
280
     0
281
     0
  0
CLASS
  1
BLOCKGRIPLOCATIONCOMPONENT
  2
AcDbBlockGripExpr
  3
ObjectDBX Classes
 90
     1153
 91
        0
280
     0
281
     0
  0
CLASS
  1
BLOCKLOOKUPACTION
  2
AcDbBlockLookupAction
  3
ObjectDBX Classes
 90
     1153
 91
        0
280
     0
281
     0
  0
CLASS
  1
BLOCKLINEARPARAMETER
  2
AcDbBlockLinearParameter
  3
ObjectDBX Classes
 90
     1153
 91
        0
280
     0
281
     0
  0
CLASS
  1
BLOCKSCALEACTION
  2
AcDbBlockScaleAction
  3
ObjectDBX Classes
 90
     1153
 91
        0
280
     0
281
     0
  0
CLASS
  1
ACDB_DYNAMICBLOCKPURGEPREVENTER_VERSION
  2
AcDbDynamicBlockPurgePreventer
  3
ObjectDBX Classes
 90
     1153
 91
        0
280
     0
281
     0
  0
CLASS
  1
ACDB_BLOCKREPRESENTATION_DATA
  2
AcDbBlockRepresentationData
  3
ObjectDBX Classes
 90
     1153
 91
        0
280
     0
281
     0
  0
CLASS
  1
BLOCKSTRETCHACTION
  2
AcDbBlockStretchAction
  3
ObjectDBX Classes
 90
     1153
 91
        0
280
     0
281
     0
  0
CLASS
  1
BLOCKMOVEACTION
  2
AcDbBlockMoveAction
  3
ObjectDBX Classes
 90
     1153
 91
        0
280
     0
281
     0
  0
CLASS
  1
BLOCKVISIBILITYPARAMETER
  2
AcDbBlockVisibilityParameter
  3
ObjectDBX Classes
 90
     1153
 91
        0
280
     0
281
     0
  0
CLASS
  1
SORTENTSTABLE
  2
AcDbSortentsTable
  3
ObjectDBX Classes
 90
        0
 91
        2
280
     0
281
     0
  0
CLASS
  1
BLOCKVISIBILITYGRIP
  2
AcDbBlockVisibilityGrip
  3
ObjectDBX Classes
 90
     1153
 91
        0
280
     0
281
     0
  0
CLASS
  1
BLOCKFLIPPARAMETER
  2
AcDbBlockFlipParameter
  3
ObjectDBX Classes
 90
     1153
 91
        0
280
     0
281
     0
  0
CLASS
  1
BLOCKFLIPGRIP
  2
AcDbBlockFlipGrip
  3
ObjectDBX Classes
 90
     1153
 91
        0
280
     0
281
     0
  0
CLASS
  1
BLOCKFLIPACTION
  2
AcDbBlockFlipAction
  3
ObjectDBX Classes
 90
     1153
 91
        0
280
     0
281
     0
  0
CLASS
  1
BLOCKALIGNMENTPARAMETER
  2
AcDbBlockAlignmentParameter
  3
ObjectDBX Classes
 90
     1153
 91
        0
280
     0
281
     0
  0
CLASS
  1
BLOCKALIGNMENTGRIP
  2
AcDbBlockAlignmentGrip
  3
ObjectDBX Classes
 90
     1153
 91
        0
280
     0
281
     0
  0
CLASS
  1
BLOCKPOINTPARAMETER
  2
AcDbBlockPointParameter
  3
ObjectDBX Classes
 90
     1153
 91
        0
280
     0
281
     0
  0
CLASS
  1
BLOCKLINEARGRIP
  2
AcDbBlockLinearGrip
  3
ObjectDBX Classes
 90
     1153
 91
        0
280
     0
281
     0
  0
CLASS
  1
BLOCKBASEPOINTPARAMETER
  2
AcDbBlockBasepointParameter
  3
ObjectDBX Classes
 90
     1153
 91
        0
280
     0
281
     0
  0
CLASS
  1
BLOCKARRAYACTION
  2
AcDbBlockArrayAction
  3
ObjectDBX Classes
 90
     1153
 91
        0
280
     0
281
     0
  0
CLASS
  1
BLOCKROTATIONPARAMETER
  2
AcDbBlockRotationParameter
  3
ObjectDBX Classes
 90
     1153
 91
        0
280
     0
281
     0
  0
CLASS
  1
BLOCKROTATIONGRIP
  2
AcDbBlockRotationGrip
  3
ObjectDBX Classes
 90
     1153
 91
        0
280
     0
281
     0
  0
CLASS
  1
BLOCKROTATEACTION
  2
AcDbBlockRotateAction
  3
ObjectDBX Classes
 90
     1153
 91
        0
280
     0
281
     0
  0
CLASS
  1
BLOCKPOLARPARAMETER
  2
AcDbBlockPolarParameter
  3
ObjectDBX Classes
 90
     1153
 91
        0
280
     0
281
     0
  0
CLASS
  1
BLOCKPOLARGRIP
  2
AcDbBlockPolarGrip
  3
ObjectDBX Classes
 90
     1153
 91
        0
280
     0
281
     0
  0
CLASS
  1
BLOCKPOLARSTRETCHACTION
  2
AcDbBlockPolarStretchAction
  3
ObjectDBX Classes
 90
     1153
 91
        0
280
     0
281
     0
  0
CLASS
  1
BLOCKXYPARAMETER
  2
AcDbBlockXYParameter
  3
ObjectDBX Classes
 90
     1153
 91
        0
280
     0
281
     0
  0
CLASS
  1
BLOCKXYGRIP
  2
AcDbBlockXYGrip
  3
ObjectDBX Classes
 90
     1153
 91
        0
280
     0
281
     0
  0
CLASS
  1
ACAD_TABLE
  2
AcDbTable
  3
ObjectDBX Classes
 90
     1025
 91
        0
280
     0
281
     1
  0
CLASS
  1
DIMASSOC
  2
AcDbDimAssoc
  3
"AcDbDimAssoc|Product Desc:     AcDim ARX App For Dimension|Company:          Autodesk, Inc.|WEB Address:      www.autodesk.com"
 90
        0
 91
       22
280
     0
281
     0
  0
CLASS
  1
LARGE_RADIAL_DIMENSION
  2
AcDbRadialDimensionLarge
  3
ObjectDBX Classes
 90
     1025
 91
        0
280
     0
281
     1
  0
CLASS
  1
SCALE
  2
AcDbScale
  3
ObjectDBX Classes
 90
     1153
 91
       33
280
     0
281
     0
  0
CLASS
  1
MLEADERSTYLE
  2
AcDbMLeaderStyle
  3
ACDB_MLEADERSTYLE_CLASS
 90
     4095
 91
        0
280
     0
281
     0
  0
CLASS
  1
VLO-VL
  2
vlo_VL
  3
VL|AutoLISP based application
 90
      129
 91
        0
280
     1
281
     0
  0
CLASS
  1
CELLSTYLEMAP
  2
AcDbCellStyleMap
  3
ObjectDBX Classes
 90
     1152
 91
        1
280
     0
281
     0
  0
CLASS
  1
RASTERVARIABLES
  2
AcDbRasterVariables
  3
ISM
 90
        0
 91
        0
280
     0
281
     0
  0
CLASS
  1
IMAGEDEF
  2
AcDbRasterImageDef
  3
ISM
 90
        0
 91
        0
280
     0
281
     0
  0
CLASS
  1
IMAGEDEF_REACTOR
  2
AcDbRasterImageDefReactor
  3
ISM
 90
        1
 91
        0
280
     0
281
     0
  0
CLASS
  1
IMAGE
  2
AcDbRasterImage
  3
ISM
 90
     2175
 91
        0
280
     0
281
     1
  0
CLASS
  1
ACDBSECTIONVIEWSTYLE
  2
AcDbSectionViewStyle
  3
ObjectDBX Classes
 90
     1025
 91
        0
280
     0
281
     0
  0
CLASS
  1
ACDBDETAILVIEWSTYLE
  2
AcDbDetailViewStyle
  3
ObjectDBX Classes
 90
     1025
 91
        0
280
     0
281
     0
  0
CLASS
  1
SOLID_BACKGROUND
  2
AcDbSolidBackground
  3
SCENEOE
 90
     4095
 91
        0
280
     1
281
     0
  0
CLASS
  1
NPOCOLLECTION
  2
AcDbImpNonPersistentObjectsCollection
  3
ObjectDBX Classes
 90
     1153
 91
        0
280
     0
281
     0
  0
ENDSEC
  0
SECTION
  2
TABLES
  0
TABLE
  2
VPORT
  5
27
102
{ACAD_XDICTIONARY
360
2C
102
}
330
0
100
AcDbSymbolTable
 70
     1
  0
VPORT
  5
28
330
27
100
AcDbSymbolTableRecord
100
AcDbViewportTableRecord
  2
*Active
 70
     0
 10
0.0
 20
0.0
 11
1.0
 21
1.0
 12
-24737.41346655446
 22
26309.57283657382
 13
0.0
 23
0.0
 14
10.0
 24
10.0
 15
10.0
 25
10.0
 16
0.0
 26
0.0
 36
1.0
 17
0.0
 27
0.0
 37
0.0
 40
1858.468910419215
 41
2.720081135902636
 42
50.0
 43
0.0
 44
0.0
 50
0.0
 51
0.0
 71
     0
 72
  1000
 73
     1
 74
     3
 75
     0
 76
     1
 77
     0
 78
     0
281
     0
 65
     1
110
0.0
120
0.0
130
0.0
111
1.0
121
0.0
131
0.0
112
0.0
122
1.0
132
0.0
 79
     0
146
0.0
348
29
 60
     2
 61
     5
292
     1
282
     1
141
0.0
142
0.0
 63
   250
421
  3355443
1001
ACAD_NAV_VCDISPLAY
1070
     3
  0
ENDTAB
  0
TABLE
  2
LTYPE
  5
22
330
0
100
AcDbSymbolTable
 70
     1
  0
LTYPE
  5
23
330
22
100
AcDbSymbolTableRecord
100
AcDbLinetypeTableRecord
  2
ByBlock
 70
     0
  3

 72
    65
 73
     0
 40
0.0
  0
LTYPE
  5
24
330
22
100
AcDbSymbolTableRecord
100
AcDbLinetypeTableRecord
  2
ByLayer
 70
     0
  3

 72
    65
 73
     0
 40
0.0
  0
LTYPE
  5
E
330
22
100
AcDbSymbolTableRecord
100
AcDbLinetypeTableRecord
  2
Continuous
 70
     0
  3
Solid line
 72
    65
 73
     0
 40
0.0
  0
ENDTAB
  0
TABLE
  2
LAYER
  5
19
102
{ACAD_XDICTIONARY
360
1A
102
}
330
0
100
AcDbSymbolTable
 70
     4
  0
LAYER
  5
6
102
{ACAD_XDICTIONARY
360
7
102
}
330
19
100
AcDbSymbolTableRecord
100
AcDbLayerTableRecord
  2
0
 70
     0
 62
     7
  6
Continuous
370
    -3
390
9
347
C
348
0
  0
LAYER
  5
AD
330
19
100
AcDbSymbolTableRecord
100
AcDbLayerTableRecord
  2
Defpoints
 70
     0
 62
     8
  6
Continuous
290
     0
370
    -3
390
9
347
C
348
0
  0
LAYER
  5
40
102
{ACAD_XDICTIONARY
360
41
102
}
330
19
100
AcDbSymbolTableRecord
100
AcDbLayerTableRecord
  2
标注
 70
     0
 62
     1
  6
Continuous
370
    -3
390
9
347
C
348
0
1001
AcAecLayerStandard
1000

1000

  0
LAYER
  5
94
102
{ACAD_XDICTIONARY
360
95
102
}
330
19
100
AcDbSymbolTableRecord
100
AcDbLayerTableRecord
  2
填充层
 70
     0
 62
     7
  6
Continuous
370
    -3
390
9
347
C
348
0
1001
AcAecLayerStandard
1000

1000

  0
ENDTAB
  0
TABLE
  2
STYLE
  5
1F
330
0
100
AcDbSymbolTable
 70
     2
  0
STYLE
  5
20
330
1F
100
AcDbSymbolTableRecord
100
AcDbTextStyleTableRecord
  2
Standard
 70
     0
 40
0.0
 41
0.7800000000000001
 50
0.0
 71
     0
 42
2.5
  3
times.ttf
  4

1001
ACAD
1000
Times New Roman
1071
       18
  0
STYLE
  5
44
330
1F
100
AcDbSymbolTableRecord
100
AcDbTextStyleTableRecord
  2
样式 2
 70
     0
 40
0.0
 41
0.7800000000000001
 50
0.0
 71
     0
 42
2.5
  3
@Dotum.shx
  4

  0
ENDTAB
  0
TABLE
  2
VIEW
  5
25
330
0
100
AcDbSymbolTable
 70
     0
  0
ENDTAB
  0
TABLE
  2
UCS
  5
26
330
0
100
AcDbSymbolTable
 70
     0
  0
ENDTAB
  0
TABLE
  2
APPID
  5
2D
330
0
100
AcDbSymbolTable
 70
     7
  0
APPID
  5
1E
330
2D
100
AcDbSymbolTableRecord
100
AcDbRegAppTableRecord
  2
ACAD
 70
     0
  0
APPID
  5
13
330
2D
100
AcDbSymbolTableRecord
100
AcDbRegAppTableRecord
  2
ACAD_PSEXT
 70
     0
  0
APPID
  5
43
330
2D
100
AcDbSymbolTableRecord
100
AcDbRegAppTableRecord
  2
AcAecLayerStandard
 70
     0
  0
APPID
  5
30
330
2D
100
AcDbSymbolTableRecord
100
AcDbRegAppTableRecord
  2
ACAD_DSTYLE_DIMJAG
 70
     0
  0
APPID
  5
31
330
2D
100
AcDbSymbolTableRecord
100
AcDbRegAppTableRecord
  2
ACAD_DSTYLE_DIMTALN
 70
     0
  0
APPID
  5
10C
330
2D
100
AcDbSymbolTableRecord
100
AcDbRegAppTableRecord
  2
ACAD_DSTYLE_DIMRADIAL_EXTENSION
 70
     0
  0
APPID
  5
2B
330
2D
100
AcDbSymbolTableRecord
100
AcDbRegAppTableRecord
  2
ACAD_NAV_VCDISPLAY
 70
     0
  0
ENDTAB
  0
TABLE
  2
DIMSTYLE
  5
2E
330
0
100
AcDbSymbolTable
 70
     5
100
AcDbDimStyleTable
 71
     5
340
2F
340
32
340
33
340
34
340
35
  0
DIMSTYLE
105
2F
102
{ACAD_REACTORS
330
A2
330
B1
330
C1
330
D1
330
E1
330
F1
330
101
330
10D
330
118
330
123
330
12E
330
139
330
144
330
14F
330
15A
330
165
330
175
330
185
330
195
330
1A5
330
1B5
330
1C3
330
1D3
330
1E3
102
}
330
2E
100
AcDbSymbolTableRecord
100
AcDbDimStyleTableRecord
  2
Standard
 70
     0
 41
25.0
 42
2.0
 70
     2
 73
     0
 74
     0
140
25.0
141
0.0
143
0.03937
147
1.0
170
     1
176
     2
177
     2
178
     2
271
     2
272
     2
340
20
345
24
346
24
347
24
371
    -1
372
    -1
1001
ACAD_DSTYLE_DIMJAG
1070
   388
1040
1.5
1001
ACAD_DSTYLE_DIMTALN
1070
   392
1070
     0
  0
DIMSTYLE
105
35
330
2E
100
AcDbSymbolTableRecord
100
AcDbDimStyleTableRecord
  2
ISO-60
 70
     0
 41
55.0
 42
5.0
 43
3.75
 44
1.25
 73
     0
 77
     1
 78
     8
140
60.0
141
2.5
143
0.03937007874016
147
5.0
171
     3
271
     0
272
     0
274
     3
283
     0
284
     8
340
20
  0
DIMSTYLE
105
34
330
2E
100
AcDbSymbolTableRecord
100
AcDbDimStyleTableRecord
  2
0-ISO-40
 70
     0
 41
35.0
 42
5.0
 43
3.75
 44
1.25
 73
     0
 77
     1
 78
     8
140
40.0
141
2.5
143
0.03937007874016
147
5.0
171
     3
172
     1
176
   256
177
   256
178
   256
271
     2
272
     2
274
     3
283
     0
284
     8
340
20
345
24
346
24
347
24
371
    -1
372
    -1
  0
DIMSTYLE
105
32
330
2E
100
AcDbSymbolTableRecord
100
AcDbDimStyleTableRecord
  2
ISO-35
 70
     0
 41
30.0
 42
8.0
 43
3.75
 44
1.25
 73
     0
 77
     1
 78
     8
140
35.0
141
2.5
143
0.03937007874016
147
3.0
171
     3
176
   256
177
   256
178
   256
271
     2
272
     2
274
     3
283
     0
284
     8
340
20
345
24
346
24
347
24
371
    -1
372
    -1
  0
DIMSTYLE
105
33
330
2E
100
AcDbSymbolTableRecord
100
AcDbDimStyleTableRecord
  2
ISO-45
 70
     0
 41
35.0
 42
2.0
 43
3.75
 44
2.0
 73
     0
 77
     1
 78
     8
140
45.0
141
2.5
143
0.03937007874016
147
3.0
171
     3
176
   256
177
   256
178
   256
271
     2
272
     2
274
     3
283
     0
284
     8
340
20
345
24
346
24
347
24
371
    -1
372
    -1
  0
ENDTAB
  0
TABLE
  2
BLOCK_RECORD
  5
1
330
0
100
AcDbSymbolTable
 70
    24
  0
BLOCK_RECORD
  5
2
102
{ACAD_XDICTIONARY
360
3
102
}
330
1
100
AcDbSymbolTableRecord
100
AcDbBlockTableRecord
  2
*Model_Space
340
10
 70
     0
280
     1
281
     0
  0
BLOCK_RECORD
  5
14
330
1
100
AcDbSymbolTableRecord
100
AcDbBlockTableRecord
  2
*Paper_Space
340
17
 70
     0
280
     1
281
     0
  0
BLOCK_RECORD
  5
A3
330
1
100
AcDbSymbolTableRecord
100
AcDbBlockTableRecord
  2
*D0
340
0
 70
     0
280
     1
281
     0
  0
BLOCK_RECORD
  5
B4
330
1
100
AcDbSymbolTableRecord
100
AcDbBlockTableRecord
  2
*D1
340
0
 70
     0
280
     1
281
     0
  0
BLOCK_RECORD
  5
C4
330
1
100
AcDbSymbolTableRecord
100
AcDbBlockTableRecord
  2
*D2
340
0
 70
     0
280
     1
281
     0
  0
BLOCK_RECORD
  5
D4
330
1
100
AcDbSymbolTableRecord
100
AcDbBlockTableRecord
  2
*D3
340
0
 70
     0
280
     1
281
     0
  0
BLOCK_RECORD
  5
E4
330
1
100
AcDbSymbolTableRecord
100
AcDbBlockTableRecord
  2
*D4
340
0
 70
     0
280
     1
281
     0
  0
BLOCK_RECORD
  5
F4
330
1
100
AcDbSymbolTableRecord
100
AcDbBlockTableRecord
  2
*D5
340
0
 70
     0
280
     1
281
     0
  0
BLOCK_RECORD
  5
104
330
1
100
AcDbSymbolTableRecord
100
AcDbBlockTableRecord
  2
*D6
340
0
 70
     0
280
     1
281
     0
  0
BLOCK_RECORD
  5
110
330
1
100
AcDbSymbolTableRecord
100
AcDbBlockTableRecord
  2
*D7
340
0
 70
     0
280
     1
281
     0
  0
BLOCK_RECORD
  5
11B
330
1
100
AcDbSymbolTableRecord
100
AcDbBlockTableRecord
  2
*D8
340
0
 70
     0
280
     1
281
     0
  0
BLOCK_RECORD
  5
126
330
1
100
AcDbSymbolTableRecord
100
AcDbBlockTableRecord
  2
*D9
340
0
 70
     0
280
     1
281
     0
  0
BLOCK_RECORD
  5
131
330
1
100
AcDbSymbolTableRecord
100
AcDbBlockTableRecord
  2
*D10
340
0
 70
     0
280
     1
281
     0
  0
BLOCK_RECORD
  5
13C
330
1
100
AcDbSymbolTableRecord
100
AcDbBlockTableRecord
  2
*D11
340
0
 70
     0
280
     1
281
     0
  0
BLOCK_RECORD
  5
147
330
1
100
AcDbSymbolTableRecord
100
AcDbBlockTableRecord
  2
*D12
340
0
 70
     0
280
     1
281
     0
  0
BLOCK_RECORD
  5
152
330
1
100
AcDbSymbolTableRecord
100
AcDbBlockTableRecord
  2
*D13
340
0
 70
     0
280
     1
281
     0
  0
BLOCK_RECORD
  5
15D
330
1
100
AcDbSymbolTableRecord
100
AcDbBlockTableRecord
  2
*D14
340
0
 70
     0
280
     1
281
     0
  0
BLOCK_RECORD
  5
168
330
1
100
AcDbSymbolTableRecord
100
AcDbBlockTableRecord
  2
*D15
340
0
 70
     0
280
     1
281
     0
  0
BLOCK_RECORD
  5
178
330
1
100
AcDbSymbolTableRecord
100
AcDbBlockTableRecord
  2
*D16
340
0
 70
     0
280
     1
281
     0
  0
BLOCK_RECORD
  5
188
330
1
100
AcDbSymbolTableRecord
100
AcDbBlockTableRecord
  2
*D17
340
0
 70
     0
280
     1
281
     0
  0
BLOCK_RECORD
  5
198
330
1
100
AcDbSymbolTableRecord
100
AcDbBlockTableRecord
  2
*D18
340
0
 70
     0
280
     1
281
     0
  0
BLOCK_RECORD
  5
1A8
330
1
100
AcDbSymbolTableRecord
100
AcDbBlockTableRecord
  2
*D19
340
0
 70
     0
280
     1
281
     0
  0
BLOCK_RECORD
  5
1B6
330
1
100
AcDbSymbolTableRecord
100
AcDbBlockTableRecord
  2
*D20
340
0
 70
     0
280
     1
281
     0
  0
BLOCK_RECORD
  5
1C6
330
1
100
AcDbSymbolTableRecord
100
AcDbBlockTableRecord
  2
*D21
340
0
 70
     0
280
     1
281
     0
  0
BLOCK_RECORD
  5
1D6
330
1
100
AcDbSymbolTableRecord
100
AcDbBlockTableRecord
  2
*D22
340
0
 70
     0
280
     1
281
     0
  0
BLOCK_RECORD
  5
1E6
330
1
100
AcDbSymbolTableRecord
100
AcDbBlockTableRecord
  2
*D23
340
0
 70
     0
280
     1
281
     0
  0
ENDTAB
  0
ENDSEC
  0
SECTION
  2
BLOCKS
  0
BLOCK
  5
5
330
2
100
AcDbEntity
  8
0
100
AcDbBlockBegin
  2
*Model_Space
 70
     0
 10
0.0
 20
0.0
 30
0.0
  3
*Model_Space
  1

  0
ENDBLK
  5
F
330
2
100
AcDbEntity
  8
0
100
AcDbBlockEnd
  0
BLOCK
  5
15
330
14
100
AcDbEntity
 67
     1
  8
0
100
AcDbBlockBegin
  2
*Paper_Space
 70
     0
 10
0.0
 20
0.0
 30
0.0
  3
*Paper_Space
  1

  0
ENDBLK
  5
16
330
14
100
AcDbEntity
 67
     1
  8
0
100
AcDbBlockEnd
  0
BLOCK
  5
A4
330
A3
100
AcDbEntity
  8
0
 62
     0
370
   100
100
AcDbBlockBegin
  2
*D0
 70
     1
 10
0.0
 20
0.0
 30
0.0
  3
*D0
  1

  0
LINE
  5
A5
330
A3
100
AcDbEntity
  8
标注
 62
     2
440
 16777216
100
AcDbLine
 10
-25402.08167548975
 20
26827.82936694484
 30
0.0
 11
-25696.2719677849
 21
26827.82936694484
 31
0.0
  0
LINE
  5
A6
330
A3
100
AcDbEntity
  8
标注
 62
     2
440
 16777216
100
AcDbLine
 10
-25580.20563078259
 20
26377.82939154996
 30
0.0
 11
-25696.2719677849
 21
26377.82939154996
 31
0.0
  0
LINE
  5
A7
330
A3
100
AcDbEntity
  8
标注
 62
     2
440
 16777216
100
AcDbLine
 10
-25696.09196778491
 20
26802.82936694484
 30
0.0
 11
-25696.09196778491
 21
26687.60064817314
 31
0.0
  0
LINE
  5
A8
330
A3
100
AcDbEntity
  8
标注
 62
     2
440
 16777216
100
AcDbLine
 10
-25696.09196778491
 20
26402.82939154996
 30
0.0
 11
-25696.09196778491
 21
26518.05811032166
 31
0.0
  0
SOLID
  5
A9
330
A3
100
AcDbEntity
  8
标注
 62
     2
440
 16777216
370
   100
100
AcDbTrace
 10
-25700.25863445157
 20
26802.82936694484
 30
0.0
 11
-25691.92530111824
 21
26802.82936694484
 31
0.0
 12
-25696.09196778491
 22
26827.82936694484
 32
0.0
 13
-25696.09196778491
 23
26827.82936694484
 33
0.0
  0
SOLID
  5
AA
330
A3
100
AcDbEntity
  8
标注
 62
     2
440
 16777216
370
   100
100
AcDbTrace
 10
-25700.25863445157
 20
26402.82939154996
 30
0.0
 11
-25691.92530111824
 21
26402.82939154996
 31
0.0
 12
-25696.09196778491
 22
26377.82939154996
 32
0.0
 13
-25696.09196778491
 23
26377.82939154996
 33
0.0
  0
MTEXT
  5
AB
330
A3
100
AcDbEntity
  8
标注
 62
     2
440
 16777216
370
   100
100
AcDbMText
 10
-25696.09196778491
 20
26602.82937924739
 30
0.0
 40
25.0
 41
0.0
 46
0.0
 71
     5
 72
     1
  1
\A1;450.00 [17.72]
 11
0.0000000000000001
 21
1.0
 31
0.0
 73
     1
 44
1.0
  0
POINT
  5
AC
330
A3
100
AcDbEntity
  8
Defpoints
 62
     0
440
 16777216
370
   100
100
AcDbPoint
 10
-25400.08167548975
 20
26827.82936694484
 30
0.0
  0
POINT
  5
AE
330
A3
100
AcDbEntity
  8
Defpoints
 62
     0
440
 16777216
370
   100
100
AcDbPoint
 10
-25578.20563078259
 20
26377.82939154996
 30
0.0
  0
POINT
  5
AF
330
A3
100
AcDbEntity
  8
Defpoints
 62
     0
440
 16777216
370
   100
100
AcDbPoint
 10
-25696.09196778491
 20
26377.82939154996
 30
0.0
  0
ENDBLK
  5
B0
330
A3
100
AcDbEntity
  8
0
 62
     0
370
   100
100
AcDbBlockEnd
  0
BLOCK
  5
B5
330
B4
100
AcDbEntity
  8
0
 62
     0
370
   100
100
AcDbBlockBegin
  2
*D1
 70
     1
 10
0.0
 20
0.0
 30
0.0
  3
*D1
  1

  0
LINE
  5
B6
330
B4
100
AcDbEntity
  8
标注
 62
     2
440
 16777216
100
AcDbLine
 10
-24868.20563078258
 20
26755.82939154996
 30
0.0
 11
-24787.37521885139
 21
26755.82939154996
 31
0.0
  0
LINE
  5
B7
330
B4
100
AcDbEntity
  8
标注
 62
     2
440
 16777216
100
AcDbLine
 10
-24870.20563078258
 20
26377.82939154996
 30
0.0
 11
-24787.37521885139
 21
26377.82939154996
 31
0.0
  0
LINE
  5
B8
330
B4
100
AcDbEntity
  8
标注
 62
     2
440
 16777216
100
AcDbLine
 10
-24787.55521885139
 20
26730.82939154996
 30
0.0
 11
-24787.55521885139
 21
26651.2421529054
 31
0.0
  0
LINE
  5
B9
330
B4
100
AcDbEntity
  8
标注
 62
     2
440
 16777216
100
AcDbLine
 10
-24787.55521885139
 20
26402.82939154996
 30
0.0
 11
-24787.55521885139
 21
26482.41663019452
 31
0.0
  0
SOLID
  5
BA
330
B4
100
AcDbEntity
  8
标注
 62
     2
440
 16777216
370
   100
100
AcDbTrace
 10
-24791.72188551806
 20
26730.82939154996
 30
0.0
 11
-24783.38855218472
 21
26730.82939154996
 31
0.0
 12
-24787.55521885139
 22
26755.82939154996
 32
0.0
 13
-24787.55521885139
 23
26755.82939154996
 33
0.0
  0
SOLID
  5
BB
330
B4
100
AcDbEntity
  8
标注
 62
     2
440
 16777216
370
   100
100
AcDbTrace
 10
-24791.72188551806
 20
26402.82939154996
 30
0.0
 11
-24783.38855218472
 21
26402.82939154996
 31
0.0
 12
-24787.55521885139
 22
26377.82939154996
 32
0.0
 13
-24787.55521885139
 23
26377.82939154996
 33
0.0
  0
MTEXT
  5
BC
330
B4
100
AcDbEntity
  8
标注
 62
     2
440
 16777216
370
   100
100
AcDbMText
 10
-24787.5552188514
 20
26566.82939154995
 30
0.0
 40
25.0
 41
0.0
 46
0.0
 71
     5
 72
     1
  1
\A1;378.00 [14.88]
 11
0.0000000000000001
 21
1.0
 31
0.0
 73
     1
 44
1.0
  0
POINT
  5
BD
330
B4
100
AcDbEntity
  8
Defpoints
 62
     0
440
 16777216
370
   100
100
AcDbPoint
 10
-24870.20563078258
 20
26755.82939154996
 30
0.0
  0
POINT
  5
BE
330
B4
100
AcDbEntity
  8
Defpoints
 62
     0
440
 16777216
370
   100
100
AcDbPoint
 10
-24872.20563078258
 20
26377.82939154996
 30
0.0
  0
POINT
  5
BF
330
B4
100
AcDbEntity
  8
Defpoints
 62
     0
440
 16777216
370
   100
100
AcDbPoint
 10
-24787.55521885139
 20
26377.82939154996
 30
0.0
  0
ENDBLK
  5
C0
330
B4
100
AcDbEntity
  8
0
 62
     0
370
   100
100
AcDbBlockEnd
  0
BLOCK
  5
C5
330
C4
100
AcDbEntity
  8
0
 62
     0
370
   100
100
AcDbBlockBegin
  2
*D2
 70
     1
 10
0.0
 20
0.0
 30
0.0
  3
*D2
  1

  0
LINE
  5
C6
330
C4
100
AcDbEntity
  8
标注
 62
     2
440
 16777216
100
AcDbLine
 10
-25601.20563078259
 20
26400.82939154996
 30
0.0
 11
-25601.20563078259
 21
26316.316071624
 31
0.0
  0
LINE
  5
C7
330
C4
100
AcDbEntity
  8
标注
 62
     2
440
 16777216
100
AcDbLine
 10
-24847.20563078258
 20
26400.82939154996
 30
0.0
 11
-24847.20563078258
 21
26316.316071624
 31
0.0
  0
LINE
  5
C8
330
C4
100
AcDbEntity
  8
标注
 62
     2
440
 16777216
100
AcDbLine
 10
-25576.20563078259
 20
26316.496071624
 30
0.0
 11
-25308.66759905944
 21
26316.496071624
 31
0.0
  0
LINE
  5
C9
330
C4
100
AcDbEntity
  8
标注
 62
     2
440
 16777216
100
AcDbLine
 10
-24872.20563078258
 20
26316.496071624
 30
0.0
 11
-25139.74366250573
 21
26316.496071624
 31
0.0
  0
SOLID
  5
CA
330
C4
100
AcDbEntity
  8
标注
 62
     2
440
 16777216
370
   100
100
AcDbTrace
 10
-25576.20563078259
 20
26320.66273829067
 30
0.0
 11
-25576.20563078259
 21
26312.32940495733
 31
0.0
 12
-25601.20563078259
 22
26316.496071624
 32
0.0
 13
-25601.20563078259
 23
26316.496071624
 33
0.0
  0
SOLID
  5
CB
330
C4
100
AcDbEntity
  8
标注
 62
     2
440
 16777216
370
   100
100
AcDbTrace
 10
-24872.20563078258
 20
26320.66273829067
 30
0.0
 11
-24872.20563078258
 21
26312.32940495733
 31
0.0
 12
-24847.20563078258
 22
26316.496071624
 32
0.0
 13
-24847.20563078258
 23
26316.496071624
 33
0.0
  0
MTEXT
  5
CC
330
C4
100
AcDbEntity
  8
标注
 62
     2
440
 16777216
370
   100
100
AcDbMText
 10
-25224.20563078259
 20
26316.496071624
 30
0.0
 40
25.0
 41
0.0
 46
0.0
 71
     5
 72
     1
  1
\A1;754.00 [29.68]
 73
     1
 44
1.0
  0
POINT
  5
CD
330
C4
100
AcDbEntity
  8
Defpoints
 62
     0
440
 16777216
370
   100
100
AcDbPoint
 10
-25601.20563078259
 20
26402.82939154996
 30
0.0
  0
POINT
  5
CE
330
C4
100
AcDbEntity
  8
Defpoints
 62
     0
440
 16777216
370
   100
100
AcDbPoint
 10
-24847.20563078258
 20
26402.82939154996
 30
0.0
  0
POINT
  5
CF
330
C4
100
AcDbEntity
  8
Defpoints
 62
     0
440
 16777216
370
   100
100
AcDbPoint
 10
-24847.20563078258
 20
26316.496071624
 30
0.0
  0
ENDBLK
  5
D0
330
C4
100
AcDbEntity
  8
0
 62
     0
370
   100
100
AcDbBlockEnd
  0
BLOCK
  5
D5
330
D4
100
AcDbEntity
  8
0
 62
     0
370
   100
100
AcDbBlockBegin
  2
*D3
 70
     1
 10
0.0
 20
0.0
 30
0.0
  3
*D3
  1

  0
LINE
  5
D6
330
D4
100
AcDbEntity
  8
标注
 62
     2
440
 16777216
100
AcDbLine
 10
-24865.7479807068
 20
26161.32067435604
 30
0.0
 11
-24769.68375367949
 21
26161.32067435604
 31
0.0
  0
LINE
  5
D7
330
D4
100
AcDbEntity
  8
标注
 62
     2
440
 16777216
100
AcDbLine
 10
-24867.7479807068
 20
25777.32067435604
 30
0.0
 11
-24769.68375367949
 21
25777.32067435604
 31
0.0
  0
LINE
  5
D8
330
D4
100
AcDbEntity
  8
标注
 62
     2
440
 16777216
100
AcDbLine
 10
-24769.86375367948
 20
26136.32067435604
 30
0.0
 11
-24769.86375367948
 21
26053.73343571148
 31
0.0
  0
LINE
  5
D9
330
D4
100
AcDbEntity
  8
标注
 62
     2
440
 16777216
100
AcDbLine
 10
-24769.86375367948
 20
25802.32067435604
 30
0.0
 11
-24769.86375367948
 21
25884.90791300059
 31
0.0
  0
SOLID
  5
DA
330
D4
100
AcDbEntity
  8
标注
 62
     2
440
 16777216
370
   100
100
AcDbTrace
 10
-24774.03042034616
 20
26136.32067435604
 30
0.0
 11
-24765.69708701282
 21
26136.32067435604
 31
0.0
 12
-24769.86375367948
 22
26161.32067435604
 32
0.0
 13
-24769.86375367948
 23
26161.32067435604
 33
0.0
  0
SOLID
  5
DB
330
D4
100
AcDbEntity
  8
标注
 62
     2
440
 16777216
370
   100
100
AcDbTrace
 10
-24774.03042034616
 20
25802.32067435604
 30
0.0
 11
-24765.69708701282
 21
25802.32067435604
 31
0.0
 12
-24769.86375367948
 22
25777.32067435604
 32
0.0
 13
-24769.86375367948
 23
25777.32067435604
 33
0.0
  0
MTEXT
  5
DC
330
D4
100
AcDbEntity
  8
标注
 62
     2
440
 16777216
370
   100
100
AcDbMText
 10
-24769.86375367949
 20
25969.32067435603
 30
0.0
 40
25.0
 41
0.0
 46
0.0
 71
     5
 72
     1
  1
\A1;384.00 [15.12]
 11
0.0000000000000001
 21
1.0
 31
0.0
 73
     1
 44
1.0
  0
POINT
  5
DD
330
D4
100
AcDbEntity
  8
Defpoints
 62
     0
440
 16777216
370
   100
100
AcDbPoint
 10
-24867.7479807068
 20
26161.32067435604
 30
0.0
  0
POINT
  5
DE
330
D4
100
AcDbEntity
  8
Defpoints
 62
     0
440
 16777216
370
   100
100
AcDbPoint
 10
-24869.7479807068
 20
25777.32067435604
 30
0.0
  0
POINT
  5
DF
330
D4
100
AcDbEntity
  8
Defpoints
 62
     0
440
 16777216
370
   100
100
AcDbPoint
 10
-24769.86375367948
 20
25777.32067435604
 30
0.0
  0
ENDBLK
  5
E0
330
D4
100
AcDbEntity
  8
0
 62
     0
370
   100
100
AcDbBlockEnd
  0
BLOCK
  5
E5
330
E4
100
AcDbEntity
  8
0
 62
     0
370
   100
100
AcDbBlockBegin
  2
*D4
 70
     1
 10
0.0
 20
0.0
 30
0.0
  3
*D4
  1

  0
LINE
  5
E6
330
E4
100
AcDbEntity
  8
标注
 62
     2
440
 16777216
100
AcDbLine
 10
-25399.62283441314
 20
26233.32064951449
 30
0.0
 11
-25696.4285815056
 21
26233.32064951449
 31
0.0
  0
LINE
  5
E7
330
E4
100
AcDbEntity
  8
标注
 62
     2
440
 16777216
100
AcDbLine
 10
-25575.7479807068
 20
25777.32067435604
 30
0.0
 11
-25696.4285815056
 21
25777.32067435604
 31
0.0
  0
LINE
  5
E8
330
E4
100
AcDbEntity
  8
标注
 62
     2
440
 16777216
100
AcDbLine
 10
-25696.2485815056
 20
26208.3206495145
 30
0.0
 11
-25696.2485815056
 21
26090.091930861
 31
0.0
  0
LINE
  5
E9
330
E4
100
AcDbEntity
  8
标注
 62
     2
440
 16777216
100
AcDbLine
 10
-25696.2485815056
 20
25802.32067435604
 30
0.0
 11
-25696.2485815056
 21
25920.54939300953
 31
0.0
  0
SOLID
  5
EA
330
E4
100
AcDbEntity
  8
标注
 62
     2
440
 16777216
370
   100
100
AcDbTrace
 10
-25700.41524817227
 20
26208.3206495145
 30
0.0
 11
-25692.08191483894
 21
26208.3206495145
 31
0.0
 12
-25696.2485815056
 22
26233.32064951449
 32
0.0
 13
-25696.2485815056
 23
26233.32064951449
 33
0.0
  0
SOLID
  5
EB
330
E4
100
AcDbEntity
  8
标注
 62
     2
440
 16777216
370
   100
100
AcDbTrace
 10
-25700.41524817227
 20
25802.32067435604
 30
0.0
 11
-25692.08191483894
 21
25802.32067435604
 31
0.0
 12
-25696.2485815056
 22
25777.32067435604
 32
0.0
 13
-25696.2485815056
 23
25777.32067435604
 33
0.0
  0
MTEXT
  5
EC
330
E4
100
AcDbEntity
  8
标注
 62
     2
440
 16777216
370
   100
100
AcDbMText
 10
-25696.24858150561
 20
26005.32066193526
 30
0.0
 40
25.0
 41
0.0
 46
0.0
 71
     5
 72
     1
  1
\A1;456.00 [17.95]
 11
0.0000000000000001
 21
1.0
 31
0.0
 73
     1
 44
1.0
  0
POINT
  5
ED
330
E4
100
AcDbEntity
  8
Defpoints
 62
     0
440
 16777216
370
   100
100
AcDbPoint
 10
-25397.62283441314
 20
26233.32064951449
 30
0.0
  0
POINT
  5
EE
330
E4
100
AcDbEntity
  8
Defpoints
 62
     0
440
 16777216
370
   100
100
AcDbPoint
 10
-25573.7479807068
 20
25777.32067435604
 30
0.0
  0
POINT
  5
EF
330
E4
100
AcDbEntity
  8
Defpoints
 62
     0
440
 16777216
370
   100
100
AcDbPoint
 10
-25696.2485815056
 20
25777.32067435604
 30
0.0
  0
ENDBLK
  5
F0
330
E4
100
AcDbEntity
  8
0
 62
     0
370
   100
100
AcDbBlockEnd
  0
BLOCK
  5
F5
330
F4
100
AcDbEntity
  8
0
 62
     0
370
   100
100
AcDbBlockBegin
  2
*D5
 70
     1
 10
0.0
 20
0.0
 30
0.0
  3
*D5
  1

  0
LINE
  5
F6
330
F4
100
AcDbEntity
  8
标注
 62
     2
440
 16777216
100
AcDbLine
 10
-25601.7479807068
 20
25803.32067435604
 30
0.0
 11
-25601.7479807068
 21
25728.06763525737
 31
0.0
  0
LINE
  5
F7
330
F4
100
AcDbEntity
  8
标注
 62
     2
440
 16777216
100
AcDbLine
 10
-24841.7479807068
 20
25803.32067435604
 30
0.0
 11
-24841.7479807068
 21
25728.06763525737
 31
0.0
  0
LINE
  5
F8
330
F4
100
AcDbEntity
  8
标注
 62
     2
440
 16777216
100
AcDbLine
 10
-25576.7479807068
 20
25728.24763525737
 30
0.0
 11
-25306.20994898366
 21
25728.24763525737
 31
0.0
  0
LINE
  5
F9
330
F4
100
AcDbEntity
  8
标注
 62
     2
440
 16777216
100
AcDbLine
 10
-24866.7479807068
 20
25728.24763525737
 30
0.0
 11
-25137.28601242994
 21
25728.24763525737
 31
0.0
  0
SOLID
  5
FA
330
F4
100
AcDbEntity
  8
标注
 62
     2
440
 16777216
370
   100
100
AcDbTrace
 10
-25576.7479807068
 20
25732.41430192404
 30
0.0
 11
-25576.7479807068
 21
25724.0809685907
 31
0.0
 12
-25601.7479807068
 22
25728.24763525737
 32
0.0
 13
-25601.7479807068
 23
25728.24763525737
 33
0.0
  0
SOLID
  5
FB
330
F4
100
AcDbEntity
  8
标注
 62
     2
440
 16777216
370
   100
100
AcDbTrace
 10
-24866.7479807068
 20
25732.41430192404
 30
0.0
 11
-24866.7479807068
 21
25724.0809685907
 31
0.0
 12
-24841.7479807068
 22
25728.24763525737
 32
0.0
 13
-24841.7479807068
 23
25728.24763525737
 33
0.0
  0
MTEXT
  5
FC
330
F4
100
AcDbEntity
  8
标注
 62
     2
440
 16777216
370
   100
100
AcDbMText
 10
-25221.7479807068
 20
25728.24763525737
 30
0.0
 40
25.0
 41
0.0
 46
0.0
 71
     5
 72
     1
  1
\A1;760.00 [29.92]
 73
     1
 44
1.0
  0
POINT
  5
FD
330
F4
100
AcDbEntity
  8
Defpoints
 62
     0
440
 16777216
370
   100
100
AcDbPoint
 10
-25601.7479807068
 20
25805.32067435604
 30
0.0
  0
POINT
  5
FE
330
F4
100
AcDbEntity
  8
Defpoints
 62
     0
440
 16777216
370
   100
100
AcDbPoint
 10
-24841.7479807068
 20
25805.32067435604
 30
0.0
  0
POINT
  5
FF
330
F4
100
AcDbEntity
  8
Defpoints
 62
     0
440
 16777216
370
   100
100
AcDbPoint
 10
-24841.7479807068
 20
25728.24763525737
 30
0.0
  0
ENDBLK
  5
100
330
F4
100
AcDbEntity
  8
0
 62
     0
370
   100
100
AcDbBlockEnd
  0
BLOCK
  5
105
330
104
100
AcDbEntity
  8
0
 62
     0
370
   100
100
AcDbBlockBegin
  2
*D6
 70
     1
 10
0.0
 20
0.0
 30
0.0
  3
*D6
  1

  0
LINE
  5
106
330
104
100
AcDbEntity
  8
标注
 62
     2
440
 16777216
100
AcDbLine
 10
-25553.41723781714
 20
26133.73488282399
 30
0.0
 11
-25575.96244794905
 21
26144.53828507087
 31
0.0
  0
MTEXT
  5
107
330
104
100
AcDbEntity
  8
标注
 62
     2
440
 16777216
370
   100
100
AcDbMText
 10
-25472.65272045417
 20
26095.03346628176
 30
0.0
 40
25.0
 41
0.0
 46
0.0
 71
     5
 72
     1
  1
\A1;R33.00 [R1.30]
 11
0.9018084052765306
 21
-0.4321360898751698
 31
0.0
 73
     1
 44
1.0
  0
SOLID
  5
108
330
104
100
AcDbEntity
  8
标注
 62
     2
440
 16777216
370
   100
100
AcDbTrace
 10
-25574.16188090791
 20
26148.29582009285
 30
0.0
 11
-25577.7630149902
 21
26140.78075004888
 31
0.0
 12
-25598.50765808096
 22
26155.34168731775
 32
0.0
 13
-25598.50765808096
 23
26155.34168731775
 33
0.0
  0
POINT
  5
109
330
104
100
AcDbEntity
  8
Defpoints
 62
     0
440
 16777216
370
   100
100
AcDbPoint
 10
-25598.50765808096
 20
26155.34168731775
 30
0.0
  0
POINT
  5
10A
330
104
100
AcDbEntity
  8
Defpoints
 62
     0
440
 16777216
370
   100
100
AcDbPoint
 10
-25568.74798070685
 20
26141.08119635187
 30
0.0
  0
ENDBLK
  5
10B
330
104
100
AcDbEntity
  8
0
 62
     0
370
   100
100
AcDbBlockEnd
  0
BLOCK
  5
111
330
110
100
AcDbEntity
  8
0
 62
     0
370
   100
100
AcDbBlockBegin
  2
*D7
 70
     1
 10
0.0
 20
0.0
 30
0.0
  3
*D7
  1

  0
LINE
  5
112
330
110
100
AcDbEntity
  8
标注
 62
     2
440
 16777216
100
AcDbLine
 10
-25210.83012746367
 20
26115.5179968202
 30
0.0
 11
-25202.68879970325
 21
26139.15522978638
 31
0.0
  0
MTEXT
  5
113
330
110
100
AcDbEntity
  8
标注
 62
     2
440
 16777216
370
   100
100
AcDbMText
 10
-25239.99509879977
 20
26030.84148677041
 30
0.0
 40
25.0
 41
0.0
 46
0.0
 71
     5
 72
     1
  1
\A1;R27.00 [R1.06]
 11
0.325653110416642
 21
0.9454893186472105
 31
0.0
 73
     1
 44
1.0
  0
SOLID
  5
114
330
110
100
AcDbEntity
  8
标注
 62
     2
440
 16777216
370
   100
100
AcDbTrace
 10
-25206.62833853095
 20
26140.51211774645
 30
0.0
 11
-25198.74926087555
 21
26137.79834182631
 31
0.0
 12
-25194.54747194283
 22
26162.79246275256
 32
0.0
 13
-25194.54747194283
 23
26162.79246275256
 33
0.0
  0
POINT
  5
115
330
110
100
AcDbEntity
  8
Defpoints
 62
     0
440
 16777216
370
   100
100
AcDbPoint
 10
-25194.54747194283
 20
26162.79246275256
 30
0.0
  0
POINT
  5
116
330
110
100
AcDbEntity
  8
Defpoints
 62
     0
440
 16777216
370
   100
100
AcDbPoint
 10
-25185.75483796158
 20
26188.32067435605
 30
0.0
  0
ENDBLK
  5
117
330
110
100
AcDbEntity
  8
0
 62
     0
370
   100
100
AcDbBlockEnd
  0
BLOCK
  5
11C
330
11B
100
AcDbEntity
  8
0
 62
     0
370
   100
100
AcDbBlockBegin
  2
*D8
 70
     1
 10
0.0
 20
0.0
 30
0.0
  3
*D8
  1

  0
LINE
  5
11D
330
11B
100
AcDbEntity
  8
标注
 62
     2
440
 16777216
100
AcDbLine
 10
-25341.83136025597
 20
26177.78270530647
 30
0.0
 11
-25336.74929747547
 21
26202.26070845002
 31
0.0
  0
MTEXT
  5
11E
330
11B
100
AcDbEntity
  8
标注
 62
     2
440
 16777216
370
   100
100
AcDbMText
 10
-25362.96358125197
 20
26075.99833263877
 30
0.0
 40
25.0
 41
0.0
 46
0.0
 71
     5
 72
     1
  1
\A1;R315.23 [R12.41]
 11
0.2032825112196527
 21
0.9791201257415924
 31
0.0
 73
     1
 44
1.0
  0
SOLID
  5
11F
330
11B
100
AcDbEntity
  8
标注
 62
     2
440
 16777216
370
   100
100
AcDbTrace
 10
-25340.82896466606
 20
26203.10771891343
 30
0.0
 11
-25332.66963028488
 21
26201.4136979866
 31
0.0
 12
-25331.66723469498
 22
26226.73871159356
 32
0.0
 13
-25331.66723469498
 23
26226.73871159356
 33
0.0
  0
POINT
  5
120
330
11B
100
AcDbEntity
  8
Defpoints
 62
     0
440
 16777216
370
   100
100
AcDbPoint
 10
-25331.66723469498
 20
26226.73871159356
 30
0.0
  0
POINT
  5
121
330
11B
100
AcDbEntity
  8
Defpoints
 62
     0
440
 16777216
370
   100
100
AcDbPoint
 10
-25395.74798070676
 20
25918.09067435601
 30
0.0
  0
ENDBLK
  5
122
330
11B
100
AcDbEntity
  8
0
 62
     0
370
   100
100
AcDbBlockEnd
  0
BLOCK
  5
127
330
126
100
AcDbEntity
  8
0
 62
     0
370
   100
100
AcDbBlockBegin
  2
*D9
 70
     1
 10
0.0
 20
0.0
 30
0.0
  3
*D9
  1

  0
LINE
  5
128
330
126
100
AcDbEntity
  8
标注
 62
     2
440
 16777216
100
AcDbLine
 10
-25557.11469648755
 20
25819.71976655248
 30
0.0
 11
-25576.01615582761
 21
25803.3571617838
 31
0.0
  0
MTEXT
  5
129
330
126
100
AcDbEntity
  8
标注
 62
     2
440
 16777216
370
   100
100
AcDbMText
 10
-25489.4033186772
 20
25878.3361142916
 30
0.0
 40
25.0
 41
0.0
 46
0.0
 71
     5
 72
     1
  1
\A1;R28.00 [R1.10]
 11
0.7560583736023553
 21
0.6545041907472875
 31
0.0
 73
     1
 44
1.0
  0
SOLID
  5
12A
330
126
100
AcDbEntity
  8
标注
 62
     2
440
 16777216
370
   100
100
AcDbTrace
 10
-25578.74325662239
 20
25806.50740500714
 30
0.0
 11
-25573.28905503283
 21
25800.20691856046
 31
0.0
 12
-25594.91761516767
 22
25786.99455701512
 32
0.0
 13
-25594.91761516767
 23
25786.99455701512
 33
0.0
  0
POINT
  5
12B
330
126
100
AcDbEntity
  8
Defpoints
 62
     0
440
 16777216
370
   100
100
AcDbPoint
 10
-25594.91761516767
 20
25786.99455701512
 30
0.0
  0
POINT
  5
12C
330
126
100
AcDbEntity
  8
Defpoints
 62
     0
440
 16777216
370
   100
100
AcDbPoint
 10
-25573.7479807068
 20
25805.32067435604
 30
0.0
  0
ENDBLK
  5
12D
330
126
100
AcDbEntity
  8
0
 62
     0
370
   100
100
AcDbBlockEnd
  0
BLOCK
  5
132
330
131
100
AcDbEntity
  8
0
 62
     0
370
   100
100
AcDbBlockBegin
  2
*D10
 70
     1
 10
0.0
 20
0.0
 30
0.0
  3
*D10
  1

  0
LINE
  5
133
330
131
100
AcDbEntity
  8
标注
 62
     2
440
 16777216
100
AcDbLine
 10
-25359.68744431783
 20
26774.98505462999
 30
0.0
 11
-25356.01526851179
 21
26799.71388648371
 31
0.0
  0
MTEXT
  5
134
330
131
100
AcDbEntity
  8
标注
 62
     2
440
 16777216
370
   100
100
AcDbMText
 10
-25374.95707675277
 20
26672.15768663447
 30
0.0
 40
25.0
 41
0.0
 46
0.0
 71
     5
 72
     1
  1
\A1;R312.23 [R12.29]
 11
0.1468870322415416
 21
0.9891532741487905
 31
0.0
 73
     1
 44
1.0
  0
SOLID
  5
135
330
131
100
AcDbEntity
  8
标注
 62
     2
440
 16777216
370
   100
100
AcDbTrace
 10
-25360.13674048742
 20
26800.32591578472
 30
0.0
 11
-25351.89379653617
 21
26799.1018571827
 31
0.0
 12
-25352.34309270576
 22
26824.44271833743
 32
0.0
 13
-25352.34309270576
 23
26824.44271833743
 33
0.0
  0
POINT
  5
136
330
131
100
AcDbEntity
  8
Defpoints
 62
     0
440
 16777216
370
   100
100
AcDbPoint
 10
-25352.34309270576
 20
26824.44271833743
 30
0.0
  0
POINT
  5
137
330
131
100
AcDbEntity
  8
Defpoints
 62
     0
440
 16777216
370
   100
100
AcDbPoint
 10
-25398.20563078254
 20
26515.5993915499
 30
0.0
  0
ENDBLK
  5
138
330
131
100
AcDbEntity
  8
0
 62
     0
370
   100
100
AcDbBlockEnd
  0
BLOCK
  5
13D
330
13C
100
AcDbEntity
  8
0
 62
     0
370
   100
100
AcDbBlockBegin
  2
*D11
 70
     1
 10
0.0
 20
0.0
 30
0.0
  3
*D11
  1

  0
LINE
  5
13E
330
13C
100
AcDbEntity
  8
标注
 62
     2
440
 16777216
100
AcDbLine
 10
-25177.11640681693
 20
26802.46901238547
 30
0.0
 11
-25190.98650834245
 21
26781.66948634106
 31
0.0
  0
MTEXT
  5
13F
330
13C
100
AcDbEntity
  8
标注
 62
     2
440
 16777216
370
   100
100
AcDbMText
 10
-25127.42904311843
 20
26876.97990283741
 30
0.0
 40
25.0
 41
0.0
 46
0.0
 71
     5
 72
     1
  1
\A1;R30.00 [R1.18]
 11
0.5548040610205601
 21
0.8319810417762504
 31
0.0
 73
     1
 44
1.0
  0
SOLID
  5
140
330
13C
100
AcDbEntity
  8
标注
 62
     2
440
 16777216
370
   100
100
AcDbTrace
 10
-25194.45309601652
 20
26783.98116992865
 30
0.0
 11
-25187.51992066838
 21
26779.35780275348
 31
0.0
 12
-25204.85660986796
 22
26760.86996029666
 32
0.0
 13
-25204.85660986796
 23
26760.86996029666
 33
0.0
  0
POINT
  5
141
330
13C
100
AcDbEntity
  8
Defpoints
 62
     0
440
 16777216
370
   100
100
AcDbPoint
 10
-25204.85660986796
 20
26760.86996029666
 30
0.0
  0
POINT
  5
142
330
13C
100
AcDbEntity
  8
Defpoints
 62
     0
440
 16777216
370
   100
100
AcDbPoint
 10
-25188.21248803735
 20
26785.82939154993
 30
0.0
  0
ENDBLK
  5
143
330
13C
100
AcDbEntity
  8
0
 62
     0
370
   100
100
AcDbBlockEnd
  0
BLOCK
  5
148
330
147
100
AcDbEntity
  8
0
 62
     0
370
   100
100
AcDbBlockBegin
  2
*D12
 70
     1
 10
0.0
 20
0.0
 30
0.0
  3
*D12
  1

  0
LINE
  5
149
330
147
100
AcDbEntity
  8
标注
 62
     2
440
 16777216
100
AcDbLine
 10
-24891.55543224515
 20
26418.65927415723
 30
0.0
 11
-24872.2056307826
 21
26402.82939154996
 31
0.0
  0
MTEXT
  5
14A
330
147
100
AcDbEntity
  8
标注
 62
     2
440
 16777216
370
   100
100
AcDbMText
 10
-24960.87292217085
 20
26475.36723213181
 30
0.0
 40
25.0
 41
0.0
 46
0.0
 71
     5
 72
     1
  1
\A1;R25.00 [R0.98]
 11
0.7739920585019321
 21
-0.6331953042908181
 31
0.0
 73
     1
 44
1.0
  0
SOLID
  5
14B
330
147
100
AcDbEntity
  8
标注
 62
     2
440
 16777216
370
   100
100
AcDbTrace
 10
-24869.56731701472
 20
26406.05435846038
 30
0.0
 11
-24874.84394455048
 21
26399.60442463953
 31
0.0
 12
-24852.85582932005
 22
26386.99950894269
 32
0.0
 13
-24852.85582932005
 23
26386.99950894269
 33
0.0
  0
POINT
  5
14C
330
147
100
AcDbEntity
  8
Defpoints
 62
     0
440
 16777216
370
   100
100
AcDbPoint
 10
-24852.85582932005
 20
26386.99950894269
 30
0.0
  0
POINT
  5
14D
330
147
100
AcDbEntity
  8
Defpoints
 62
     0
440
 16777216
370
   100
100
AcDbPoint
 10
-24872.20563078261
 20
26402.82939154996
 30
0.0
  0
ENDBLK
  5
14E
330
147
100
AcDbEntity
  8
0
 62
     0
370
   100
100
AcDbBlockEnd
  0
BLOCK
  5
153
330
152
100
AcDbEntity
  8
0
 62
     0
370
   100
100
AcDbBlockBegin
  2
*D13
 70
     1
 10
0.0
 20
0.0
 30
0.0
  3
*D13
  1

  0
LINE
  5
154
330
152
100
AcDbEntity
  8
标注
 62
     2
440
 16777216
100
AcDbLine
 10
-25556.55687613228
 20
26724.97323306946
 30
0.0
 11
-25574.86781944519
 21
26741.99408366488
 31
0.0
  0
MTEXT
  5
155
330
152
100
AcDbEntity
  8
标注
 62
     2
440
 16777216
370
   100
100
AcDbMText
 10
-25490.96092513096
 20
26663.99882762358
 30
0.0
 40
25.0
 41
0.0
 46
0.0
 71
     5
 72
     1
  1
\A1;R30.00 [R1.18]
 11
0.7324377325163099
 21
-0.6808340238166471
 31
0.0
 73
     1
 44
1.0
  0
SOLID
  5
156
330
152
100
AcDbEntity
  8
标注
 62
     2
440
 16777216
370
   100
100
AcDbTrace
 10
-25572.03101101262
 20
26745.04590755037
 30
0.0
 11
-25577.70462787777
 21
26738.94225977939
 31
0.0
 12
-25593.1787627581
 22
26759.0149342603
 32
0.0
 13
-25593.1787627581
 23
26759.0149342603
 33
0.0
  0
POINT
  5
157
330
152
100
AcDbEntity
  8
Defpoints
 62
     0
440
 16777216
370
   100
100
AcDbPoint
 10
-25593.1787627581
 20
26759.0149342603
 30
0.0
  0
POINT
  5
158
330
152
100
AcDbEntity
  8
Defpoints
 62
     0
440
 16777216
370
   100
100
AcDbPoint
 10
-25571.20563078263
 20
26738.58991354582
 30
0.0
  0
ENDBLK
  5
159
330
152
100
AcDbEntity
  8
0
 62
     0
370
   100
100
AcDbBlockEnd
  0
BLOCK
  5
15E
330
15D
100
AcDbEntity
  8
0
 62
     0
370
   100
100
AcDbBlockBegin
  2
*D14
 70
     1
 10
0.0
 20
0.0
 30
0.0
  3
*D14
  1

  0
LINE
  5
15F
330
15D
100
AcDbEntity
  8
标注
 62
     2
440
 16777216
100
AcDbLine
 10
-25560.78368605652
 20
26422.50586534143
 30
0.0
 11
-25576.20563078259
 21
26402.82939154996
 31
0.0
  0
MTEXT
  5
160
330
15D
100
AcDbEntity
  8
标注
 62
     2
440
 16777216
370
   100
100
AcDbMText
 10
-25505.53709863013
 20
26492.99360530369
 30
0.0
 40
25.0
 41
0.0
 46
0.0
 71
     5
 72
     1
  1
\A1;R25.00 [R0.98]
 11
0.6168777890425865
 21
0.7870589516585973
 31
0.0
 73
     1
 44
1.0
  0
SOLID
  5
161
330
15D
100
AcDbEntity
  8
标注
 62
     2
440
 16777216
370
   100
100
AcDbTrace
 10
-25579.48504308117
 20
26405.39971567097
 30
0.0
 11
-25572.92621848402
 21
26400.25906742896
 31
0.0
 12
-25591.62757550865
 22
26383.1529177585
 32
0.0
 13
-25591.62757550865
 23
26383.1529177585
 33
0.0
  0
POINT
  5
162
330
15D
100
AcDbEntity
  8
Defpoints
 62
     0
440
 16777216
370
   100
100
AcDbPoint
 10
-25591.62757550865
 20
26383.1529177585
 30
0.0
  0
POINT
  5
163
330
15D
100
AcDbEntity
  8
Defpoints
 62
     0
440
 16777216
370
   100
100
AcDbPoint
 10
-25576.20563078259
 20
26402.82939154997
 30
0.0
  0
ENDBLK
  5
164
330
15D
100
AcDbEntity
  8
0
 62
     0
370
   100
100
AcDbBlockEnd
  0
BLOCK
  5
169
330
168
100
AcDbEntity
  8
0
 62
     0
370
   100
100
AcDbBlockBegin
  2
*D15
 70
     1
 10
0.0
 20
0.0
 30
0.0
  3
*D15
  1

  0
LINE
  5
16A
330
168
100
AcDbEntity
  8
标注
 62
     2
440
 16777216
100
AcDbLine
 10
-24325.02557217135
 20
26827.82939154996
 30
0.0
 11
-24572.05571792474
 21
26827.82939154996
 31
0.0
  0
LINE
  5
16B
330
168
100
AcDbEntity
  8
标注
 62
     2
440
 16777216
100
AcDbLine
 10
-24501.02557217135
 20
26377.82939154996
 30
0.0
 11
-24572.05571792474
 21
26377.82939154996
 31
0.0
  0
LINE
  5
16C
330
168
100
AcDbEntity
  8
标注
 62
     2
440
 16777216
100
AcDbLine
 10
-24571.87571792474
 20
26802.82939154996
 30
0.0
 11
-24571.87571792474
 21
26687.6006604757
 31
0.0
  0
LINE
  5
16D
330
168
100
AcDbEntity
  8
标注
 62
     2
440
 16777216
100
AcDbLine
 10
-24571.87571792474
 20
26402.82939154996
 30
0.0
 11
-24571.87571792474
 21
26518.05812262422
 31
0.0
  0
SOLID
  5
16E
330
168
100
AcDbEntity
  8
标注
 62
     2
440
 16777216
370
   100
100
AcDbTrace
 10
-24576.04238459141
 20
26802.82939154996
 30
0.0
 11
-24567.70905125808
 21
26802.82939154996
 31
0.0
 12
-24571.87571792474
 22
26827.82939154996
 32
0.0
 13
-24571.87571792474
 23
26827.82939154996
 33
0.0
  0
SOLID
  5
16F
330
168
100
AcDbEntity
  8
标注
 62
     2
440
 16777216
370
   100
100
AcDbTrace
 10
-24576.04238459141
 20
26402.82939154996
 30
0.0
 11
-24567.70905125808
 21
26402.82939154996
 31
0.0
 12
-24571.87571792474
 22
26377.82939154996
 32
0.0
 13
-24571.87571792474
 23
26377.82939154996
 33
0.0
  0
MTEXT
  5
170
330
168
100
AcDbEntity
  8
标注
 62
     2
440
 16777216
370
   100
100
AcDbMText
 10
-24571.87571792475
 20
26602.82939154996
 30
0.0
 40
25.0
 41
0.0
 46
0.0
 71
     5
 72
     1
  1
\A1;450.00 [17.72]
 11
0.0000000000000001
 21
1.0
 31
0.0
 73
     1
 44
1.0
  0
POINT
  5
171
330
168
100
AcDbEntity
  8
Defpoints
 62
     0
440
 16777216
370
   100
100
AcDbPoint
 10
-24323.02557217135
 20
26827.82939154996
 30
0.0
  0
POINT
  5
172
330
168
100
AcDbEntity
  8
Defpoints
 62
     0
440
 16777216
370
   100
100
AcDbPoint
 10
-24499.02557217135
 20
26377.82939154996
 30
0.0
  0
POINT
  5
173
330
168
100
AcDbEntity
  8
Defpoints
 62
     0
440
 16777216
370
   100
100
AcDbPoint
 10
-24571.87571792474
 20
26377.82939154996
 30
0.0
  0
ENDBLK
  5
174
330
168
100
AcDbEntity
  8
0
 62
     0
370
   100
100
AcDbBlockEnd
  0
BLOCK
  5
179
330
178
100
AcDbEntity
  8
0
 62
     0
370
   100
100
AcDbBlockBegin
  2
*D16
 70
     1
 10
0.0
 20
0.0
 30
0.0
  3
*D16
  1

  0
LINE
  5
17A
330
178
100
AcDbEntity
  8
标注
 62
     2
440
 16777216
100
AcDbLine
 10
-24325.02557217135
 20
26855.82939154996
 30
0.0
 11
-24657.95445871586
 21
26855.82939154997
 31
0.0
  0
LINE
  5
17B
330
178
100
AcDbEntity
  8
标注
 62
     2
440
 16777216
100
AcDbLine
 10
-24524.02557217135
 20
26349.82939154996
 30
0.0
 11
-24657.95445871586
 21
26349.82939154996
 31
0.0
  0
LINE
  5
17C
330
178
100
AcDbEntity
  8
标注
 62
     2
440
 16777216
100
AcDbLine
 10
-24657.77445871585
 20
26830.82939154997
 30
0.0
 11
-24657.77445871585
 21
26687.13670950238
 31
0.0
  0
LINE
  5
17D
330
178
100
AcDbEntity
  8
标注
 62
     2
440
 16777216
100
AcDbLine
 10
-24657.77445871585
 20
26374.82939154996
 30
0.0
 11
-24657.77445871585
 21
26518.52207359755
 31
0.0
  0
SOLID
  5
17E
330
178
100
AcDbEntity
  8
标注
 62
     2
440
 16777216
370
   100
100
AcDbTrace
 10
-24661.94112538253
 20
26830.82939154997
 30
0.0
 11
-24653.60779204919
 21
26830.82939154997
 31
0.0
 12
-24657.77445871585
 22
26855.82939154997
 32
0.0
 13
-24657.77445871585
 23
26855.82939154997
 33
0.0
  0
SOLID
  5
17F
330
178
100
AcDbEntity
  8
标注
 62
     2
440
 16777216
370
   100
100
AcDbTrace
 10
-24661.94112538253
 20
26374.82939154996
 30
0.0
 11
-24653.60779204919
 21
26374.82939154996
 31
0.0
 12
-24657.77445871585
 22
26349.82939154996
 32
0.0
 13
-24657.77445871585
 23
26349.82939154996
 33
0.0
  0
MTEXT
  5
180
330
178
100
AcDbEntity
  8
标注
 62
     2
440
 16777216
370
   100
100
AcDbMText
 10
-24657.77445871586
 20
26602.82939154996
 30
0.0
 40
25.0
 41
0.0
 46
0.0
 71
     5
 72
     1
  1
\A1;506.00 [19.92]
 11
0.0000000000000001
 21
1.0
 31
0.0
 73
     1
 44
1.0
  0
POINT
  5
181
330
178
100
AcDbEntity
  8
Defpoints
 62
     0
440
 16777216
370
   100
100
AcDbPoint
 10
-24323.02557217135
 20
26855.82939154996
 30
0.0
  0
POINT
  5
182
330
178
100
AcDbEntity
  8
Defpoints
 62
     0
440
 16777216
370
   100
100
AcDbPoint
 10
-24522.02557217135
 20
26349.82939154996
 30
0.0
  0
POINT
  5
183
330
178
100
AcDbEntity
  8
Defpoints
 62
     0
440
 16777216
370
   100
100
AcDbPoint
 10
-24657.77445871585
 20
26349.82939154996
 30
0.0
  0
ENDBLK
  5
184
330
178
100
AcDbEntity
  8
0
 62
     0
370
   100
100
AcDbBlockEnd
  0
BLOCK
  5
189
330
188
100
AcDbEntity
  8
0
 62
     0
370
   100
100
AcDbBlockBegin
  2
*D17
 70
     1
 10
0.0
 20
0.0
 30
0.0
  3
*D17
  1

  0
LINE
  5
18A
330
188
100
AcDbEntity
  8
标注
 62
     2
440
 16777216
100
AcDbLine
 10
-24524.02557217135
 20
26398.82939154996
 30
0.0
 11
-24524.02557217135
 21
26324.0295888324
 31
0.0
  0
LINE
  5
18B
330
188
100
AcDbEntity
  8
标注
 62
     2
440
 16777216
100
AcDbLine
 10
-24118.02557217135
 20
26400.82939154996
 30
0.0
 11
-24118.02557217135
 21
26324.0295888324
 31
0.0
  0
LINE
  5
18C
330
188
100
AcDbEntity
  8
标注
 62
     2
440
 16777216
100
AcDbLine
 10
-24499.02557217135
 20
26324.20958883241
 30
0.0
 11
-24405.79684109709
 21
26324.20958883241
 31
0.0
  0
LINE
  5
18D
330
188
100
AcDbEntity
  8
标注
 62
     2
440
 16777216
100
AcDbLine
 10
-24143.02557217135
 20
26324.20958883241
 30
0.0
 11
-24236.25430324561
 21
26324.20958883241
 31
0.0
  0
SOLID
  5
18E
330
188
100
AcDbEntity
  8
标注
 62
     2
440
 16777216
370
   100
100
AcDbTrace
 10
-24499.02557217135
 20
26328.37625549907
 30
0.0
 11
-24499.02557217135
 21
26320.04292216574
 31
0.0
 12
-24524.02557217135
 22
26324.20958883241
 32
0.0
 13
-24524.02557217135
 23
26324.20958883241
 33
0.0
  0
SOLID
  5
18F
330
188
100
AcDbEntity
  8
标注
 62
     2
440
 16777216
370
   100
100
AcDbTrace
 10
-24143.02557217135
 20
26328.37625549907
 30
0.0
 11
-24143.02557217135
 21
26320.04292216574
 31
0.0
 12
-24118.02557217135
 22
26324.20958883241
 32
0.0
 13
-24118.02557217135
 23
26324.20958883241
 33
0.0
  0
MTEXT
  5
190
330
188
100
AcDbEntity
  8
标注
 62
     2
440
 16777216
370
   100
100
AcDbMText
 10
-24321.02557217135
 20
26324.20958883241
 30
0.0
 40
25.0
 41
0.0
 46
0.0
 71
     5
 72
     1
  1
\A1;406.00 [15.98]
 73
     1
 44
1.0
  0
POINT
  5
191
330
188
100
AcDbEntity
  8
Defpoints
 62
     0
440
 16777216
370
   100
100
AcDbPoint
 10
-24524.02557217135
 20
26400.82939154996
 30
0.0
  0
POINT
  5
192
330
188
100
AcDbEntity
  8
Defpoints
 62
     0
440
 16777216
370
   100
100
AcDbPoint
 10
-24118.02557217135
 20
26402.82939154996
 30
0.0
  0
POINT
  5
193
330
188
100
AcDbEntity
  8
Defpoints
 62
     0
440
 16777216
370
   100
100
AcDbPoint
 10
-24118.02557217135
 20
26324.20958883241
 30
0.0
  0
ENDBLK
  5
194
330
188
100
AcDbEntity
  8
0
 62
     0
370
   100
100
AcDbBlockEnd
  0
BLOCK
  5
199
330
198
100
AcDbEntity
  8
0
 62
     0
370
   100
100
AcDbBlockBegin
  2
*D18
 70
     1
 10
0.0
 20
0.0
 30
0.0
  3
*D18
  1

  0
LINE
  5
19A
330
198
100
AcDbEntity
  8
标注
 62
     2
440
 16777216
100
AcDbLine
 10
-24552.02557217135
 20
26377.82939154996
 30
0.0
 11
-24552.02557217135
 21
26250.27535695982
 31
0.0
  0
LINE
  5
19B
330
198
100
AcDbEntity
  8
标注
 62
     2
440
 16777216
100
AcDbLine
 10
-23742.02557217135
 20
26377.82939154996
 30
0.0
 11
-23742.02557217135
 21
26250.27535695982
 31
0.0
  0
LINE
  5
19C
330
198
100
AcDbEntity
  8
标注
 62
     2
440
 16777216
100
AcDbLine
 10
-24527.02557217135
 20
26250.45535695981
 30
0.0
 11
-24231.15012155851
 21
26250.45535695981
 31
0.0
  0
LINE
  5
19D
330
198
100
AcDbEntity
  8
标注
 62
     2
440
 16777216
100
AcDbLine
 10
-23767.02557217135
 20
26250.45535695981
 30
0.0
 11
-24062.90102278418
 21
26250.45535695981
 31
0.0
  0
SOLID
  5
19E
330
198
100
AcDbEntity
  8
标注
 62
     2
440
 16777216
370
   100
100
AcDbTrace
 10
-24527.02557217135
 20
26254.62202362648
 30
0.0
 11
-24527.02557217135
 21
26246.28869029315
 31
0.0
 12
-24552.02557217135
 22
26250.45535695981
 32
0.0
 13
-24552.02557217135
 23
26250.45535695981
 33
0.0
  0
SOLID
  5
19F
330
198
100
AcDbEntity
  8
标注
 62
     2
440
 16777216
370
   100
100
AcDbTrace
 10
-23767.02557217135
 20
26254.62202362648
 30
0.0
 11
-23767.02557217135
 21
26246.28869029315
 31
0.0
 12
-23742.02557217135
 22
26250.45535695981
 32
0.0
 13
-23742.02557217135
 23
26250.45535695981
 33
0.0
  0
MTEXT
  5
1A0
330
198
100
AcDbEntity
  8
标注
 62
     2
440
 16777216
370
   100
100
AcDbMText
 10
-24147.02557217135
 20
26250.45535695981
 30
0.0
 40
25.0
 41
0.0
 46
0.0
 71
     5
 72
     1
  1
\A1;810.00 [31.89]
 73
     1
 44
1.0
  0
POINT
  5
1A1
330
198
100
AcDbEntity
  8
Defpoints
 62
     0
440
 16777216
370
   100
100
AcDbPoint
 10
-24552.02557217135
 20
26379.82939154996
 30
0.0
  0
POINT
  5
1A2
330
198
100
AcDbEntity
  8
Defpoints
 62
     0
440
 16777216
370
   100
100
AcDbPoint
 10
-23742.02557217135
 20
26379.82939154996
 30
0.0
  0
POINT
  5
1A3
330
198
100
AcDbEntity
  8
Defpoints
 62
     0
440
 16777216
370
   100
100
AcDbPoint
 10
-23742.02557217135
 20
26250.45535695981
 30
0.0
  0
ENDBLK
  5
1A4
330
198
100
AcDbEntity
  8
0
 62
     0
370
   100
100
AcDbBlockEnd
  0
BLOCK
  5
1A9
330
1A8
100
AcDbEntity
  8
0
 62
     0
370
   100
100
AcDbBlockBegin
  2
*D19
 70
     1
 10
0.0
 20
0.0
 30
0.0
  3
*D19
  1

  0
LINE
  5
1AA
330
1A8
100
AcDbEntity
  8
标注
 62
     2
440
 16777216
100
AcDbLine
 10
-24088.02557217135
 20
26400.82939154996
 30
0.0
 11
-24088.02557217135
 21
26305.88850711415
 31
0.0
  0
LINE
  5
1AB
330
1A8
100
AcDbEntity
  8
标注
 62
     2
440
 16777216
100
AcDbLine
 10
-23770.02557217135
 20
26400.82939154996
 30
0.0
 11
-23770.02557217135
 21
26305.88850711415
 31
0.0
  0
LINE
  5
1AC
330
1A8
100
AcDbEntity
  8
标注
 62
     2
440
 16777216
100
AcDbLine
 10
-24063.02557217135
 20
26306.06850711414
 30
0.0
 11
-24013.43833352679
 21
26306.06850711414
 31
0.0
  0
LINE
  5
1AD
330
1A8
100
AcDbEntity
  8
标注
 62
     2
440
 16777216
100
AcDbLine
 10
-23795.02557217135
 20
26306.06850711414
 30
0.0
 11
-23844.6128108159
 21
26306.06850711414
 31
0.0
  0
SOLID
  5
1AE
330
1A8
100
AcDbEntity
  8
标注
 62
     2
440
 16777216
370
   100
100
AcDbTrace
 10
-24063.02557217135
 20
26310.23517378082
 30
0.0
 11
-24063.02557217135
 21
26301.90184044748
 31
0.0
 12
-24088.02557217135
 22
26306.06850711414
 32
0.0
 13
-24088.02557217135
 23
26306.06850711414
 33
0.0
  0
SOLID
  5
1AF
330
1A8
100
AcDbEntity
  8
标注
 62
     2
440
 16777216
370
   100
100
AcDbTrace
 10
-23795.02557217135
 20
26310.23517378082
 30
0.0
 11
-23795.02557217135
 21
26301.90184044748
 31
0.0
 12
-23770.02557217135
 22
26306.06850711414
 32
0.0
 13
-23770.02557217135
 23
26306.06850711414
 33
0.0
  0
MTEXT
  5
1B0
330
1A8
100
AcDbEntity
  8
标注
 62
     2
440
 16777216
370
   100
100
AcDbMText
 10
-23929.02557217135
 20
26306.06850711414
 30
0.0
 40
25.0
 41
0.0
 46
0.0
 71
     5
 72
     1
  1
\A1;318.00 [12.52]
 73
     1
 44
1.0
  0
POINT
  5
1B1
330
1A8
100
AcDbEntity
  8
Defpoints
 62
     0
440
 16777216
370
   100
100
AcDbPoint
 10
-24088.02557217135
 20
26402.82939154996
 30
0.0
  0
POINT
  5
1B2
330
1A8
100
AcDbEntity
  8
Defpoints
 62
     0
440
 16777216
370
   100
100
AcDbPoint
 10
-23770.02557217135
 20
26402.82939154996
 30
0.0
  0
POINT
  5
1B3
330
1A8
100
AcDbEntity
  8
Defpoints
 62
     0
440
 16777216
370
   100
100
AcDbPoint
 10
-23770.02557217135
 20
26306.06850711414
 30
0.0
  0
ENDBLK
  5
1B4
330
1A8
100
AcDbEntity
  8
0
 62
     0
370
   100
100
AcDbBlockEnd
  0
BLOCK
  5
1B7
330
1B6
100
AcDbEntity
  8
0
 62
     0
370
   100
100
AcDbBlockBegin
  2
*D20
 70
     1
 10
0.0
 20
0.0
 30
0.0
  3
*D20
  1

  0
LINE
  5
1B8
330
1B6
100
AcDbEntity
  8
标注
 62
     2
440
 16777216
100
AcDbLine
 10
-23791.02557217135
 20
26755.82939154996
 30
0.0
 11
-23690.26090314575
 21
26755.82939154996
 31
0.0
  0
LINE
  5
1B9
330
1B6
100
AcDbEntity
  8
标注
 62
     2
440
 16777216
100
AcDbLine
 10
-23791.02557217135
 20
26377.82939154996
 30
0.0
 11
-23690.26090314575
 21
26377.82939154996
 31
0.0
  0
LINE
  5
1BA
330
1B6
100
AcDbEntity
  8
标注
 62
     2
440
 16777216
100
AcDbLine
 10
-23690.44090314575
 20
26730.82939154996
 30
0.0
 11
-23690.44090314575
 21
26651.2421529054
 31
0.0
  0
LINE
  5
1BB
330
1B6
100
AcDbEntity
  8
标注
 62
     2
440
 16777216
100
AcDbLine
 10
-23690.44090314575
 20
26402.82939154996
 30
0.0
 11
-23690.44090314575
 21
26482.41663019452
 31
0.0
  0
SOLID
  5
1BC
330
1B6
100
AcDbEntity
  8
标注
 62
     2
440
 16777216
370
   100
100
AcDbTrace
 10
-23694.60756981242
 20
26730.82939154996
 30
0.0
 11
-23686.27423647908
 21
26730.82939154996
 31
0.0
 12
-23690.44090314575
 22
26755.82939154996
 32
0.0
 13
-23690.44090314575
 23
26755.82939154996
 33
0.0
  0
SOLID
  5
1BD
330
1B6
100
AcDbEntity
  8
标注
 62
     2
440
 16777216
370
   100
100
AcDbTrace
 10
-23694.60756981242
 20
26402.82939154996
 30
0.0
 11
-23686.27423647908
 21
26402.82939154996
 31
0.0
 12
-23690.44090314575
 22
26377.82939154996
 32
0.0
 13
-23690.44090314575
 23
26377.82939154996
 33
0.0
  0
MTEXT
  5
1BE
330
1B6
100
AcDbEntity
  8
标注
 62
     2
440
 16777216
370
   100
100
AcDbMText
 10
-23690.44090314575
 20
26566.82939154995
 30
0.0
 40
25.0
 41
0.0
 46
0.0
 71
     5
 72
     1
  1
\A1;378.00 [14.88]
 11
0.0000000000000001
 21
1.0
 31
0.0
 73
     1
 44
1.0
  0
POINT
  5
1BF
330
1B6
100
AcDbEntity
  8
Defpoints
 62
     0
440
 16777216
370
   100
100
AcDbPoint
 10
-23793.02557217135
 20
26755.82939154996
 30
0.0
  0
POINT
  5
1C0
330
1B6
100
AcDbEntity
  8
Defpoints
 62
     0
440
 16777216
370
   100
100
AcDbPoint
 10
-23793.02557217135
 20
26377.82939154996
 30
0.0
  0
POINT
  5
1C1
330
1B6
100
AcDbEntity
  8
Defpoints
 62
     0
440
 16777216
370
   100
100
AcDbPoint
 10
-23690.44090314575
 20
26377.82939154996
 30
0.0
  0
ENDBLK
  5
1C2
330
1B6
100
AcDbEntity
  8
0
 62
     0
370
   100
100
AcDbBlockEnd
  0
BLOCK
  5
1C7
330
1C6
100
AcDbEntity
  8
0
 62
     0
370
   100
100
AcDbBlockBegin
  2
*D21
 70
     1
 10
0.0
 20
0.0
 30
0.0
  3
*D21
  1

  0
LINE
  5
1C8
330
1C6
100
AcDbEntity
  8
标注
 62
     2
440
 16777216
100
AcDbLine
 10
-23770.02557217135
 20
26783.82939154996
 30
0.0
 11
-23629.70703185797
 21
26783.82939154996
 31
0.0
  0
LINE
  5
1C9
330
1C6
100
AcDbEntity
  8
标注
 62
     2
440
 16777216
100
AcDbLine
 10
-23770.02557217135
 20
26349.82939154996
 30
0.0
 11
-23629.70703185797
 21
26349.82939154996
 31
0.0
  0
LINE
  5
1CA
330
1C6
100
AcDbEntity
  8
标注
 62
     2
440
 16777216
100
AcDbLine
 10
-23629.88703185797
 20
26758.82939154996
 30
0.0
 11
-23629.88703185797
 21
26651.6006604757
 31
0.0
  0
LINE
  5
1CB
330
1C6
100
AcDbEntity
  8
标注
 62
     2
440
 16777216
100
AcDbLine
 10
-23629.88703185797
 20
26374.82939154996
 30
0.0
 11
-23629.88703185797
 21
26482.05812262422
 31
0.0
  0
SOLID
  5
1CC
330
1C6
100
AcDbEntity
  8
标注
 62
     2
440
 16777216
370
   100
100
AcDbTrace
 10
-23634.05369852463
 20
26758.82939154996
 30
0.0
 11
-23625.7203651913
 21
26758.82939154996
 31
0.0
 12
-23629.88703185797
 22
26783.82939154996
 32
0.0
 13
-23629.88703185797
 23
26783.82939154996
 33
0.0
  0
SOLID
  5
1CD
330
1C6
100
AcDbEntity
  8
标注
 62
     2
440
 16777216
370
   100
100
AcDbTrace
 10
-23634.05369852463
 20
26374.82939154996
 30
0.0
 11
-23625.7203651913
 21
26374.82939154996
 31
0.0
 12
-23629.88703185797
 22
26349.82939154996
 32
0.0
 13
-23629.88703185797
 23
26349.82939154996
 33
0.0
  0
MTEXT
  5
1CE
330
1C6
100
AcDbEntity
  8
标注
 62
     2
440
 16777216
370
   100
100
AcDbMText
 10
-23629.88703185798
 20
26566.82939154995
 30
0.0
 40
25.0
 41
0.0
 46
0.0
 71
     5
 72
     1
  1
\A1;434.00 [17.09]
 11
0.0000000000000001
 21
1.0
 31
0.0
 73
     1
 44
1.0
  0
POINT
  5
1CF
330
1C6
100
AcDbEntity
  8
Defpoints
 62
     0
440
 16777216
370
   100
100
AcDbPoint
 10
-23772.02557217135
 20
26783.82939154996
 30
0.0
  0
POINT
  5
1D0
330
1C6
100
AcDbEntity
  8
Defpoints
 62
     0
440
 16777216
370
   100
100
AcDbPoint
 10
-23772.02557217135
 20
26349.82939154996
 30
0.0
  0
POINT
  5
1D1
330
1C6
100
AcDbEntity
  8
Defpoints
 62
     0
440
 16777216
370
   100
100
AcDbPoint
 10
-23629.88703185797
 20
26349.82939154996
 30
0.0
  0
ENDBLK
  5
1D2
330
1C6
100
AcDbEntity
  8
0
 62
     0
370
   100
100
AcDbBlockEnd
  0
BLOCK
  5
1D7
330
1D6
100
AcDbEntity
  8
0
 62
     0
370
   100
100
AcDbBlockBegin
  2
*D22
 70
     1
 10
0.0
 20
0.0
 30
0.0
  3
*D22
  1

  0
LINE
  5
1D8
330
1D6
100
AcDbEntity
  8
标注
 62
     2
440
 16777216
100
AcDbLine
 10
-23738.02557217135
 20
26025.1930666246
 30
0.0
 11
-23723.19402082371
 21
26025.1930666246
 31
0.0
  0
LINE
  5
1D9
330
1D6
100
AcDbEntity
  8
标注
 62
     2
440
 16777216
100
AcDbLine
 10
-23882.02557217135
 20
25835.1930666246
 30
0.0
 11
-23723.19402082371
 21
25835.1930666246
 31
0.0
  0
LINE
  5
1DA
330
1D6
100
AcDbEntity
  8
标注
 62
     2
440
 16777216
100
AcDbLine
 10
-23723.37402082371
 20
26050.1930666246
 30
0.0
 11
-23723.37402082371
 21
26075.1930666246
 31
0.0
  0
LINE
  5
1DB
330
1D6
100
AcDbEntity
  8
标注
 62
     2
440
 16777216
100
AcDbLine
 10
-23723.37402082371
 20
25810.1930666246
 30
0.0
 11
-23723.37402082371
 21
25785.1930666246
 31
0.0
  0
SOLID
  5
1DC
330
1D6
100
AcDbEntity
  8
标注
 62
     2
440
 16777216
370
   100
100
AcDbTrace
 10
-23727.54068749038
 20
26050.1930666246
 30
0.0
 11
-23719.20735415705
 21
26050.1930666246
 31
0.0
 12
-23723.37402082371
 22
26025.1930666246
 32
0.0
 13
-23723.37402082371
 23
26025.1930666246
 33
0.0
  0
SOLID
  5
1DD
330
1D6
100
AcDbEntity
  8
标注
 62
     2
440
 16777216
370
   100
100
AcDbTrace
 10
-23727.54068749038
 20
25810.1930666246
 30
0.0
 11
-23719.20735415705
 21
25810.1930666246
 31
0.0
 12
-23723.37402082371
 22
25835.1930666246
 32
0.0
 13
-23723.37402082371
 23
25835.1930666246
 33
0.0
  0
MTEXT
  5
1DE
330
1D6
100
AcDbEntity
  8
标注
 62
     2
440
 16777216
370
   100
100
AcDbMText
 10
-23723.37402082372
 20
25930.19306662459
 30
0.0
 40
25.0
 41
0.0
 46
0.0
 71
     5
 72
     1
  1
\A1;190.00 [7.48]
 11
0.0000000000000001
 21
1.0
 31
0.0
 73
     1
 44
1.0
  0
POINT
  5
1DF
330
1D6
100
AcDbEntity
  8
Defpoints
 62
     0
440
 16777216
370
   100
100
AcDbPoint
 10
-23740.02557217135
 20
26025.1930666246
 30
0.0
  0
POINT
  5
1E0
330
1D6
100
AcDbEntity
  8
Defpoints
 62
     0
440
 16777216
370
   100
100
AcDbPoint
 10
-23884.02557217135
 20
25835.1930666246
 30
0.0
  0
POINT
  5
1E1
330
1D6
100
AcDbEntity
  8
Defpoints
 62
     0
440
 16777216
370
   100
100
AcDbPoint
 10
-23723.37402082371
 20
25835.1930666246
 30
0.0
  0
ENDBLK
  5
1E2
330
1D6
100
AcDbEntity
  8
0
 62
     0
370
   100
100
AcDbBlockEnd
  0
BLOCK
  5
1E7
330
1E6
100
AcDbEntity
  8
0
 62
     0
370
   100
100
AcDbBlockBegin
  2
*D23
 70
     1
 10
0.0
 20
0.0
 30
0.0
  3
*D23
  1

  0
LINE
  5
1E8
330
1E6
100
AcDbEntity
  8
标注
 62
     2
440
 16777216
100
AcDbLine
 10
-24556.02557217135
 20
26025.1930666246
 30
0.0
 11
-24586.46421191046
 21
26025.1930666246
 31
0.0
  0
LINE
  5
1E9
330
1E6
100
AcDbEntity
  8
标注
 62
     2
440
 16777216
100
AcDbLine
 10
-24368.02557217135
 20
25795.1930666246
 30
0.0
 11
-24586.46421191046
 21
25795.1930666246
 31
0.0
  0
LINE
  5
1EA
330
1E6
100
AcDbEntity
  8
标注
 62
     2
440
 16777216
100
AcDbLine
 10
-24586.28421191046
 20
26000.1930666246
 30
0.0
 11
-24586.28421191046
 21
25987.6817111812
 31
0.0
  0
LINE
  5
1EB
330
1E6
100
AcDbEntity
  8
标注
 62
     2
440
 16777216
100
AcDbLine
 10
-24586.28421191046
 20
25820.1930666246
 30
0.0
 11
-24586.28421191046
 21
25832.70442206801
 31
0.0
  0
SOLID
  5
1EC
330
1E6
100
AcDbEntity
  8
标注
 62
     2
440
 16777216
370
   100
100
AcDbTrace
 10
-24590.45087857713
 20
26000.1930666246
 30
0.0
 11
-24582.11754524379
 21
26000.1930666246
 31
0.0
 12
-24586.28421191046
 22
26025.1930666246
 32
0.0
 13
-24586.28421191046
 23
26025.1930666246
 33
0.0
  0
SOLID
  5
1ED
330
1E6
100
AcDbEntity
  8
标注
 62
     2
440
 16777216
370
   100
100
AcDbTrace
 10
-24590.45087857713
 20
25820.1930666246
 30
0.0
 11
-24582.11754524379
 21
25820.1930666246
 31
0.0
 12
-24586.28421191046
 22
25795.1930666246
 32
0.0
 13
-24586.28421191046
 23
25795.1930666246
 33
0.0
  0
MTEXT
  5
1EE
330
1E6
100
AcDbEntity
  8
标注
 62
     2
440
 16777216
370
   100
100
AcDbMText
 10
-24586.28421191047
 20
25910.1930666246
 30
0.0
 40
25.0
 41
0.0
 46
0.0
 71
     5
 72
     1
  1
\A1;230.00 [9.06]
 11
0.0000000000000001
 21
1.0
 31
0.0
 73
     1
 44
1.0
  0
POINT
  5
1EF
330
1E6
100
AcDbEntity
  8
Defpoints
 62
     0
440
 16777216
370
   100
100
AcDbPoint
 10
-24554.02557217135
 20
26025.1930666246
 30
0.0
  0
POINT
  5
1F0
330
1E6
100
AcDbEntity
  8
Defpoints
 62
     0
440
 16777216
370
   100
100
AcDbPoint
 10
-24366.02557217135
 20
25795.1930666246
 30
0.0
  0
POINT
  5
1F1
330
1E6
100
AcDbEntity
  8
Defpoints
 62
     0
440
 16777216
370
   100
100
AcDbPoint
 10
-24586.28421191046
 20
25795.1930666246
 30
0.0
  0
ENDBLK
  5
1F2
330
1E6
100
AcDbEntity
  8
0
 62
     0
370
   100
100
AcDbBlockEnd
  0
ENDSEC
  0
SECTION
  2
ENTITIES
  0
LWPOLYLINE
  5
6B
102
{ACAD_REACTORS
330
1A7
102
}
330
2
100
AcDbEntity
  8
0
100
AcDbPolyline
 90
        8
 70
     1
 43
0.0
 10
-24063.02557217135
 20
26755.82939154996
 10
-23795.02557217135
 20
26755.82939154996
 42
-0.4142135623730951
 10
-23770.02557217135
 20
26730.82939154996
 10
-23770.02557217135
 20
26402.82939154996
 42
-0.4142135623730951
 10
-23795.02557217135
 20
26377.82939154996
 10
-24063.02557217135
 20
26377.82939154996
 42
-0.4142135623730951
 10
-24088.02557217135
 20
26402.82939154996
 10
-24088.02557217135
 20
26730.82939154996
 42
-0.4142135623730951
  0
LWPOLYLINE
  5
6C
102
{ACAD_REACTORS
330
167
330
187
102
}
330
2
100
AcDbEntity
  8
0
100
AcDbPolyline
 90
        6
 70
     0
 43
0.0
 10
-24118.02557217135
 20
26737.11551489089
 10
-24118.02557217135
 20
26402.82939154996
 42
-0.4142135623730951
 10
-24143.02557217135
 20
26377.82939154996
 10
-24499.02557217135
 20
26377.82939154996
 42
-0.4142135623730951
 10
-24524.02557217135
 20
26402.82939154996
 10
-24524.02557217135
 20
26737.11551489089
  0
ARC
  5
6D
330
2
100
AcDbEntity
  8
0
100
AcDbCircle
 10
-24321.02557217135
 20
26515.59939154996
 30
0.0
 40
312.23
100
AcDbArc
 50
52.49597904503431
 51
127.5040209549657
  0
ARC
  5
6E
330
2
100
AcDbEntity
  8
0
100
AcDbCircle
 10
-24151.02557217135
 20
26737.11551489089
 30
0.0
 40
33.0
100
AcDbArc
 50
0.0
 51
52.49597904503431
  0
ARC
  5
6F
330
2
100
AcDbEntity
  8
0
100
AcDbCircle
 10
-24491.02557217135
 20
26737.11551489089
 30
0.0
 40
33.0
100
AcDbArc
 50
127.5040209549657
 51
180.0
  0
ARC
  5
70
330
2
100
AcDbEntity
  8
0
100
AcDbCircle
 10
-24494.02557217138
 20
26738.5899135458
 30
0.0
 40
58.0
100
AcDbArc
 50
127.8049439888301
 51
180.0
  0
ARC
  5
71
330
2
100
AcDbEntity
  8
0
100
AcDbCircle
 10
-24321.02557217135
 20
26515.59939154996
 30
0.0
 40
340.23
100
AcDbArc
 50
53.6611130788103
 51
127.8049439888301
  0
ARC
  5
72
330
2
100
AcDbEntity
  8
0
100
AcDbCircle
 10
-24101.64207233599
 20
26813.82939154996
 30
0.0
 40
30.0
100
AcDbArc
 50
233.6611130788103
 51
270.0
  0
LWPOLYLINE
  5
73
102
{ACAD_REACTORS
330
177
330
197
330
1C5
102
}
330
2
100
AcDbEntity
  8
0
100
AcDbPolyline
 90
        8
 70
     0
 43
0.0
 10
-24552.02557217135
 20
26738.5899135458
 10
-24552.02557217135
 20
26379.82939154996
 10
-24522.02557217135
 20
26349.82939154996
 10
-23772.02557217135
 20
26349.82939154996
 10
-23742.02557217135
 20
26379.82939154996
 10
-23742.02557217135
 20
26753.82939154996
 10
-23772.02557217135
 20
26783.82939154996
 10
-24101.64207233599
 20
26783.82939154996
  0
CIRCLE
  5
74
330
2
100
AcDbEntity
  8
0
100
AcDbCircle
 10
-24321.02557217135
 20
26652.82939154996
 30
0.0
 40
55.0
  0
CIRCLE
  5
75
330
2
100
AcDbEntity
  8
0
100
AcDbCircle
 10
-24321.02557217135
 20
26652.82939154996
 30
0.0
 40
45.0
  0
CIRCLE
  5
76
330
2
100
AcDbEntity
  8
0
100
AcDbCircle
 10
-23929.02557217135
 20
26616.82939154996
 30
0.0
 40
55.0
  0
CIRCLE
  5
77
330
2
100
AcDbEntity
  8
0
100
AcDbCircle
 10
-23929.02557217135
 20
26616.82939154996
 30
0.0
 40
45.0
  0
LINE
  5
78
330
2
100
AcDbEntity
  8
0
100
AcDbLine
 10
-24148.02557217132
 20
26738.5899135458
 30
0.0
 11
-24271.74811186202
 21
26677.25748819017
 31
0.0
  0
LINE
  5
79
330
2
100
AcDbEntity
  8
0
100
AcDbLine
 10
-24370.30303248066
 20
26677.25748819017
 30
0.0
 11
-24494.02557217138
 21
26738.5899135458
 31
0.0
  0
LINE
  5
7A
330
2
100
AcDbEntity
  8
0
100
AcDbLine
 10
-24499.02557217135
 20
26402.82939154996
 30
0.0
 11
-24352.92582508686
 21
26608.02566554502
 31
0.0
  0
LINE
  5
7B
330
2
100
AcDbEntity
  8
0
100
AcDbLine
 10
-24289.12531925582
 20
26608.02566554502
 30
0.0
 11
-24143.02557217135
 21
26402.82939154996
 31
0.0
  0
LINE
  5
7C
330
2
100
AcDbEntity
  8
0
100
AcDbLine
 10
-23795.02557217135
 20
26730.82939154996
 30
0.0
 11
-23887.13434050202
 21
26652.46820058207
 31
0.0
  0
LINE
  5
7D
330
2
100
AcDbEntity
  8
0
100
AcDbLine
 10
-23970.91680384066
 20
26652.46820058207
 30
0.0
 11
-24063.02557217135
 21
26730.82939154996
 31
0.0
  0
LINE
  5
7E
330
2
100
AcDbEntity
  8
0
100
AcDbLine
 10
-24063.02557217135
 20
26402.82939154996
 30
0.0
 11
-23958.21466387378
 21
26570.21397644308
 31
0.0
  0
LINE
  5
7F
330
2
100
AcDbEntity
  8
0
100
AcDbLine
 10
-23899.83648046889
 20
26570.21397644308
 30
0.0
 11
-23795.02557217135
 21
26402.82939154996
 31
0.0
  0
LINE
  5
80
330
2
100
AcDbEntity
  8
0
100
AcDbLine
 10
-24552.02557217135
 20
26025.1930666246
 30
0.0
 11
-23742.02557217135
 21
26025.1930666246
 31
0.0
  0
LWPOLYLINE
  5
81
102
{ACAD_REACTORS
330
1D5
102
}
330
2
100
AcDbEntity
  8
0
100
AcDbPolyline
 90
        4
 70
     1
 43
0.0
 10
-23984.02557217135
 20
25840.1930666246
 10
-23874.02557217135
 20
25840.1930666246
 10
-23884.02557217135
 20
25835.1930666246
 10
-23974.02557217135
 20
25835.1930666246
  0
LWPOLYLINE
  5
82
102
{ACAD_REACTORS
330
1E5
102
}
330
2
100
AcDbEntity
  8
0
100
AcDbPolyline
 90
        4
 70
     1
 43
0.0
 10
-24376.02557217135
 20
25800.1930666246
 10
-24266.02557217135
 20
25800.1930666246
 10
-24276.02557217135
 20
25795.1930666246
 10
-24366.02557217135
 20
25795.1930666246
  0
LWPOLYLINE
  5
83
330
2
100
AcDbEntity
  8
0
100
AcDbPolyline
 90
        8
 70
     0
 43
0.0
 10
-24524.02557217135
 20
26025.1930666246
 10
-24519.55508530265
 20
25832.96213127107
 42
0.3872099407035525
 10
-24496.30583567219
 20
25808.60427386242
 10
-24376.02557217135
 20
25800.1930666246
 10
-24266.02557217135
 20
25800.1930666246
 10
-24145.74530867048
 20
25808.60427386242
 42
0.387209940703552
 10
-24122.49605904002
 20
25832.96213127107
 10
-24118.02557217135
 20
26025.1930666246
  0
LWPOLYLINE
  5
84
330
2
100
AcDbEntity
  8
0
100
AcDbPolyline
 90
        8
 70
     0
 43
0.0
 10
-24088.02557217133
 20
26025.1930666246
 10
-24083.65278223134
 20
25872.14541872466
 42
0.3768493186989092
 10
-24061.17544771888
 20
25847.98598334657
 10
-23984.02557217135
 20
25840.1930666246
 10
-23874.02557217135
 20
25840.1930666246
 10
-23796.87569662381
 20
25847.98598334657
 42
0.3768493186989099
 10
-23774.39836211133
 20
25872.14541872466
 10
-23770.02557217135
 20
26025.1930666246
  0
LWPOLYLINE
  5
85
102
{ACAD_REACTORS
330
C3
330
146
102
}
330
2
100
AcDbEntity
  8
0
100
AcDbPolyline
 90
        5
 70
     0
 43
0.0
 10
-25006.20563078259
 20
26755.82939154996
 10
-24872.20563078258
 20
26755.82939154996
 42
-0.4142135623730951
 10
-24847.20563078258
 20
26730.82939154996
 10
-24847.20563078258
 20
26402.82939154996
 42
-0.4142135623730951
 10
-24872.20563078258
 20
26377.82939154996
  0
LWPOLYLINE
  5
86
102
{ACAD_REACTORS
330
B3
330
C3
330
15C
102
}
330
2
100
AcDbEntity
  8
0
100
AcDbPolyline
 90
        4
 70
     0
 43
0.0
 10
-24872.20563078258
 20
26377.82939154996
 10
-25576.20563078259
 20
26377.82939154996
 42
-0.4142135623730951
 10
-25601.20563078259
 20
26402.82939154996
 10
-25601.20563078259
 20
26738.5899135458
  0
ARC
  5
87
102
{ACAD_REACTORS
330
130
102
}
330
2
100
AcDbEntity
  8
0
100
AcDbCircle
 10
-25398.20563078258
 20
26515.59939154996
 30
0.0
 40
312.23
100
AcDbArc
 50
52.14956316698145
 51
127.8049439888302
  0
ARC
  5
88
102
{ACAD_REACTORS
330
13B
102
}
330
2
100
AcDbEntity
  8
0
100
AcDbCircle
 10
-25188.21248803736
 20
26785.82939154996
 30
0.0
 40
30.0
100
AcDbArc
 50
232.1495631669812
 51
270.0
  0
ARC
  5
89
102
{ACAD_REACTORS
330
151
102
}
330
2
100
AcDbEntity
  8
0
100
AcDbCircle
 10
-25571.20563078262
 20
26738.5899135458
 30
0.0
 40
30.0
100
AcDbArc
 50
127.8049439888302
 51
180.0
  0
LINE
  5
8A
330
2
100
AcDbEntity
  8
0
 48
50.0
100
AcDbLine
 10
-25006.20563078259
 20
26755.82939154996
 30
0.0
 11
-25188.21248803736
 21
26755.82939154996
 31
0.0
  0
LWPOLYLINE
  5
8B
102
{ACAD_REACTORS
330
F3
102
}
330
2
100
AcDbEntity
  8
0
100
AcDbPolyline
 90
        5
 70
     0
 43
0.0
 10
-25003.7479807068
 20
26161.32067435604
 10
-24869.7479807068
 20
26161.32067435604
 42
-0.4142135623730951
 10
-24841.7479807068
 20
26133.32067435604
 10
-24841.7479807068
 20
25805.32067435604
 42
-0.4142135623730951
 10
-24869.7479807068
 20
25777.32067435604
 42
-0.4142135623730951
  0
LWPOLYLINE
  5
8C
102
{ACAD_REACTORS
330
D3
330
E3
330
F3
330
125
102
}
330
2
100
AcDbEntity
  8
0
100
AcDbPolyline
 90
        4
 70
     0
 43
0.0
 10
-24869.7479807068
 20
25777.32067435604
 10
-25573.7479807068
 20
25777.32067435604
 42
-0.4142135623730951
 10
-25601.7479807068
 20
25805.32067435604
 10
-25601.7479807068
 20
26141.08119635187
  0
ARC
  5
8D
102
{ACAD_REACTORS
330
11A
102
}
330
2
100
AcDbEntity
  8
0
100
AcDbCircle
 10
-25395.7479807068
 20
25918.09067435603
 30
0.0
 40
315.23
100
AcDbArc
 50
52.14956316698142
 51
127.8049439888302
  0
ARC
  5
8E
102
{ACAD_REACTORS
330
10F
102
}
330
2
100
AcDbEntity
  8
0
100
AcDbCircle
 10
-25185.75483796158
 20
26188.32067435604
 30
0.0
 40
27.0
100
AcDbArc
 50
232.1495631669812
 51
270.0
  0
ARC
  5
8F
102
{ACAD_REACTORS
330
103
102
}
330
2
100
AcDbEntity
  8
0
100
AcDbCircle
 10
-25568.74798070683
 20
26141.08119635187
 30
0.0
 40
33.0
100
AcDbArc
 50
127.8049439888302
 51
180.0
  0
LINE
  5
90
330
2
100
AcDbEntity
  8
0
 48
50.0
100
AcDbLine
 10
-25003.7479807068
 20
26161.32067435604
 30
0.0
 11
-25185.75483796158
 21
26161.32067435604
 31
0.0
  0
HATCH
  5
91
330
2
100
AcDbEntity
  8
0
 48
80.0
100
AcDbHatch
 10
0.0
 20
0.0
 30
0.0
210
0.0
220
0.0
230
1.0
  2
SOLID
 70
     1
 71
     0
 91
        1
 92
        7
 72
     1
 73
     1
 93
       10
 10
-26143.90241232302
 20
26521.47475961479
 42
0.0
 10
-26143.90241232302
 20
26506.47475961479
 42
0.0
 10
-26081.40241232302
 20
26506.47475961479
 42
0.0
 10
-26081.40241232302
 20
26481.47475961479
 42
0.4142135623731276
 10
-26046.40241232302
 20
26446.47475961479
 42
0.0
 10
-25991.40241232302
 20
26446.47475961479
 42
0.0
 10
-25991.40241232302
 20
26461.4747596148
 42
0.0
 10
-26046.40241232302
 20
26461.4747596148
 42
-0.4142135623730984
 10
-26066.40241232302
 20
26481.47475961479
 42
0.0
 10
-26066.40241232302
 20
26521.47475961479
 42
0.0
 97
        0
 75
     0
 76
     1
 47
0.4110268789155317
 98
        1
 10
-26085.12599004241
 20
26519.14463106575
450
        0
451
        0
460
0.0
461
0.0
452
        1
462
1.0
453
        2
463
0.0
 63
     5
421
      255
463
1.0
 63
     7
421
 16777215
470
LINEAR
1001
ACAD
1010
0.0
1020
0.0
1030
0.0
  0
LWPOLYLINE
  5
92
330
2
100
AcDbEntity
  8
0
 48
80.0
100
AcDbPolyline
 90
        4
 70
     1
 43
0.0
 10
-26171.40241232302
 20
26598.97475961479
 10
-25991.40241232302
 20
26598.97475961479
 10
-25991.40241232302
 20
26418.97475961479
 10
-26171.40241232302
 20
26418.97475961479
  0
HATCH
  5
93
330
2
100
AcDbEntity
  8
填充层
 48
80.0
100
AcDbHatch
 10
0.0
 20
0.0
 30
0.0
210
0.0
220
0.0
230
1.0
  2
ANSI31
 70
     0
 71
     0
 91
        1
 92
        7
 72
     0
 73
     1
 93
        4
 10
-26171.40241232302
 20
26598.97475961479
 10
-26171.40241232302
 20
26521.4747596148
 10
-26066.40241232302
 20
26521.4747596148
 10
-26066.40241232302
 20
26598.97475961479
 97
        0
 75
     0
 76
     1
 52
0.0
 41
4.0
 77
     0
 78
     1
 53
45.0
 43
-40146.25252439035
 44
21251.75431518695
 45
-8.980256121069151
 46
8.980256121069153
 79
     0
 47
0.760094809552713
 98
        1
 10
-26116.91069205364
 20
26578.28040707155
1001
ACAD
1010
0.0
1020
0.0
1030
0.0
  0
LWPOLYLINE
  5
97
330
2
100
AcDbEntity
  8
0
 48
80.0
100
AcDbPolyline
 90
        4
 70
     1
 43
0.0
 10
-26066.40241232302
 20
26521.47475961479
 10
-26171.40241232302
 20
26521.47475961479
 10
-26171.40241232302
 20
26598.97475961479
 10
-26066.40241232302
 20
26598.97475961479
  0
LWPOLYLINE
  5
98
330
2
100
AcDbEntity
  8
0
 48
80.0
100
AcDbPolyline
 90
        5
 70
     0
 43
0.0
 10
-25991.40241232302
 20
26461.4747596148
 10
-26046.40241232302
 20
26461.4747596148
 42
-0.4142135623731251
 10
-26066.40241232302
 20
26481.47475961479
 10
-26066.40241232302
 20
26521.47475961479
 10
-26143.90241232302
 20
26521.47475961479
  0
LWPOLYLINE
  5
99
330
2
100
AcDbEntity
  8
0
 48
80.0
100
AcDbPolyline
 90
        5
 70
     0
 43
0.0
 10
-25991.40241232302
 20
26446.47475961479
 10
-26046.40241232302
 20
26446.47475961479
 42
-0.4142135623731275
 10
-26081.40241232302
 20
26481.47475961479
 10
-26081.40241232302
 20
26506.47475961479
 10
-26143.90241232302
 20
26506.47475961479
  0
LINE
  5
9A
330
2
100
AcDbEntity
  8
0
 48
80.0
100
AcDbLine
 10
-26143.90241232302
 20
26506.47475961479
 30
0.0
 11
-26143.90241232302
 21
26521.47475961479
 31
0.0
  0
HATCH
  5
9B
330
2
100
AcDbEntity
  8
0
 48
80.0
100
AcDbHatch
 10
0.0
 20
0.0
 30
0.0
210
0.0
220
0.0
230
1.0
  2
SOLID
 70
     1
 71
     0
 91
        1
 92
        7
 72
     1
 73
     1
 93
       14
 10
-26171.40241232302
 20
25838.97475961479
 42
0.0
 10
-25991.40241232302
 20
25838.97475961479
 42
0.0
 10
-25991.40241232302
 20
25866.4747596148
 42
0.0
 10
-26031.40241232302
 20
25866.4747596148
 42
-0.4142135623731275
 10
-26066.40241232302
 20
25901.47475961479
 42
0.0
 10
-26066.40241232302
 20
25926.47475961479
 42
0.0
 10
-26128.90241232302
 20
25926.47475961479
 42
0.0
 10
-26128.90241232302
 20
25941.47475961479
 42
0.0
 10
-26051.40241232302
 20
25941.47475961479
 42
0.0
 10
-26051.40241232302
 20
25901.47475961479
 42
0.4142135623731251
 10
-26031.40241232302
 20
25881.47475961479
 42
0.0
 10
-25991.40241232302
 20
25881.47475961479
 42
0.0
 10
-25991.40241232302
 20
26018.9747596148
 42
0.0
 10
-26171.40241232302
 20
26018.9747596148
 42
0.0
 97
        0
 75
     0
 76
     1
 47
0.4086146265358411
 98
        1
 10
-26086.10292486925
 20
25936.55067698454
450
        0
451
        0
460
0.0
461
0.0
452
        1
462
1.0
453
        2
463
0.0
 63
     5
421
      255
463
1.0
 63
     7
421
 16777215
470
LINEAR
1001
ACAD
1010
0.0
1020
0.0
1030
0.0
  0
LWPOLYLINE
  5
9C
330
2
100
AcDbEntity
  8
0
 48
80.0
100
AcDbPolyline
 90
        4
 70
     1
 43
0.0
 10
-26171.40241232302
 20
26018.9747596148
 10
-25991.40241232302
 20
26018.9747596148
 10
-25991.40241232302
 20
25838.97475961479
 10
-26171.40241232302
 20
25838.97475961479
  0
HATCH
  5
9D
330
2
100
AcDbEntity
  8
填充层
 48
80.0
100
AcDbHatch
 10
0.0
 20
0.0
 30
0.0
210
0.0
220
0.0
230
1.0
  2
ANSI31
 70
     0
 71
     0
 91
        1
 92
        7
 72
     0
 73
     1
 93
        4
 10
-26171.40241232302
 20
26018.9747596148
 10
-26171.40241232302
 20
25941.4747596148
 10
-26066.40241232302
 20
25941.4747596148
 10
-26066.40241232302
 20
26018.9747596148
 97
        0
 75
     0
 76
     1
 52
0.0
 41
4.0
 77
     0
 78
     1
 53
45.0
 43
-40146.25252439035
 44
20671.75431518695
 45
-8.980256121069151
 46
8.980256121069153
 79
     0
 47
0.760094809552713
 98
        1
 10
-26116.91069205364
 20
25998.28040707155
1001
ACAD
1010
0.0
1020
0.0
1030
0.0
  0
LWPOLYLINE
  5
9E
330
2
100
AcDbEntity
  8
0
 48
80.0
100
AcDbPolyline
 90
        4
 70
     1
 43
0.0
 10
-26066.40241232302
 20
25941.47475961479
 10
-26171.40241232302
 20
25941.47475961479
 10
-26171.40241232302
 20
26018.9747596148
 10
-26066.40241232302
 20
26018.9747596148
  0
LWPOLYLINE
  5
9F
330
2
100
AcDbEntity
  8
0
 48
80.0
100
AcDbPolyline
 90
        5
 70
     0
 43
0.0
 10
-25991.40241232302
 20
25881.47475961479
 10
-26031.40241232302
 20
25881.47475961479
 42
-0.4142135623731251
 10
-26051.40241232302
 20
25901.47475961479
 10
-26051.40241232302
 20
25941.47475961479
 10
-26128.90241232302
 20
25941.47475961479
  0
LWPOLYLINE
  5
A0
330
2
100
AcDbEntity
  8
0
 48
80.0
100
AcDbPolyline
 90
        5
 70
     0
 43
0.0
 10
-25991.40241232302
 20
25866.4747596148
 10
-26031.40241232302
 20
25866.4747596148
 42
-0.4142135623731275
 10
-26066.40241232302
 20
25901.47475961479
 10
-26066.40241232302
 20
25926.47475961479
 10
-26128.90241232302
 20
25926.47475961479
  0
LINE
  5
A1
330
2
100
AcDbEntity
  8
0
 48
80.0
100
AcDbLine
 10
-26128.90241232302
 20
25926.47475961479
 30
0.0
 11
-26128.90241232302
 21
25941.47475961479
 31
0.0
  0
DIMENSION
  5
A2
330
2
100
AcDbEntity
  8
标注
 62
     0
370
   100
100
AcDbDimension
280
     0
  2
*D0
 10
-25696.09196778491
 20
26377.82939154996
 30
0.0
 11
-25696.09196778491
 21
26602.82937924739
 31
0.0
 71
     5
 42
449.9999753948795
 73
     0
 74
     0
 75
     0
  3
Standard
100
AcDbAlignedDimension
 13
-25400.08167548975
 23
26827.82936694484
 33
0.0
 14
-25578.20563078259
 24
26377.82939154996
 34
0.0
 50
90.0
100
AcDbRotatedDimension
  0
DIMENSION
  5
B1
102
{ACAD_XDICTIONARY
360
B2
102
}
102
{ACAD_REACTORS
330
B3
102
}
330
2
100
AcDbEntity
  8
标注
 62
     0
370
   100
100
AcDbDimension
280
     0
  2
*D1
 10
-24787.55521885139
 20
26377.82939154996
 30
0.0
 11
-24787.5552188514
 21
26566.82939154995
 31
0.0
 71
     5
 42
378.0
 73
     0
 74
     0
 75
     0
  3
Standard
100
AcDbAlignedDimension
 13
-24870.20563078258
 23
26755.82939154996
 33
0.0
 14
-24872.20563078258
 24
26377.82939154996
 34
0.0
 50
90.0
100
AcDbRotatedDimension
  0
DIMENSION
  5
C1
102
{ACAD_XDICTIONARY
360
C2
102
}
102
{ACAD_REACTORS
330
C3
102
}
330
2
100
AcDbEntity
  8
标注
 62
     0
370
   100
100
AcDbDimension
280
     0
  2
*D2
 10
-24847.20563078258
 20
26316.496071624
 30
0.0
 11
-25224.20563078259
 21
26316.496071624
 31
0.0
 71
     5
 42
754.0
 73
     0
 74
     0
 75
     0
  3
Standard
100
AcDbAlignedDimension
 13
-25601.20563078259
 23
26402.82939154996
 33
0.0
 14
-24847.20563078258
 24
26402.82939154996
 34
0.0
100
AcDbRotatedDimension
  0
DIMENSION
  5
D1
102
{ACAD_XDICTIONARY
360
D2
102
}
102
{ACAD_REACTORS
330
D3
102
}
330
2
100
AcDbEntity
  8
标注
 62
     0
370
   100
100
AcDbDimension
280
     0
  2
*D3
 10
-24769.86375367948
 20
25777.32067435604
 30
0.0
 11
-24769.86375367949
 21
25969.32067435603
 31
0.0
 71
     5
 42
384.0
 73
     0
 74
     0
 75
     0
  3
Standard
100
AcDbAlignedDimension
 13
-24867.7479807068
 23
26161.32067435604
 33
0.0
 14
-24869.7479807068
 24
25777.32067435604
 34
0.0
 50
90.0
100
AcDbRotatedDimension
  0
DIMENSION
  5
E1
102
{ACAD_XDICTIONARY
360
E2
102
}
102
{ACAD_REACTORS
330
E3
102
}
330
2
100
AcDbEntity
  8
标注
 62
     0
370
   100
100
AcDbDimension
280
     0
  2
*D4
 10
-25696.2485815056
 20
25777.32067435604
 30
0.0
 11
-25696.24858150561
 21
26005.32066193526
 31
0.0
 71
     5
 42
455.9999751584582
 73
     0
 74
     0
 75
     0
  3
Standard
100
AcDbAlignedDimension
 13
-25397.62283441314
 23
26233.32064951449
 33
0.0
 14
-25573.7479807068
 24
25777.32067435604
 34
0.0
 50
90.0
100
AcDbRotatedDimension
  0
DIMENSION
  5
F1
102
{ACAD_XDICTIONARY
360
F2
102
}
102
{ACAD_REACTORS
330
F3
102
}
330
2
100
AcDbEntity
  8
标注
 62
     0
370
   100
100
AcDbDimension
280
     0
  2
*D5
 10
-24841.7479807068
 20
25728.24763525737
 30
0.0
 11
-25221.7479807068
 21
25728.24763525737
 31
0.0
 71
     5
 42
760.0
 73
     0
 74
     0
 75
     0
  3
Standard
100
AcDbAlignedDimension
 13
-25601.7479807068
 23
25805.32067435604
 33
0.0
 14
-24841.7479807068
 24
25805.32067435604
 34
0.0
100
AcDbRotatedDimension
  0
DIMENSION
  5
101
102
{ACAD_XDICTIONARY
360
102
102
}
102
{ACAD_REACTORS
330
103
102
}
330
2
100
AcDbEntity
  8
标注
 62
     0
370
   100
100
AcDbDimension
280
     0
  2
*D6
 10
-25568.74798070685
 20
26141.08119635187
 30
0.0
 11
-25472.65272045417
 21
26095.03346628176
 31
0.0
 70
   132
 71
     5
 42
32.99999999998545
 73
     0
 74
     0
 75
     0
  3
Standard
100
AcDbRadialDimension
 15
-25598.50765808096
 25
26155.34168731775
 35
0.0
 40
0.0
1001
ACAD
1000
DSTYLE
1002
{
1070
   288
1070
     1
1002
}
1001
ACAD_DSTYLE_DIMRADIAL_EXTENSION
1070
   387
1070
     1
1070
   388
1040
2.230617072932021
1070
   390
1040
3.141592653589793
  0
DIMENSION
  5
10D
102
{ACAD_XDICTIONARY
360
10E
102
}
102
{ACAD_REACTORS
330
10F
102
}
330
2
100
AcDbEntity
  8
标注
 62
     0
370
   100
100
AcDbDimension
280
     0
  2
*D7
 10
-25185.75483796158
 20
26188.32067435605
 30
0.0
 11
-25239.99509879977
 21
26030.84148677041
 31
0.0
 70
     4
 71
     5
 42
27.00000000001455
 73
     0
 74
     0
 75
     0
  3
Standard
100
AcDbRadialDimension
 15
-25194.54747194283
 25
26162.79246275256
 35
0.0
 40
0.0
1001
ACAD
1000
DSTYLE
1002
{
1070
   288
1070
     1
1002
}
1001
ACAD_DSTYLE_DIMRADIAL_EXTENSION
1070
   387
1070
     1
1070
   388
1040
4.051774234330376
1070
   390
1040
4.712388980384689
  0
DIMENSION
  5
118
102
{ACAD_XDICTIONARY
360
119
102
}
102
{ACAD_REACTORS
330
11A
102
}
330
2
100
AcDbEntity
  8
标注
 62
     0
370
   100
100
AcDbDimension
280
     0
  2
*D8
 10
-25395.74798070676
 20
25918.09067435601
 30
0.0
 11
-25362.96358125197
 21
26075.99833263877
 31
0.0
 70
   132
 71
     5
 42
315.230000000025
 73
     0
 74
     0
 75
     0
  3
Standard
100
AcDbRadialDimension
 15
-25331.66723469498
 25
26226.73871159356
 35
0.0
 40
0.0
1001
ACAD
1000
DSTYLE
1002
{
1070
   288
1070
     1
1002
}
1001
ACAD_DSTYLE_DIMRADIAL_EXTENSION
1070
   387
1070
     1
1070
   388
1040
0.9101815807405872
1070
   390
1040
2.230617072932021
  0
DIMENSION
  5
123
102
{ACAD_XDICTIONARY
360
124
102
}
102
{ACAD_REACTORS
330
125
102
}
330
2
100
AcDbEntity
  8
标注
 62
     0
370
   100
100
AcDbDimension
280
     0
  2
*D9
 10
-25573.7479807068
 20
25805.32067435604
 30
0.0
 11
-25489.4033186772
 21
25878.3361142916
 31
0.0
 70
   132
 71
     5
 42
28.0
 73
     0
 74
     0
 75
     0
  3
Standard
100
AcDbRadialDimension
 15
-25594.91761516767
 25
25786.99455701512
 35
0.0
 40
0.0
1001
ACAD
1000
DSTYLE
1002
{
1070
   288
1070
     1
1002
}
1001
ACAD_DSTYLE_DIMRADIAL_EXTENSION
1070
   387
1070
     1
1070
   388
1040
3.141592653589793
1070
   390
1040
4.712388980384689
  0
DIMENSION
  5
12E
102
{ACAD_XDICTIONARY
360
12F
102
}
102
{ACAD_REACTORS
330
130
102
}
330
2
100
AcDbEntity
  8
标注
 62
     0
370
   100
100
AcDbDimension
280
     0
  2
*D10
 10
-25398.20563078254
 20
26515.5993915499
 30
0.0
 11
-25374.95707675277
 21
26672.15768663447
 31
0.0
 70
   132
 71
     5
 42
312.2300000000578
 73
     0
 74
     0
 75
     0
  3
Standard
100
AcDbRadialDimension
 15
-25352.34309270576
 25
26824.44271833743
 35
0.0
 40
0.0
1001
ACAD
1000
DSTYLE
1002
{
1070
   288
1070
     1
1002
}
1001
ACAD_DSTYLE_DIMRADIAL_EXTENSION
1070
   387
1070
     1
1070
   388
1040
0.9101815807405879
1070
   390
1040
2.230617072932022
  0
DIMENSION
  5
139
102
{ACAD_XDICTIONARY
360
13A
102
}
102
{ACAD_REACTORS
330
13B
102
}
330
2
100
AcDbEntity
  8
标注
 62
     0
370
   100
100
AcDbDimension
280
     0
  2
*D11
 10
-25188.21248803735
 20
26785.82939154993
 30
0.0
 11
-25127.42904311843
 21
26876.97990283741
 31
0.0
 70
   132
 71
     5
 42
29.99999999998181
 73
     0
 74
     0
 75
     0
  3
Standard
100
AcDbRadialDimension
 15
-25204.85660986796
 25
26760.86996029666
 35
0.0
 40
0.0
1001
ACAD
1000
DSTYLE
1002
{
1070
   288
1070
     1
1002
}
1001
ACAD_DSTYLE_DIMRADIAL_EXTENSION
1070
   387
1070
     1
1070
   388
1040
4.051774234330377
1070
   390
1040
4.712388980384689
  0
DIMENSION
  5
144
102
{ACAD_XDICTIONARY
360
145
102
}
102
{ACAD_REACTORS
330
146
102
}
330
2
100
AcDbEntity
  8
标注
 62
     0
370
   100
100
AcDbDimension
280
     0
  2
*D12
 10
-24872.20563078261
 20
26402.82939154996
 30
0.0
 11
-24960.87292217085
 21
26475.36723213181
 31
0.0
 70
   132
 71
     5
 42
25.00000000001455
 73
     0
 74
     0
 75
     0
  3
Standard
100
AcDbRadialDimension
 15
-24852.85582932005
 25
26386.99950894269
 35
0.0
 40
0.0
1001
ACAD
1000
DSTYLE
1002
{
1070
   288
1070
     1
1002
}
1001
ACAD_DSTYLE_DIMRADIAL_EXTENSION
1070
   387
1070
     1
1070
   388
1040
4.712388980384689
1070
   390
1040
0.0
  0
DIMENSION
  5
14F
102
{ACAD_XDICTIONARY
360
150
102
}
102
{ACAD_REACTORS
330
151
102
}
330
2
100
AcDbEntity
  8
标注
 62
     0
370
   100
100
AcDbDimension
280
     0
  2
*D13
 10
-25571.20563078263
 20
26738.58991354582
 30
0.0
 11
-25490.96092513096
 21
26663.99882762358
 31
0.0
 70
   132
 71
     5
 42
29.99999999997817
 73
     0
 74
     0
 75
     0
  3
Standard
100
AcDbRadialDimension
 15
-25593.1787627581
 25
26759.0149342603
 35
0.0
 40
0.0
1001
ACAD
1000
DSTYLE
1002
{
1070
   288
1070
     1
1002
}
1001
ACAD_DSTYLE_DIMRADIAL_EXTENSION
1070
   387
1070
     1
1070
   388
1040
2.230617072932022
1070
   390
1040
3.141592653589793
  0
DIMENSION
  5
15A
102
{ACAD_XDICTIONARY
360
15B
102
}
102
{ACAD_REACTORS
330
15C
102
}
330
2
100
AcDbEntity
  8
标注
 62
     0
370
   100
100
AcDbDimension
280
     0
  2
*D14
 10
-25576.20563078259
 20
26402.82939154997
 30
0.0
 11
-25505.53709863013
 21
26492.99360530369
 31
0.0
 70
   132
 71
     5
 42
25.00000000000728
 73
     0
 74
     0
 75
     0
  3
Standard
100
AcDbRadialDimension
 15
-25591.62757550865
 25
26383.1529177585
 35
0.0
 40
0.0
1001
ACAD
1000
DSTYLE
1002
{
1070
   288
1070
     1
1002
}
1001
ACAD_DSTYLE_DIMRADIAL_EXTENSION
1070
   387
1070
     1
1070
   388
1040
3.141592653589793
1070
   390
1040
4.712388980384689
  0
DIMENSION
  5
165
102
{ACAD_XDICTIONARY
360
166
102
}
102
{ACAD_REACTORS
330
167
102
}
330
2
100
AcDbEntity
  8
标注
 62
     0
370
   100
100
AcDbDimension
280
     0
  2
*D15
 10
-24571.87571792474
 20
26377.82939154996
 30
0.0
 11
-24571.87571792475
 21
26602.82939154996
 31
0.0
 71
     5
 42
450.0
 73
     0
 74
     0
 75
     0
  3
Standard
100
AcDbAlignedDimension
 13
-24323.02557217135
 23
26827.82939154996
 33
0.0
 14
-24499.02557217135
 24
26377.82939154996
 34
0.0
 50
90.0
100
AcDbRotatedDimension
  0
DIMENSION
  5
175
102
{ACAD_XDICTIONARY
360
176
102
}
102
{ACAD_REACTORS
330
177
102
}
330
2
100
AcDbEntity
  8
标注
 62
     0
370
   100
100
AcDbDimension
280
     0
  2
*D16
 10
-24657.77445871585
 20
26349.82939154996
 30
0.0
 11
-24657.77445871586
 21
26602.82939154996
 31
0.0
 71
     5
 42
506.0
 73
     0
 74
     0
 75
     0
  3
Standard
100
AcDbAlignedDimension
 13
-24323.02557217135
 23
26855.82939154996
 33
0.0
 14
-24522.02557217135
 24
26349.82939154996
 34
0.0
 50
90.0
100
AcDbRotatedDimension
  0
DIMENSION
  5
185
102
{ACAD_XDICTIONARY
360
186
102
}
102
{ACAD_REACTORS
330
187
102
}
330
2
100
AcDbEntity
  8
标注
 62
     0
370
   100
100
AcDbDimension
280
     0
  2
*D17
 10
-24118.02557217135
 20
26324.20958883241
 30
0.0
 11
-24321.02557217135
 21
26324.20958883241
 31
0.0
 71
     5
 42
406.0
 73
     0
 74
     0
 75
     0
  3
Standard
100
AcDbAlignedDimension
 13
-24524.02557217135
 23
26400.82939154996
 33
0.0
 14
-24118.02557217135
 24
26402.82939154996
 34
0.0
100
AcDbRotatedDimension
  0
DIMENSION
  5
195
102
{ACAD_XDICTIONARY
360
196
102
}
102
{ACAD_REACTORS
330
197
102
}
330
2
100
AcDbEntity
  8
标注
 62
     0
370
   100
100
AcDbDimension
280
     0
  2
*D18
 10
-23742.02557217135
 20
26250.45535695981
 30
0.0
 11
-24147.02557217135
 21
26250.45535695981
 31
0.0
 71
     5
 42
810.0
 73
     0
 74
     0
 75
     0
  3
Standard
100
AcDbAlignedDimension
 13
-24552.02557217135
 23
26379.82939154996
 33
0.0
 14
-23742.02557217135
 24
26379.82939154996
 34
0.0
100
AcDbRotatedDimension
  0
DIMENSION
  5
1A5
102
{ACAD_XDICTIONARY
360
1A6
102
}
102
{ACAD_REACTORS
330
1A7
102
}
330
2
100
AcDbEntity
  8
标注
 62
     0
370
   100
100
AcDbDimension
280
     0
  2
*D19
 10
-23770.02557217135
 20
26306.06850711414
 30
0.0
 11
-23929.02557217135
 21
26306.06850711414
 31
0.0
 71
     5
 42
318.0
 73
     0
 74
     0
 75
     0
  3
Standard
100
AcDbAlignedDimension
 13
-24088.02557217135
 23
26402.82939154996
 33
0.0
 14
-23770.02557217135
 24
26402.82939154996
 34
0.0
100
AcDbRotatedDimension
  0
DIMENSION
  5
1B5
330
2
100
AcDbEntity
  8
标注
 62
     0
370
   100
100
AcDbDimension
280
     0
  2
*D20
 10
-23690.44090314575
 20
26377.82939154996
 30
0.0
 11
-23690.44090314575
 21
26566.82939154995
 31
0.0
 71
     5
 42
378.0
 73
     0
 74
     0
 75
     0
  3
Standard
100
AcDbAlignedDimension
 13
-23793.02557217135
 23
26755.82939154996
 33
0.0
 14
-23793.02557217135
 24
26377.82939154996
 34
0.0
 50
90.0
100
AcDbRotatedDimension
  0
DIMENSION
  5
1C3
102
{ACAD_XDICTIONARY
360
1C4
102
}
102
{ACAD_REACTORS
330
1C5
102
}
330
2
100
AcDbEntity
  8
标注
 62
     0
370
   100
100
AcDbDimension
280
     0
  2
*D21
 10
-23629.88703185797
 20
26349.82939154996
 30
0.0
 11
-23629.88703185798
 21
26566.82939154995
 31
0.0
 71
     5
 42
434.0
 73
     0
 74
     0
 75
     0
  3
Standard
100
AcDbAlignedDimension
 13
-23772.02557217135
 23
26783.82939154996
 33
0.0
 14
-23772.02557217135
 24
26349.82939154996
 34
0.0
 50
90.0
100
AcDbRotatedDimension
  0
DIMENSION
  5
1D3
102
{ACAD_XDICTIONARY
360
1D4
102
}
102
{ACAD_REACTORS
330
1D5
102
}
330
2
100
AcDbEntity
  8
标注
 62
     0
370
   100
100
AcDbDimension
280
     0
  2
*D22
 10
-23723.37402082371
 20
25835.1930666246
 30
0.0
 11
-23723.37402082372
 21
25930.19306662459
 31
0.0
 71
     5
 42
190.0
 73
     0
 74
     0
 75
     0
  3
Standard
100
AcDbAlignedDimension
 13
-23740.02557217135
 23
26025.1930666246
 33
0.0
 14
-23884.02557217135
 24
25835.1930666246
 34
0.0
 50
90.0
100
AcDbRotatedDimension
  0
DIMENSION
  5
1E3
102
{ACAD_XDICTIONARY
360
1E4
102
}
102
{ACAD_REACTORS
330
1E5
102
}
330
2
100
AcDbEntity
  8
标注
 62
     0
370
   100
100
AcDbDimension
280
     0
  2
*D23
 10
-24586.28421191046
 20
25795.1930666246
 30
0.0
 11
-24586.28421191047
 21
25910.1930666246
 31
0.0
 71
     5
 42
230.0
 73
     0
 74
     0
 75
     0
  3
Standard
100
AcDbAlignedDimension
 13
-24554.02557217135
 23
26025.1930666246
 33
0.0
 14
-24366.02557217135
 24
25795.1930666246
 34
0.0
 50
90.0
100
AcDbRotatedDimension
  0
ENDSEC
  0
SECTION
  2
OBJECTS
  0
DICTIONARY
  5
B
330
0
100
AcDbDictionary
281
     1
  3
ACAD_COLOR
350
3C
  3
ACAD_GROUP
350
37
  3
ACAD_LAYOUT
350
11
  3
ACAD_MATERIAL
350
D
  3
ACAD_MLEADERSTYLE
350
3F
  3
ACAD_MLINESTYLE
350
38
  3
ACAD_PLOTSETTINGS
350
39
  3
ACAD_PLOTSTYLENAME
350
A
  3
ACAD_SCALELIST
350
3D
  3
ACAD_TABLESTYLE
350
3E
  3
ACAD_VISUALSTYLE
350
2A
  3
ACDB_RECOMPOSE_DATA
350
200
  3
AcDbVariableDictionary
350
1F5
  0
DICTIONARY
  5
2C
330
27
100
AcDbDictionary
280
     1
281
     1
  0
DICTIONARY
  5
1A
330
19
100
AcDbDictionary
280
     1
281
     1
  3
ACAD_LAYERFILTERS
360
1B
  3
ACAD_LAYERSTATES
360
1C
  3
ACLYDICTIONARY
360
1D
  0
DICTIONARY
  5
7
330
6
100
AcDbDictionary
280
     1
281
     1
  3
ADSK_XREC_LAYER_RECONCILED
360
8
  0
DICTIONARY
  5
41
330
40
100
AcDbDictionary
280
     1
281
     1
  3
ADSK_XREC_LAYER_RECONCILED
360
42
  0
DICTIONARY
  5
95
330
94
100
AcDbDictionary
280
     1
281
     1
  3
ADSK_XREC_LAYER_RECONCILED
360
96
  0
DICTIONARY
  5
3
330
2
100
AcDbDictionary
280
     1
281
     1
  3
ACAD_SORTENTS
360
1F3
  0
DICTIONARY
  5
B2
330
B1
100
AcDbDictionary
280
     1
281
     1
  3
ACAD_DIMASSOC
360
B3
  0
DICTIONARY
  5
C2
330
C1
100
AcDbDictionary
280
     1
281
     1
  3
ACAD_DIMASSOC
360
C3
  0
DICTIONARY
  5
D2
330
D1
100
AcDbDictionary
280
     1
281
     1
  3
ACAD_DIMASSOC
360
D3
  0
DICTIONARY
  5
E2
330
E1
100
AcDbDictionary
280
     1
281
     1
  3
ACAD_DIMASSOC
360
E3
  0
DICTIONARY
  5
F2
330
F1
100
AcDbDictionary
280
     1
281
     1
  3
ACAD_DIMASSOC
360
F3
  0
DICTIONARY
  5
102
330
101
100
AcDbDictionary
280
     1
281
     1
  3
ACAD_DIMASSOC
360
103
  0
DICTIONARY
  5
10E
330
10D
100
AcDbDictionary
280
     1
281
     1
  3
ACAD_DIMASSOC
360
10F
  0
DICTIONARY
  5
119
330
118
100
AcDbDictionary
280
     1
281
     1
  3
ACAD_DIMASSOC
360
11A
  0
DICTIONARY
  5
124
330
123
100
AcDbDictionary
280
     1
281
     1
  3
ACAD_DIMASSOC
360
125
  0
DICTIONARY
  5
12F
330
12E
100
AcDbDictionary
280
     1
281
     1
  3
ACAD_DIMASSOC
360
130
  0
DICTIONARY
  5
13A
330
139
100
AcDbDictionary
280
     1
281
     1
  3
ACAD_DIMASSOC
360
13B
  0
DICTIONARY
  5
145
330
144
100
AcDbDictionary
280
     1
281
     1
  3
ACAD_DIMASSOC
360
146
  0
DICTIONARY
  5
150
330
14F
100
AcDbDictionary
280
     1
281
     1
  3
ACAD_DIMASSOC
360
151
  0
DICTIONARY
  5
15B
330
15A
100
AcDbDictionary
280
     1
281
     1
  3
ACAD_DIMASSOC
360
15C
  0
DICTIONARY
  5
166
330
165
100
AcDbDictionary
280
     1
281
     1
  3
ACAD_DIMASSOC
360
167
  0
DICTIONARY
  5
176
330
175
100
AcDbDictionary
280
     1
281
     1
  3
ACAD_DIMASSOC
360
177
  0
DICTIONARY
  5
186
330
185
100
AcDbDictionary
280
     1
281
     1
  3
ACAD_DIMASSOC
360
187
  0
DICTIONARY
  5
196
330
195
100
AcDbDictionary
280
     1
281
     1
  3
ACAD_DIMASSOC
360
197
  0
DICTIONARY
  5
1A6
330
1A5
100
AcDbDictionary
280
     1
281
     1
  3
ACAD_DIMASSOC
360
1A7
  0
DICTIONARY
  5
1C4
330
1C3
100
AcDbDictionary
280
     1
281
     1
  3
ACAD_DIMASSOC
360
1C5
  0
DICTIONARY
  5
1D4
330
1D3
100
AcDbDictionary
280
     1
281
     1
  3
ACAD_DIMASSOC
360
1D5
  0
DICTIONARY
  5
1E4
330
1E3
100
AcDbDictionary
280
     1
281
     1
  3
ACAD_DIMASSOC
360
1E5
  0
DICTIONARY
  5
3C
102
{ACAD_REACTORS
330
B
102
}
330
B
100
AcDbDictionary
281
     1
  0
DICTIONARY
  5
37
102
{ACAD_REACTORS
330
B
102
}
330
B
100
AcDbDictionary
281
     1
  0
DICTIONARY
  5
11
102
{ACAD_REACTORS
330
B
102
}
330
B
100
AcDbDictionary
281
     1
  3
Model
350
10
  3
布局1
350
17
  0
DICTIONARY
  5
D
102
{ACAD_REACTORS
330
B
102
}
330
B
100
AcDbDictionary
281
     1
  3
ByBlock
350
3B
  3
ByLayer
350
3A
  3
Global
350
C
  0
DICTIONARY
  5
3F
102
{ACAD_REACTORS
330
B
102
}
330
B
100
AcDbDictionary
281
     1
  0
DICTIONARY
  5
38
102
{ACAD_REACTORS
330
B
102
}
330
B
100
AcDbDictionary
281
     1
  3
Standard
350
45
  0
DICTIONARY
  5
39
102
{ACAD_REACTORS
330
B
102
}
330
B
100
AcDbDictionary
281
     1
  0
ACDBDICTIONARYWDFLT
  5
A
102
{ACAD_REACTORS
330
B
102
}
330
B
100
AcDbDictionary
281
     1
  3
Normal
350
9
100
AcDbDictionaryWithDefault
340
9
  0
DICTIONARY
  5
3D
102
{ACAD_REACTORS
330
B
102
}
330
B
100
AcDbDictionary
281
     1
  3
A0
350
4A
  3
A1
350
4B
  3
A2
350
4C
  3
A3
350
4D
  3
A4
350
4E
  3
A5
350
4F
  3
A6
350
50
  3
A7
350
51
  3
A8
350
52
  3
A9
350
53
  3
B0
350
54
  3
B1
350
55
  3
B2
350
56
  3
B3
350
57
  3
B4
350
58
  3
B5
350
59
  3
B6
350
5A
  3
B7
350
5B
  3
B8
350
5C
  3
B9
350
5D
  3
C0
350
5E
  3
C1
350
5F
  3
C2
350
60
  3
C3
350
61
  3
C4
350
62
  3
C5
350
63
  3
C6
350
64
  3
C7
350
65
  3
C8
350
66
  3
C9
350
67
  3
D0
350
68
  3
D1
350
69
  3
D2
350
6A
  0
DICTIONARY
  5
3E
102
{ACAD_REACTORS
330
B
102
}
330
B
100
AcDbDictionary
281
     1
  3
Standard
350
46
  0
DICTIONARY
  5
2A
102
{ACAD_REACTORS
330
B
102
}
330
B
100
AcDbDictionary
281
     1
  3
2dWireframe
350
29
  3
3dWireframe
350
49
  3
Realistic
350
48
  0
XRECORD
  5
200
102
{ACAD_REACTORS
330
B
102
}
330
B
100
AcDbXrecord
280
     1
 90
        1
330
46
  0
DICTIONARY
  5
1F5
102
{ACAD_REACTORS
330
B
102
}
330
B
100
AcDbDictionary
281
     1
  3
CANNOSCALE
350
1FB
  3
CMLEADERSTYLE
350
1F7
  3
CTABLESTYLE
350
1F6
  3
CVIEWDETAILSTYLE
350
1F8
  3
CVIEWSECTIONSTYLE
350
1F9
  3
LAYEREVAL
350
1FD
  3
LAYERNOTIFY
350
1FE
  3
LIGHTINGUNITS
350
1FC
  3
MSLTSCALE
350
1FA
  0
DICTIONARY
  5
1B
102
{ACAD_REACTORS
330
1A
102
}
330
1A
100
AcDbDictionary
281
     1
  0
DICTIONARY
  5
1C
102
{ACAD_REACTORS
330
1A
102
}
330
1A
100
AcDbDictionary
281
     1
  0
DICTIONARY
  5
1D
102
{ACAD_REACTORS
330
1A
102
}
330
1A
100
AcDbDictionary
281
     1
1001
ACAD
1000
<All
  0
XRECORD
  5
8
102
{ACAD_REACTORS
330
7
102
}
330
7
100
AcDbXrecord
280
     1
290
     1
  0
XRECORD
  5
42
102
{ACAD_REACTORS
330
41
102
}
330
41
100
AcDbXrecord
280
     1
290
     1
  0
XRECORD
  5
96
102
{ACAD_REACTORS
330
95
102
}
330
95
100
AcDbXrecord
280
     1
290
     1
  0
SORTENTSTABLE
  5
1F3
102
{ACAD_REACTORS
330
3
102
}
330
3
100
AcDbSortentsTable
330
2
  0
DIMASSOC
  5
B3
102
{ACAD_REACTORS
330
B2
102
}
330
B2
100
AcDbDimAssoc
330
B1
 90
        2
 70
     0
 71
     0
  1
AcDbOsnapPointRef
 72
    13
331
86
 73
     2
 91
        1
 40
0.0
 10
0.0
 20
0.0
 30
2.000000000000000E+50
 75
     0
  0
DIMASSOC
  5
C3
102
{ACAD_REACTORS
330
C2
102
}
330
C2
100
AcDbDimAssoc
330
C1
 90
        3
 70
     0
 71
     0
  1
AcDbOsnapPointRef
 72
     1
331
86
 73
     2
 91
        2
 40
3.141592653589793
 10
0.0
 20
0.0
 30
2.000000000000000E+50
 75
     0
  1
AcDbOsnapPointRef
 72
     1
331
85
 73
     2
 91
        3
 40
1.0
 10
0.0
 20
0.0
 30
2.000000000000000E+50
 75
     0
  0
DIMASSOC
  5
D3
102
{ACAD_REACTORS
330
D2
102
}
330
D2
100
AcDbDimAssoc
330
D1
 90
        2
 70
     0
 71
     0
  1
AcDbOsnapPointRef
 72
    13
331
8C
 73
     2
 91
        1
 40
0.0
 10
0.0
 20
0.0
 30
2.000000000000000E+50
 75
     0
  0
DIMASSOC
  5
E3
102
{ACAD_REACTORS
330
E2
102
}
330
E2
100
AcDbDimAssoc
330
E1
 90
        2
 70
     0
 71
     0
  1
AcDbOsnapPointRef
 72
     1
331
8C
 73
     2
 91
        1
 40
1.0
 10
0.0
 20
0.0
 30
2.000000000000000E+50
 75
     0
  0
DIMASSOC
  5
F3
102
{ACAD_REACTORS
330
F2
102
}
330
F2
100
AcDbDimAssoc
330
F1
 90
        3
 70
     0
 71
     0
  1
AcDbOsnapPointRef
 72
     1
331
8C
 73
     2
 91
        2
 40
3.141592653589793
 10
0.0
 20
0.0
 30
2.000000000000000E+50
 75
     0
  1
AcDbOsnapPointRef
 72
     1
331
8B
 73
     2
 91
        3
 40
1.0
 10
0.0
 20
0.0
 30
2.000000000000000E+50
 75
     0
  0
DIMASSOC
  5
103
102
{ACAD_REACTORS
330
102
102
}
330
102
100
AcDbDimAssoc
330
101
 90
        2
 70
     0
 71
     0
  1
AcDbOsnapPointRef
 72
     3
331
8F
 73
     2
 91
        0
 40
0.0
 10
0.0
 20
0.0
 30
0.0
 75
     0
  0
DIMASSOC
  5
10F
102
{ACAD_REACTORS
330
10E
102
}
330
10E
100
AcDbDimAssoc
330
10D
 90
        2
 70
     0
 71
     0
  1
AcDbOsnapPointRef
 72
     3
331
8E
 73
     2
 91
        0
 40
0.0
 10
0.0
 20
0.0
 30
0.0
 75
     0
  0
DIMASSOC
  5
11A
102
{ACAD_REACTORS
330
119
102
}
330
119
100
AcDbDimAssoc
330
118
 90
        2
 70
     0
 71
     0
  1
AcDbOsnapPointRef
 72
     3
331
8D
 73
     2
 91
        0
 40
0.0
 10
0.0
 20
0.0
 30
0.0
 75
     0
  0
DIMASSOC
  5
125
102
{ACAD_REACTORS
330
124
102
}
330
124
100
AcDbDimAssoc
330
123
 90
        2
 70
     0
 71
     0
  1
AcDbOsnapPointRef
 72
     3
331
8C
 73
     2
 91
        2
 40
0.0
 10
0.0
 20
0.0
 30
0.0
 75
     0
  0
DIMASSOC
  5
130
102
{ACAD_REACTORS
330
12F
102
}
330
12F
100
AcDbDimAssoc
330
12E
 90
        2
 70
     0
 71
     0
  1
AcDbOsnapPointRef
 72
     3
331
87
 73
     2
 91
        0
 40
0.0
 10
0.0
 20
0.0
 30
0.0
 75
     0
  0
DIMASSOC
  5
13B
102
{ACAD_REACTORS
330
13A
102
}
330
13A
100
AcDbDimAssoc
330
139
 90
        2
 70
     0
 71
     0
  1
AcDbOsnapPointRef
 72
     3
331
88
 73
     2
 91
        0
 40
0.0
 10
0.0
 20
0.0
 30
0.0
 75
     0
  0
DIMASSOC
  5
146
102
{ACAD_REACTORS
330
145
102
}
330
145
100
AcDbDimAssoc
330
144
 90
        2
 70
     0
 71
     0
  1
AcDbOsnapPointRef
 72
     3
331
85
 73
     2
 91
        4
 40
0.0
 10
0.0
 20
0.0
 30
0.0
 75
     0
  0
DIMASSOC
  5
151
102
{ACAD_REACTORS
330
150
102
}
330
150
100
AcDbDimAssoc
330
14F
 90
        2
 70
     0
 71
     0
  1
AcDbOsnapPointRef
 72
     3
331
89
 73
     2
 91
        0
 40
0.0
 10
0.0
 20
0.0
 30
0.0
 75
     0
  0
DIMASSOC
  5
15C
102
{ACAD_REACTORS
330
15B
102
}
330
15B
100
AcDbDimAssoc
330
15A
 90
        2
 70
     0
 71
     0
  1
AcDbOsnapPointRef
 72
     3
331
86
 73
     2
 91
        2
 40
0.0
 10
0.0
 20
0.0
 30
0.0
 75
     0
  0
DIMASSOC
  5
167
102
{ACAD_REACTORS
330
166
102
}
330
166
100
AcDbDimAssoc
330
165
 90
        2
 70
     0
 71
     0
  1
AcDbOsnapPointRef
 72
     1
331
6C
 73
     2
 91
        3
 40
1.0
 10
0.0
 20
0.0
 30
2.000000000000000E+50
 75
     0
  0
DIMASSOC
  5
177
102
{ACAD_REACTORS
330
176
102
}
330
176
100
AcDbDimAssoc
330
175
 90
        2
 70
     0
 71
     0
  1
AcDbOsnapPointRef
 72
     1
331
73
 73
     2
 91
        2
 40
1.0
 10
0.0
 20
0.0
 30
2.000000000000000E+50
 75
     0
  0
DIMASSOC
  5
187
102
{ACAD_REACTORS
330
186
102
}
330
186
100
AcDbDimAssoc
330
185
 90
        2
 70
     0
 71
     0
  1
AcDbOsnapPointRef
 72
     1
331
6C
 73
     2
 91
        1
 40
1.0
 10
0.0
 20
0.0
 30
2.000000000000000E+50
 75
     0
  0
DIMASSOC
  5
197
102
{ACAD_REACTORS
330
196
102
}
330
196
100
AcDbDimAssoc
330
195
 90
        3
 70
     0
 71
     0
  1
AcDbOsnapPointRef
 72
     1
331
73
 73
     2
 91
        1
 40
1.0
 10
0.0
 20
0.0
 30
2.000000000000000E+50
 75
     0
  1
AcDbOsnapPointRef
 72
     1
331
73
 73
     2
 91
        4
 40
1.0
 10
0.0
 20
0.0
 30
2.000000000000000E+50
 75
     0
  0
DIMASSOC
  5
1A7
102
{ACAD_REACTORS
330
1A6
102
}
330
1A6
100
AcDbDimAssoc
330
1A5
 90
        3
 70
     0
 71
     0
  1
AcDbOsnapPointRef
 72
     1
331
6B
 73
     2
 91
        6
 40
3.141592653589793
 10
0.0
 20
0.0
 30
2.000000000000000E+50
 75
     0
  1
AcDbOsnapPointRef
 72
     1
331
6B
 73
     2
 91
        3
 40
1.0
 10
0.0
 20
0.0
 30
2.000000000000000E+50
 75
     0
  0
DIMASSOC
  5
1C5
102
{ACAD_REACTORS
330
1C4
102
}
330
1C4
100
AcDbDimAssoc
330
1C3
 90
        3
 70
     0
 71
     0
  1
AcDbOsnapPointRef
 72
     1
331
73
 73
     2
 91
        6
 40
1.0
 10
0.0
 20
0.0
 30
2.000000000000000E+50
 75
     0
  1
AcDbOsnapPointRef
 72
     1
331
73
 73
     2
 91
        3
 40
1.0
 10
0.0
 20
0.0
 30
2.000000000000000E+50
 75
     0
  0
DIMASSOC
  5
1D5
102
{ACAD_REACTORS
330
1D4
102
}
330
1D4
100
AcDbDimAssoc
330
1D3
 90
        2
 70
     0
 71
     0
  1
AcDbOsnapPointRef
 72
     1
331
81
 73
     2
 91
        2
 40
0.9999999999999998
 10
0.0
 20
0.0
 30
2.000000000000000E+50
 75
     0
  0
DIMASSOC
  5
1E5
102
{ACAD_REACTORS
330
1E4
102
}
330
1E4
100
AcDbDimAssoc
330
1E3
 90
        2
 70
     0
 71
     0
  1
AcDbOsnapPointRef
 72
     1
331
82
 73
     2
 91
        3
 40
1.0
 10
0.0
 20
0.0
 30
2.000000000000000E+50
 75
     0
  0
LAYOUT
  5
10
102
{ACAD_XDICTIONARY
360
12
102
}
102
{ACAD_REACTORS
330
11
102
}
330
11
100
AcDbPlotSettings
  1

  2
none_device
  4
ISO_A4_(210.00_x_297.00_MM)
  6

 40
7.5
 41
20.0
 42
7.5
 43
20.0
 44
210.0
 45
297.0
 46
11.54999923706054
 47
-13.65000009536743
 48
0.0
 49
0.0
140
0.0
141
0.0
142
1.0
143
8.704084754739808
 70
 11952
 72
     1
 73
     0
 74
     0
  7

 75
     0
147
0.1148885871608098
 76
     0
 77
     2
 78
   300
148
0.0
149
0.0
100
AcDbLayout
  1
Model
 70
     1
 71
     0
 10
0.0
 20
0.0
 11
12.0
 21
9.0
 12
0.0
 22
0.0
 32
0.0
 14
0.0
 24
0.0
 34
0.0
 15
0.0
 25
0.0
 35
0.0
146
0.0
 13
0.0
 23
0.0
 33
0.0
 16
1.0
 26
0.0
 36
0.0
 17
0.0
 27
1.0
 37
0.0
 76
     0
330
2
331
28
1001
ACAD_PSEXT
1000
None
1000
None
1000
Not applicable
1000
The layout will not be plotted unless a new plotter configuration name is selected.
1070
     0
  0
LAYOUT
  5
17
102
{ACAD_XDICTIONARY
360
18
102
}
102
{ACAD_REACTORS
330
11
102
}
330
11
100
AcDbPlotSettings
  1

  2
none_device
  4
ISO_A4_(210.00_x_297.00_MM)
  6

 40
7.5
 41
20.0
 42
7.5
 43
20.0
 44
210.0
 45
297.0
 46
0.0
 47
0.0
 48
0.0
 49
0.0
140
0.0
141
0.0
142
1.0
143
1.0
 70
   688
 72
     1
 73
     1
 74
     5
  7

 75
    16
147
1.0
 76
     0
 77
     2
 78
   300
148
0.0
149
0.0
100
AcDbLayout
  1
布局1
 70
     1
 71
     1
 10
-20.0
 20
-7.5
 11
277.0
 21
202.5
 12
0.0
 22
0.0
 32
0.0
 14
25.69999999999999
 24
19.5
 34
0.0
 15
231.3
 25
175.5
 35
0.0
146
0.0
 13
0.0
 23
0.0
 33
0.0
 16
1.0
 26
0.0
 36
0.0
 17
0.0
 27
1.0
 37
0.0
 76
     0
330
14
1001
ACAD_PSEXT
1000
无
1000
无
1000
不可用
1000
在选择新的绘图仪配置名称之前，不能打印该布局。
1070
     0
  0
MATERIAL
  5
3B
102
{ACAD_REACTORS
330
D
102
}
330
D
100
AcDbMaterial
  1
ByBlock
 73
     1
 78
     1
172
     1
176
     1
270
     1
274
     1
 94
       63
  0
MATERIAL
  5
3A
102
{ACAD_REACTORS
330
D
102
}
330
D
100
AcDbMaterial
  1
ByLayer
 73
     1
 78
     1
172
     1
176
     1
270
     1
274
     1
 94
       63
  0
MATERIAL
  5
C
102
{ACAD_REACTORS
330
D
102
}
330
D
100
AcDbMaterial
  1
Global
 73
     1
 78
     1
172
     1
176
     1
270
     1
274
     1
 94
       63
  0
MLINESTYLE
  5
45
102
{ACAD_REACTORS
330
38
102
}
330
38
100
AcDbMlineStyle
  2
STANDARD
 70
     0
  3

 62
   256
 51
90.0
 52
90.0
 71
     2
 49
0.5
 62
   256
  6
BYLAYER
 49
-0.5
 62
   256
  6
BYLAYER
  0
ACDBPLACEHOLDER
  5
9
102
{ACAD_REACTORS
330
A
102
}
330
A
  0
SCALE
  5
4A
102
{ACAD_REACTORS
330
3D
102
}
330
3D
100
AcDbScale
 70
     0
300
1:1
140
1.0
141
1.0
290
     1
  0
SCALE
  5
4B
102
{ACAD_REACTORS
330
3D
102
}
330
3D
100
AcDbScale
 70
     0
300
1:2
140
1.0
141
2.0
290
     0
  0
SCALE
  5
4C
102
{ACAD_REACTORS
330
3D
102
}
330
3D
100
AcDbScale
 70
     0
300
1:4
140
1.0
141
4.0
290
     0
  0
SCALE
  5
4D
102
{ACAD_REACTORS
330
3D
102
}
330
3D
100
AcDbScale
 70
     0
300
1:5
140
1.0
141
5.0
290
     0
  0
SCALE
  5
4E
102
{ACAD_REACTORS
330
3D
102
}
330
3D
100
AcDbScale
 70
     0
300
1:8
140
1.0
141
8.0
290
     0
  0
SCALE
  5
4F
102
{ACAD_REACTORS
330
3D
102
}
330
3D
100
AcDbScale
 70
     0
300
1:10
140
1.0
141
10.0
290
     0
  0
SCALE
  5
50
102
{ACAD_REACTORS
330
3D
102
}
330
3D
100
AcDbScale
 70
     0
300
1:16
140
1.0
141
16.0
290
     0
  0
SCALE
  5
51
102
{ACAD_REACTORS
330
3D
102
}
330
3D
100
AcDbScale
 70
     0
300
1:20
140
1.0
141
20.0
290
     0
  0
SCALE
  5
52
102
{ACAD_REACTORS
330
3D
102
}
330
3D
100
AcDbScale
 70
     0
300
1:30
140
1.0
141
30.0
290
     0
  0
SCALE
  5
53
102
{ACAD_REACTORS
330
3D
102
}
330
3D
100
AcDbScale
 70
     0
300
1:40
140
1.0
141
40.0
290
     0
  0
SCALE
  5
54
102
{ACAD_REACTORS
330
3D
102
}
330
3D
100
AcDbScale
 70
     0
300
1:50
140
1.0
141
50.0
290
     0
  0
SCALE
  5
55
102
{ACAD_REACTORS
330
3D
102
}
330
3D
100
AcDbScale
 70
     0
300
1:100
140
1.0
141
100.0
290
     0
  0
SCALE
  5
56
102
{ACAD_REACTORS
330
3D
102
}
330
3D
100
AcDbScale
 70
     0
300
2:1
140
2.0
141
1.0
290
     0
  0
SCALE
  5
57
102
{ACAD_REACTORS
330
3D
102
}
330
3D
100
AcDbScale
 70
     0
300
4:1
140
4.0
141
1.0
290
     0
  0
SCALE
  5
58
102
{ACAD_REACTORS
330
3D
102
}
330
3D
100
AcDbScale
 70
     0
300
8:1
140
8.0
141
1.0
290
     0
  0
SCALE
  5
59
102
{ACAD_REACTORS
330
3D
102
}
330
3D
100
AcDbScale
 70
     0
300
10:1
140
10.0
141
1.0
290
     0
  0
SCALE
  5
5A
102
{ACAD_REACTORS
330
3D
102
}
330
3D
100
AcDbScale
 70
     0
300
100:1
140
100.0
141
1.0
290
     0
  0
SCALE
  5
5B
102
{ACAD_REACTORS
330
3D
102
}
330
3D
100
AcDbScale
 70
     0
300
1/128" = 1'-0"
140
0.0078125
141
12.0
290
     0
  0
SCALE
  5
5C
102
{ACAD_REACTORS
330
3D
102
}
330
3D
100
AcDbScale
 70
     0
300
1/64" = 1'-0"
140
0.015625
141
12.0
290
     0
  0
SCALE
  5
5D
102
{ACAD_REACTORS
330
3D
102
}
330
3D
100
AcDbScale
 70
     0
300
1/32" = 1'-0"
140
0.03125
141
12.0
290
     0
  0
SCALE
  5
5E
102
{ACAD_REACTORS
330
3D
102
}
330
3D
100
AcDbScale
 70
     0
300
1/16" = 1'-0"
140
0.0625
141
12.0
290
     0
  0
SCALE
  5
5F
102
{ACAD_REACTORS
330
3D
102
}
330
3D
100
AcDbScale
 70
     0
300
3/32" = 1'-0"
140
0.09375
141
12.0
290
     0
  0
SCALE
  5
60
102
{ACAD_REACTORS
330
3D
102
}
330
3D
100
AcDbScale
 70
     0
300
1/8" = 1'-0"
140
0.125
141
12.0
290
     0
  0
SCALE
  5
61
102
{ACAD_REACTORS
330
3D
102
}
330
3D
100
AcDbScale
 70
     0
300
3/16" = 1'-0"
140
0.1875
141
12.0
290
     0
  0
SCALE
  5
62
102
{ACAD_REACTORS
330
3D
102
}
330
3D
100
AcDbScale
 70
     0
300
1/4" = 1'-0"
140
0.25
141
12.0
290
     0
  0
SCALE
  5
63
102
{ACAD_REACTORS
330
3D
102
}
330
3D
100
AcDbScale
 70
     0
300
3/8" = 1'-0"
140
0.375
141
12.0
290
     0
  0
SCALE
  5
64
102
{ACAD_REACTORS
330
3D
102
}
330
3D
100
AcDbScale
 70
     0
300
1/2" = 1'-0"
140
0.5
141
12.0
290
     0
  0
SCALE
  5
65
102
{ACAD_REACTORS
330
3D
102
}
330
3D
100
AcDbScale
 70
     0
300
3/4" = 1'-0"
140
0.75
141
12.0
290
     0
  0
SCALE
  5
66
102
{ACAD_REACTORS
330
3D
102
}
330
3D
100
AcDbScale
 70
     0
300
1" = 1'-0"
140
1.0
141
12.0
290
     0
  0
SCALE
  5
67
102
{ACAD_REACTORS
330
3D
102
}
330
3D
100
AcDbScale
 70
     0
300
1-1/2" = 1'-0"
140
1.5
141
12.0
290
     0
  0
SCALE
  5
68
102
{ACAD_REACTORS
330
3D
102
}
330
3D
100
AcDbScale
 70
     0
300
3" = 1'-0"
140
3.0
141
12.0
290
     0
  0
SCALE
  5
69
102
{ACAD_REACTORS
330
3D
102
}
330
3D
100
AcDbScale
 70
     0
300
6" = 1'-0"
140
6.0
141
12.0
290
     0
  0
SCALE
  5
6A
102
{ACAD_REACTORS
330
3D
102
}
330
3D
100
AcDbScale
 70
     0
300
1'-0" = 1'-0"
140
12.0
141
12.0
290
     0
  0
TABLESTYLE
  5
46
102
{ACAD_XDICTIONARY
360
47
102
}
102
{ACAD_REACTORS
330
3E
102
}
330
3E
100
AcDbTableStyle
280
     0
  3
Standard
 70
     0
 71
     0
 40
1.5
 41
1.5
280
     0
281
     0
  7
Standard
140
4.5
170
     2
 62
     0
 63
     7
283
     0
 90
      512
 91
        0
  1

274
    -2
284
     1
 64
     0
275
    -2
285
     1
 65
     0
276
    -2
286
     1
 66
     0
277
    -2
287
     1
 67
     0
278
    -2
288
     1
 68
     0
279
    -2
289
     1
 69
     0
  7
Standard
140
6.0
170
     5
 62
     0
 63
     7
283
     0
 90
      512
 91
        0
  1

274
    -2
284
     1
 64
     0
275
    -2
285
     1
 65
     0
276
    -2
286
     1
 66
     0
277
    -2
287
     1
 67
     0
278
    -2
288
     1
 68
     0
279
    -2
289
     1
 69
     0
  7
Standard
140
4.5
170
     5
 62
     0
 63
     7
283
     0
 90
      512
 91
        0
  1

274
    -2
284
     1
 64
     0
275
    -2
285
     1
 65
     0
276
    -2
286
     1
 66
     0
277
    -2
287
     1
 67
     0
278
    -2
288
     1
 68
     0
279
    -2
289
     1
 69
     0
  0
VISUALSTYLE
  5
29
102
{ACAD_REACTORS
330
2A
102
}
330
2A
100
AcDbVisualStyle
  2
2dWireframe
 70
     4
177
     3
291
     0
 70
    58
 90
        0
176
     1
 90
        2
176
     1
 90
        1
176
     1
 90
        0
176
     1
 40
0.6
176
     1
 40
30.0
176
     1
 62
     7
420
 16777215
176
     1
 90
        1
176
     1
 90
        4
176
     1
 62
     7
176
     1
 62
   257
176
     1
 90
        1
176
     1
 90
        1
176
     1
 40
1.0
176
     1
 90
        0
176
     1
 62
   257
176
     1
 40
1.0
176
     1
 90
        1
176
     1
 90
        6
176
     1
 90
        2
176
     1
 62
     7
176
     1
 90
        5
176
     1
 90
        0
176
     1
 90
        0
176
     1
290
     0
176
     1
 90
        1
176
     1
 40
0.0
176
     1
 90
        0
176
     1
290
     1
176
     1
290
     1
176
     1
290
     0
176
     1
290
     0
176
     1
290
     0
176
     1
290
     0
176
     1
290
     0
176
     1
290
     0
176
     1
290
     0
176
     1
 90
       50
176
     1
 40
0.0
176
     1
 40
1.0
176
     1
 90
        0
176
     1
 62
    18
420
        0
176
     1
 90
       50
176
     1
 90
        3
176
     1
 62
     5
420
      255
176
     1
290
     0
176
     1
 90
       50
176
     1
 90
       50
176
     1
 90
       50
176
     1
290
     0
176
     1
 90
       50
176
     1
 62
   256
176
     0
 40
1.0
176
     0
 90
        2
176
     1
  1
strokes_ogs.tif
176
     1
290
     0
176
     1
 40
1.0
176
     1
 40
1.0
176
     1
  0
VISUALSTYLE
  5
49
102
{ACAD_REACTORS
330
2A
102
}
330
2A
100
AcDbVisualStyle
  2
3dWireframe
 70
     5
177
     3
291
     0
 70
    58
 90
        0
176
     1
 90
        2
176
     1
 90
        1
176
     1
 90
        0
176
     1
 40
0.6
176
     1
 40
30.0
176
     1
 62
     7
420
 16777215
176
     1
 90
        1
176
     1
 90
        4
176
     1
 62
     7
176
     1
 62
   257
176
     1
 90
        1
176
     1
 90
        1
176
     1
 40
1.0
176
     1
 90
        0
176
     1
 62
   257
176
     1
 40
1.0
176
     1
 90
        1
176
     1
 90
        6
176
     1
 90
        2
176
     1
 62
     7
176
     1
 90
        5
176
     1
 90
        0
176
     1
 90
        0
176
     1
290
     0
176
     1
 90
        1
176
     1
 40
0.0
176
     1
 90
        0
176
     1
290
     0
176
     1
290
     1
176
     1
290
     1
176
     1
290
     0
176
     1
290
     0
176
     1
290
     0
176
     1
290
     0
176
     1
290
     0
176
     1
290
     0
176
     1
 90
       50
176
     1
 40
0.0
176
     1
 40
1.0
176
     1
 90
        0
176
     1
 62
    18
420
        0
176
     1
 90
       50
176
     1
 90
        3
176
     1
 62
     5
420
      255
176
     1
290
     0
176
     1
 90
       50
176
     1
 90
       50
176
     1
 90
       50
176
     1
290
     0
176
     1
 90
       50
176
     1
 62
   256
176
     0
 40
1.0
176
     0
 90
        2
176
     1
  1
strokes_ogs.tif
176
     1
290
     0
176
     1
 40
1.0
176
     1
 40
1.0
176
     1
  0
VISUALSTYLE
  5
48
102
{ACAD_REACTORS
330
2A
102
}
330
2A
100
AcDbVisualStyle
  2
Realistic
 70
     8
177
     3
291
     0
 70
    58
 90
        2
176
     1
 90
        2
176
     1
 90
        1
176
     1
 90
        0
176
     1
 40
0.6
176
     1
 40
30.0
176
     1
 62
     7
420
 16777215
176
     1
 90
        1
176
     1
 90
        0
176
     1
 62
     7
176
     1
 62
   257
176
     1
 90
        1
176
     1
 90
        1
176
     1
 40
1.0
176
     1
 90
        8
176
     1
 62
     8
420
  7895160
176
     1
 40
1.0
176
     1
 90
        1
176
     1
 90
        6
176
     1
 90
        2
176
     1
 62
     7
176
     1
 90
        5
176
     1
 90
        0
176
     1
 90
        0
176
     1
290
     0
176
     1
 90
       13
176
     1
 40
0.0
176
     1
 90
        0
176
     1
290
     0
176
     1
290
     1
176
     1
290
     1
176
     1
290
     0
176
     1
290
     0
176
     1
290
     0
176
     1
290
     0
176
     1
290
     0
176
     1
290
     0
176
     1
 90
       50
176
     1
 40
0.0
176
     1
 40
1.0
176
     1
 90
        0
176
     1
 62
    18
420
        0
176
     1
 90
       50
176
     1
 90
        3
176
     1
 62
     5
420
      255
176
     1
290
     0
176
     1
 90
       50
176
     1
 90
       50
176
     1
 90
       50
176
     1
290
     0
176
     1
 90
       50
176
     1
 62
   256
176
     0
 40
1.0
176
     0
 90
        2
176
     1
  1
strokes_ogs.tif
176
     1
290
     0
176
     1
 40
1.0
176
     1
 40
1.0
176
     1
  0
DICTIONARYVAR
  5
1FB
102
{ACAD_REACTORS
330
1F5
102
}
330
1F5
100
DictionaryVariables
280
     0
  1
1:1
  0
DICTIONARYVAR
  5
1F7
102
{ACAD_REACTORS
330
1F5
102
}
330
1F5
100
DictionaryVariables
280
     0
  1
STANDARD
  0
DICTIONARYVAR
  5
1F6
102
{ACAD_REACTORS
330
1F5
102
}
330
1F5
100
DictionaryVariables
280
     0
  1
STANDARD
  0
DICTIONARYVAR
  5
1F8
102
{ACAD_REACTORS
330
1F5
102
}
330
1F5
100
DictionaryVariables
280
     0
  1

  0
DICTIONARYVAR
  5
1F9
102
{ACAD_REACTORS
330
1F5
102
}
330
1F5
100
DictionaryVariables
280
     0
  1

  0
DICTIONARYVAR
  5
1FD
102
{ACAD_REACTORS
330
1F5
102
}
330
1F5
100
DictionaryVariables
280
     0
  1
1
  0
DICTIONARYVAR
  5
1FE
102
{ACAD_REACTORS
330
1F5
102
}
330
1F5
100
DictionaryVariables
280
     0
  1
15
  0
DICTIONARYVAR
  5
1FC
102
{ACAD_REACTORS
330
1F5
102
}
330
1F5
100
DictionaryVariables
280
     0
  1
0
  0
DICTIONARYVAR
  5
1FA
102
{ACAD_REACTORS
330
1F5
102
}
330
1F5
100
DictionaryVariables
280
     0
  1
0
  0
DICTIONARY
  5
12
330
10
100
AcDbDictionary
280
     1
281
     1
  0
DICTIONARY
  5
18
330
17
100
AcDbDictionary
280
     1
281
     1
  0
DICTIONARY
  5
47
330
46
100
AcDbDictionary
280
     1
281
     1
  3
ACAD_ROUNDTRIP_2008_TABLESTYLE_CELLSTYLEMAP
360
1FF
  0
CELLSTYLEMAP
  5
1FF
102
{ACAD_REACTORS
330
47
102
}
330
47
100
AcDbCellStyleMap
 90
        3
300
CELLSTYLE
  1
TABLEFORMAT_BEGIN
 90
        5
170
     1
 91
        0
 92
    32768
 62
   257
 93
        1
300
CONTENTFORMAT
  1
CONTENTFORMAT_BEGIN
 90
        0
 91
        0
 92
      512
 93
        0
300

 40
0.0
140
1.0
 94
        5
 62
     0
340
20
144
6.0
309
CONTENTFORMAT_END
171
     1
301
MARGIN
  1
CELLMARGIN_BEGIN
 40
1.5
 40
1.5
 40
1.5
 40
1.5
 40
0.18
 40
0.18
309
CELLMARGIN_END
 94
        6
 95
        1
302
GRIDFORMAT
  1
GRIDFORMAT_BEGIN
 90
        0
 91
        1
 62
     0
 92
       -2
340
0
 93
        0
 40
0.045
309
GRIDFORMAT_END
 95
        2
302
GRIDFORMAT
  1
GRIDFORMAT_BEGIN
 90
        0
 91
        1
 62
     0
 92
       -2
340
0
 93
        0
 40
0.045
309
GRIDFORMAT_END
 95
        4
302
GRIDFORMAT
  1
GRIDFORMAT_BEGIN
 90
        0
 91
        1
 62
     0
 92
       -2
340
0
 93
        0
 40
0.045
309
GRIDFORMAT_END
 95
        8
302
GRIDFORMAT
  1
GRIDFORMAT_BEGIN
 90
        0
 91
        1
 62
     0
 92
       -2
340
0
 93
        0
 40
0.045
309
GRIDFORMAT_END
 95
       16
302
GRIDFORMAT
  1
GRIDFORMAT_BEGIN
 90
        0
 91
        1
 62
     0
 92
       -2
340
0
 93
        0
 40
0.045
309
GRIDFORMAT_END
 95
       32
302
GRIDFORMAT
  1
GRIDFORMAT_BEGIN
 90
        0
 91
        1
 62
     0
 92
       -2
340
0
 93
        0
 40
0.045
309
GRIDFORMAT_END
309
TABLEFORMAT_END
  1
CELLSTYLE_BEGIN
 90
        1
 91
        1
300
_TITLE
309
CELLSTYLE_END
300
CELLSTYLE
  1
TABLEFORMAT_BEGIN
 90
        5
170
     1
 91
        0
 92
        0
 62
   257
 93
        1
300
CONTENTFORMAT
  1
CONTENTFORMAT_BEGIN
 90
        0
 91
        0
 92
      512
 93
        0
300

 40
0.0
140
1.0
 94
        5
 62
     0
340
20
144
4.5
309
CONTENTFORMAT_END
171
     1
301
MARGIN
  1
CELLMARGIN_BEGIN
 40
1.5
 40
1.5
 40
1.5
 40
1.5
 40
0.18
 40
0.18
309
CELLMARGIN_END
 94
        6
 95
        1
302
GRIDFORMAT
  1
GRIDFORMAT_BEGIN
 90
        0
 91
        1
 62
     0
 92
       -2
340
0
 93
        0
 40
0.045
309
GRIDFORMAT_END
 95
        2
302
GRIDFORMAT
  1
GRIDFORMAT_BEGIN
 90
        0
 91
        1
 62
     0
 92
       -2
340
0
 93
        0
 40
0.045
309
GRIDFORMAT_END
 95
        4
302
GRIDFORMAT
  1
GRIDFORMAT_BEGIN
 90
        0
 91
        1
 62
     0
 92
       -2
340
0
 93
        0
 40
0.045
309
GRIDFORMAT_END
 95
        8
302
GRIDFORMAT
  1
GRIDFORMAT_BEGIN
 90
        0
 91
        1
 62
     0
 92
       -2
340
0
 93
        0
 40
0.045
309
GRIDFORMAT_END
 95
       16
302
GRIDFORMAT
  1
GRIDFORMAT_BEGIN
 90
        0
 91
        1
 62
     0
 92
       -2
340
0
 93
        0
 40
0.045
309
GRIDFORMAT_END
 95
       32
302
GRIDFORMAT
  1
GRIDFORMAT_BEGIN
 90
        0
 91
        1
 62
     0
 92
       -2
340
0
 93
        0
 40
0.045
309
GRIDFORMAT_END
309
TABLEFORMAT_END
  1
CELLSTYLE_BEGIN
 90
        2
 91
        1
300
_HEADER
309
CELLSTYLE_END
300
CELLSTYLE
  1
TABLEFORMAT_BEGIN
 90
        5
170
     1
 91
        0
 92
        0
 62
   257
 93
        1
300
CONTENTFORMAT
  1
CONTENTFORMAT_BEGIN
 90
        0
 91
        0
 92
      512
 93
        0
300

 40
0.0
140
1.0
 94
        2
 62
     0
340
20
144
4.5
309
CONTENTFORMAT_END
171
     1
301
MARGIN
  1
CELLMARGIN_BEGIN
 40
1.5
 40
1.5
 40
1.5
 40
1.5
 40
0.18
 40
0.18
309
CELLMARGIN_END
 94
        6
 95
        1
302
GRIDFORMAT
  1
GRIDFORMAT_BEGIN
 90
        0
 91
        1
 62
     0
 92
       -2
340
0
 93
        0
 40
0.045
309
GRIDFORMAT_END
 95
        2
302
GRIDFORMAT
  1
GRIDFORMAT_BEGIN
 90
        0
 91
        1
 62
     0
 92
       -2
340
0
 93
        0
 40
0.045
309
GRIDFORMAT_END
 95
        4
302
GRIDFORMAT
  1
GRIDFORMAT_BEGIN
 90
        0
 91
        1
 62
     0
 92
       -2
340
0
 93
        0
 40
0.045
309
GRIDFORMAT_END
 95
        8
302
GRIDFORMAT
  1
GRIDFORMAT_BEGIN
 90
        0
 91
        1
 62
     0
 92
       -2
340
0
 93
        0
 40
0.045
309
GRIDFORMAT_END
 95
       16
302
GRIDFORMAT
  1
GRIDFORMAT_BEGIN
 90
        0
 91
        1
 62
     0
 92
       -2
340
0
 93
        0
 40
0.045
309
GRIDFORMAT_END
 95
       32
302
GRIDFORMAT
  1
GRIDFORMAT_BEGIN
 90
        0
 91
        1
 62
     0
 92
       -2
340
0
 93
        0
 40
0.045
309
GRIDFORMAT_END
309
TABLEFORMAT_END
  1
CELLSTYLE_BEGIN
 90
        3
 91
        2
300
_DATA
309
CELLSTYLE_END
  0
ENDSEC
  0
SECTION
  2
ACDSDATA
 70
     2
 71
     6
  0
ACDSSCHEMA
 90
        0
  1
AcDb_Thumbnail_Schema
  2
AcDbDs::ID
280
    10
 91
        8
  2
Thumbnail_Data
280
    15
 91
        0
101
ACDSRECORD
 95
        0
 90
        1
  2
AcDbDs::TreatedAsObjectData
280
     1
291
     1
101
ACDSRECORD
 95
        0
 90
        2
  2
AcDbDs::Legacy
280
     1
291
     1
101
ACDSRECORD
  1
AcDbDs::ID
 90
        3
  2
AcDs:Indexable
280
     1
291
     1
101
ACDSRECORD
  1
AcDbDs::ID
 90
        4
  2
AcDbDs::HandleAttribute
280
     7
282
     1
  0
ACDSSCHEMA
 90
        1
  1
AcDbDs::TreatedAsObjectDataSchema
  2
AcDbDs::TreatedAsObjectData
280
     1
 91
        0
  0
ACDSSCHEMA
 90
        2
  1
AcDbDs::LegacySchema
  2
AcDbDs::Legacy
280
     1
 91
        0
  0
ACDSSCHEMA
 90
        3
  1
AcDbDs::IndexedPropertySchema
  2
AcDs:Indexable
280
     1
 91
        0
  0
ACDSSCHEMA
 90
        4
  1
AcDbDs::HandleAttributeSchema
  2
AcDbDs::HandleAttribute
280
     7
 91
        1
284
     1
  0
ACDSRECORD
 90
        0
  2
AcDbDs::ID
280
    10
320
10
  2
Thumbnail_Data
280
    15
 94
     3088
310
89504E470D0A1A0A0000000D49484452000001000000005E0803000000FB5F3A6700000300504C5445212830000000C8C8C80000000000000000000000000000000000000000000000000000330000660000990000CC0000FF0033000033330033660033990033CC0033FF0066000066330066660066990066CC0066FF0099
310
000099330099660099990099CC0099FF00CC0000CC3300CC6600CC9900CCCC00CCFF00FF0000FF3300FF6600FF9900FFCC00FFFF3300003300333300663300993300CC3300FF3333003333333333663333993333CC3333FF3366003366333366663366993366CC3366FF3399003399333399663399993399CC3399FF33CC00
310
33CC3333CC6633CC9933CCCC33CCFF33FF0033FF3333FF6633FF9933FFCC33FFFF6600006600336600666600996600CC6600FF6633006633336633666633996633CC6633FF6666006666336666666666996666CC6666FF6699006699336699666699996699CC6699FF66CC0066CC3366CC6666CC9966CCCC66CCFF66FF0066
310
FF3366FF6666FF9966FFCC66FFFF9900009900339900669900999900CC9900FF9933009933339933669933999933CC9933FF9966009966339966669966999966CC9966FF9999009999339999669999999999CC9999FF99CC0099CC3399CC6699CC9999CCCC99CCFF99FF0099FF3399FF6699FF9999FFCC99FFFFCC0000CC00
310
33CC0066CC0099CC00CCCC00FFCC3300CC3333CC3366CC3399CC33CCCC33FFCC6600CC6633CC6666CC6699CC66CCCC66FFCC9900CC9933CC9966CC9999CC99CCCC99FFCCCC00CCCC33CCCC66CCCC99CCCCCCCCCCFFCCFF00CCFF33CCFF66CCFF99CCFFCCCCFFFFFF0000FF0033FF0066FF0099FF00CCFF00FFFF3300FF3333
310
FF3366FF3399FF33CCFF33FFFF6600FF6633FF6666FF6699FF66CCFF66FFFF9900FF9933FF9966FF9999FF99CCFF99FFFFCC00FFCC33FFCC66FFCC99FFCCCCFFCCFFFFFF00FFFF33FFFF66FFFF99FFFFCCFFFFFF0000000D0D0D1A1A1A2828283535354343435050505D5D5D6B6B6B787878868686939393A1A1A1AEAEAEBB
310
BBBBC9C9C9D6D6D6E4E4E4F1F1F1FFFFFF000000000000000000000000000000000000000000000000000000000000B21171F6000002A84944415478DAED9A4196E3200C447503EE7F199F4427E8BDF6632410C276DC9DD909EABFD7B1439405655148A48900000000000000000000BEA25484B97C2484C9F9C262D7C7B08C
310
0288C285EAABDE1C42F55A3FA98331ACB4EB79432DBCF4EFE71640CE09B12B41365716620E02F024007749B87E33AF00E79F4D28DE7018B130D607AE0FFE1C61BBB10C508DF20A50A4BC333CE0F7B0A42628DDD5F4890EC43382CA71B4414D78B160594180A34DC84CCD56B9BA9BBD2717E010398207C86482893DA07A18B7
310
C5CDD1E7EDE2029CD3AF59A0AAB00B602658079632417BB414DCAD981B16DD2CFCA6EA63B6C8A93D60671314DBCEEAF326694F747CC2BDC291661145CBA436F063B99FBC101AA6E602D4F9C40A69AA04E9A8E8D2672F84329B6014805B06E87A6F2E475701C62EF013B683CC8590EFE6615BE75B1DE0C5823E7E8D615B3BCC
310
232CA7097A73E7D769C0C3CA87309326AD09F67AC69B1B4B729ADC4DAC17200F93BE42C4F651CAED01560871BF69738DEE36B7C3BD2DAC6192BC12AC7E37BB5BCB800701D83DDF0B46D20C4ADD0E8F25DD4D90E5A9106A2D501196D5BAC1BBF7BD9AE05B584E131C271DBDBB5377EBC97E291835E5FBF7B87B65E23A407773
310
EECD8D146F834D107E2884CC225B9D945E8031B3D6DD4D02B80912D3D82C7CDE2B08C02CBB1F897D59092E6682A119224F6996FE09533041A65827DA487A13EC56E7955D9B105D8EC462B36C3AD11A1E100E39A3BBFD51005AC004373F12FBC504E56A827737AC594489917B4ADBC1EFF8D5B4970B5CDFB4EEB72F86BCA9FF
310
2A807C10E0DC0C9E2D626101A6F3009A3220F741C87F9A202D637E5F0AB02E32FF2478EB72640701C2BF7EB46E90371340AE026C9401DB7BC026D37C3D11D2BA6F6701BCEBDF5380454A7A7800000000000000000000000000000000000000000058967F7E34618580B8E1270000000049454E44AE4260828D57344085533A
310
0580AEA7FD552D3B02C847C8BD016403CAED7A3C001DEDA1C1D9F5027032E3B730812280D258771480AC6C970AD749C1B31C8C454264020075275F1E431600AE49CBDCF4414EB069C63B15C0CFD761015800168005600158001680056001302A7C6D9C5CB2C45042C68E62EA8E4A493CBBD221969EE6E240A301E41971180F
310
20ECBD1D0C40379B7D1E537AE965C45000697788AEC59CD2619CFD852A40A802C8CE185E3A1DBB9486B67FC992254B96FCBAACD9E04A88B4D6218C27261EA3B30E51793B80371FA404738EB0C97DC0D46374266BC0EBA3C00270AD0ED99AB43C4BD4B488E71F05407CD7C6B16FBDF0605FDB0F2600CA8CE9CEE92AF74EB190
310
B999748C47E1780BA4FA86B6BB00D8DE2D60C5472E640C402CD81400C442DE00000AAB7D9F01905B22F9312A49F7E23EEB6F1CEE02286BC0FE849D24530600CF00886D33E9E7C45EE1E37499EF0B49EF01A899400AEB9600B812C49F13B6457EB178A8C07000700EE0A90F10DB6618805DE3D3794E13017C31812E00A00000
310
BCCB4D657702A0F3FD55A7969C1024A5BC6D02D5D70C54E4C95E139800006AD500C8A2807E7184CD004A3B95CE0040F23F1EFD4F0000AE0F22327501204C008895F6174573F054823B1F380000000049454E44AE426082E4C1E43AC59A6B00284C54F282C9029C3BB50420FF97A517AA844E1B401637811F61980190444E60
310
D9BFD35209004A002EEF0131857B0280DEF7808CA10CBC4099231E6DE89C4E05186EB79C4C273543F1A32087AA87634E3C2354247861C10B28D17656E66B399F09D4DC144B9A9904BA3A41BE1D07AC08BD835AED38A09087A7220E3543228E46E75F1D79DA7083CA11AF00907A239DB38E03168411452D072AE939391A9D41
310
9E7683AED7A7B61790B158DA50D30DC2348042504BE2636A0A731CF01600A2BE9A733974837A9B1E0360DF396CA994540B00C1E8F523326F8803AA5F16000C744E13C0B8A55254E70723D2A379F9FC78D80ADD7B01AC5AC0C89AAB4028C8C36EF068D9210ED097A683D302E0840568F5D5999A756B1334EC7E62130C2DF057
310
8EB996482A959955573D1AB11D078C8F228FBB3505A0DB58CF0DEA4AB6F7BF3A1FB033962F4888FC848CD00DE006706DA55B1768BE3EE644D9BADBBEC8B77B48D5B8CD6702B8CB5D3EB97C8F17B8D4117C651CE075CE07AD34C47E6747EAA4C71BFBFE36001BB7FB3B0076E3B34B83C11DAF8ABF1080E1D71F0BA3C6C651D7
310
DF02C00C6D16DA780700A559B11E447048D54C003083B44E923BE594D41B4273C66B0540B104F6DE2728EF67F4C99D0C00CA74ED18801DA6B64ECE25F12DBC361548254AB72C20533C6901247DA8F2D56300E0729A7302404E2852FE29FEBF0DC09D01A0327CEA44F0E1BC7E1300CF7B3C3E380B0038D11B6DA11009573641
310
EA1FF35A04404A211DEC01FA4497A4C8BB395EB5D9387912A5A98DF40BC6974A52FC1109D3F332A70048F71B1A470D80F2B89321CE01187CAB5D7283AD37349F7383D3004084BEA117303EEF9D379CF402E8CEBE57588D9A9AA7D9C64B601C0758808ADD7F17803BF75A5DE505C40D1E17E67813DC0C84F4EEBF1B08B9732F
310
562EDC600E848EDD9A8D03681580218ECD00F80FFCCA34FB22FED71E0000000049454E44AE426082E09220F07EE34716487C3D00DF78FC0FC44B3A62B4C2B0830000000049454E44AE42608202604C066904C036B8BECFEA63A6F44200E4F233003801207375E978465C7A4027F3DE0338E10A792CD05E901DCF095F0D8138
310
579801602140D1A8E59D951610AAE8DEEF6A68C8006BC7D26B43C013F0EE014EF78510C8C62B8FB68610200F005835625C0368CA2A378700C569F9C4CF40FB93D14A05D701004C00A8CE7B19EBBB120278BB33E70098A1029367836F51E19FA2BD6FA305DE0A80BFCD046F90ED878C5F7876F8D5FF33E8073CE0DD8FDD5AE0
310
171C9DCC432C8F0B298D6DBB8EF763C8DB8BF545ECEDE93C40B8909179CDD90145008CF747007804DCF37F7E5E02008E1EC0143FB6EEF764FE0080F47BFD460FE8091DFFCF6BBA1448ED3A81F71F9EEB6FEAE77F65081897752180931070D2DF42A073E15F0980FEA31F98787B0A0179D4011300FC7CF36F0D814CE6AF3055
310
A790C32ED007F88D00ECD302BF0080BFC004FF01B681ADE50E1690DA0000000049454E44AE426082
  0
ACDSRECORD
 90
        0
  2
AcDbDs::ID
280
    10
320
17
  2
Thumbnail_Data
280
    15
 94
     1943
310
89504E470D0A1A0A0000000D49484452000000B80000007F08030000006B00F8F900000300504C5445FFFFFF000000FFFFFF0000000000000000000000000000000000000000000000000000330000660000990000CC0000FF0033000033330033660033990033CC0033FF0066000066330066660066990066CC0066FF0099
310
000099330099660099990099CC0099FF00CC0000CC3300CC6600CC9900CCCC00CCFF00FF0000FF3300FF6600FF9900FFCC00FFFF3300003300333300663300993300CC3300FF3333003333333333663333993333CC3333FF3366003366333366663366993366CC3366FF3399003399333399663399993399CC3399FF33CC00
310
33CC3333CC6633CC9933CCCC33CCFF33FF0033FF3333FF6633FF9933FFCC33FFFF6600006600336600666600996600CC6600FF6633006633336633666633996633CC6633FF6666006666336666666666996666CC6666FF6699006699336699666699996699CC6699FF66CC0066CC3366CC6666CC9966CCCC66CCFF66FF0066
310
FF3366FF6666FF9966FFCC66FFFF9900009900339900669900999900CC9900FF9933009933339933669933999933CC9933FF9966009966339966669966999966CC9966FF9999009999339999669999999999CC9999FF99CC0099CC3399CC6699CC9999CCCC99CCFF99FF0099FF3399FF6699FF9999FFCC99FFFFCC0000CC00
310
33CC0066CC0099CC00CCCC00FFCC3300CC3333CC3366CC3399CC33CCCC33FFCC6600CC6633CC6666CC6699CC66CCCC66FFCC9900CC9933CC9966CC9999CC99CCCC99FFCCCC00CCCC33CCCC66CCCC99CCCCCCCCCCFFCCFF00CCFF33CCFF66CCFF99CCFFCCCCFFFFFF0000FF0033FF0066FF0099FF00CCFF00FFFF3300FF3333
310
FF3366FF3399FF33CCFF33FFFF6600FF6633FF6666FF6699FF66CCFF66FFFF9900FF9933FF9966FF9999FF99CCFF99FFFFCC00FFCC33FFCC66FFCC99FFCCCCFFCCFFFFFF00FFFF33FFFF66FFFF99FFFFCCFFFFFF0000000D0D0D1A1A1A2828283535354343435050505D5D5D6B6B6B787878868686939393A1A1A1AEAEAEBB
310
BBBBC9C9C9D6D6D6E4E4E4F1F1F1FFFFFF000000000000000000000000000000000000000000000000000000000000790CAC0F000004524944415478DAED9C5B92E3200C457B03296DC3FB5F801673FF7A01FE1F03120870E2C476067B46547742223F0E422F70557E30DFAEE127340777F01DE0D0D67FB329998F48DEB8CD
310
6BF00B6BD9C11DDCC11DFC2F827BE674F0FF0D1C03DB31F06B441107BF1E38AE0B0E0777700777700777700777F017470344F7D4F8427E4F70BA32F8FE7A1C331E783CEEB09000D82C0C69017F00B70067669415757C7FDC0E9C22F8E31E1ADFD843F0C5F279E0D12D97170AFFF1134BA324E4F4B27CE2245B5E108F260AA7
310
8C0347200978020E0154F0481EC09380C24029B591E02117051A8E1A8F5A8D2A65FD1407B5BC0938A21F07DE059CBF028EF74D25AA51512366D2384B37998A50733A7289F6BBC1712278C281804350A59B3F41A640344E34103C6917195C5B724716764E1ACFF331BE1E57D4A4D50C9E2C1E6520622A024E9F45D9AF2C2432
310
99D8B8D8B4A012178D4B1894195A44F1148CD3B844BCA871FC26EB50E7D481A461B0E81C31A0F058E7FC65D65092C025EB041B9F72CED1381E2A996446F360F01C9D610260F994C849C0A72906F8B47E1AADF11CF08A03E65CC91A56248FE626E043C361059EBB098E21F1A68A2AA04F97DA5F0297C229C771709F39D539A3
310
3064CDF1FB2A14DC2DFC49CA11238E1A5F64596C8EBC88C6818F33E11576B2A434F12DB8A1FB2ABEE63C177C9AB45364B9BB261C0F3EED019FB687504E9ABE028E6A87D944402E256E125AD9D41E34B5DF404B16E97077E1A3E069FD55DF25769545C16571660F2B747969CF65CF9A6C07FDD00E8287CBE64283CAE63E7306
310
4F5054C0739AE49AAE9928A31A7DD323F83078BABE5ED53C95985445508D970D13D98BB0F68056E38C6A324A49B00F1C7D39654DC5541CD96896D42F1A2FE07AFC1B1A97D3D4E09E837F98391B533170DAD3C1982DD04C513055E36A6C6826B19993E3E05C598175CE1EDCCC06D3BA618411C8A5A8BAE4B6A9EC02CFCE9627
310
543625D69D93559D9D6198A88297CED9D7707BC0B37AD9C0C982271B74B9756F2A2BCE59AC4FC06B8DCB3383A31ACF536F6D1CB55B113F3795F9453894B8D5D838D1291A2FA6626C5C2759BEB3326C6B5CE747C6DB829F632A26031A1B6F7465ED1F5D1CD76DAF671AA7169CCE01A795A802420DCE2DB80DF6B245DED72A12
310
0E8B734E279A8AE4982A0141328FDED280E7606D071CB7548AC689AAA8424D02024E76CE5248E94EB79A4F1D2A3B8DD393EA50AF124DC9809FEB9C553D4273F5DDA2A3E97991A57B0205BCD5B88027C1D9CE694C25F74AE62C95E976386C8BACF8F80B79B0A7D978EF9C2BB9B0C8A80D874017C7A90A87F149184ECF9CDCDA
310
C00AB89575AB9915F0B5871CFB13D0FC1ADCDC8DDAC95F5DD6992AF33538911638672D24DE867B094EB4A5F1B8857A3DF04D51798E7833F066957F5BF0D9C11DDCC13FCA9C23C1E1E0D706BFCE13090777700777700777700777F0CDB30782CF0E7E6DF0BBFE68C6459B833BF86E70FF9D2C0777700777F0BA36795EAD3C95
310
CC4724477F8CD433A783FF93E0376C81FB0FE8D566DAC99D001A0000000049454E44AE426082
  0
ENDSEC
  0
EOF
