  0
SECTION
  2
HEADER
  9
$ACADVER
  1
AC1027
  9
$ACADMAINTVER
 70
    55
  9
$DWGCODEPAGE
  3
ANSI_936
  9
$REQUIREDVERSIONS
160
                 0
  9
$INSBASE
 10
0.0
 20
0.0
 30
0.0
  9
$EXTMIN
 10
-34607.30634793638
 20
16112.5105673383
 30
0.0
  9
$EXTMAX
 10
-1202.65293636074
 20
36148.28396290183
 30
506.0
  9
$LIMMIN
 10
0.0
 20
0.0
  9
$LIMMAX
 10
420.0
 20
297.0
  9
$ORTHOMODE
 70
     0
  9
$REGENMODE
 70
     1
  9
$FILLMODE
 70
     1
  9
$QTEXTMODE
 70
     0
  9
$MIRRTEXT
 70
     0
  9
$LTSCALE
 40
1.0
  9
$ATTMODE
 70
     1
  9
$TEXTSIZE
 40
2.5
  9
$TRACEWID
 40
1.0
  9
$TEXTSTYLE
  7
样式 2
  9
$CLAYER
  8
标注
  9
$CELTYPE
  6
ByLayer
  9
$CECOLOR
 62
     0
  9
$CELTSCALE
 40
1.0
  9
$DISPSILH
 70
     0
  9
$DIMSCALE
 40
1.0
  9
$DIMASZ
 40
25.0
  9
$DIMEXO
 40
2.0
  9
$DIMDLI
 40
0.38
  9
$DIMRND
 40
0.0
  9
$DIMDLE
 40
0.0
  9
$DIMEXE
 40
0.18
  9
$DIMTP
 40
0.0
  9
$DIMTM
 40
0.0
  9
$DIMTXT
 40
15.0
  9
$DIMCEN
 40
-0.09
  9
$DIMTSZ
 40
0.0
  9
$DIMTOL
 70
     0
  9
$DIMLIM
 70
     0
  9
$DIMTIH
 70
     1
  9
$DIMTOH
 70
     1
  9
$DIMSE1
 70
     0
  9
$DIMSE2
 70
     0
  9
$DIMTAD
 70
     0
  9
$DIMZIN
 70
     0
  9
$DIMBLK
  1

  9
$DIMASO
 70
     1
  9
$DIMSHO
 70
     1
  9
$DIMPOST
  1

  9
$DIMAPOST
  1

  9
$DIMALT
 70
     1
  9
$DIMALTD
 70
     2
  9
$DIMALTF
 40
0.03937
  9
$DIMLFAC
 40
1.0
  9
$DIMTOFL
 70
     0
  9
$DIMTVP
 40
0.0
  9
$DIMTIX
 70
     0
  9
$DIMSOXD
 70
     0
  9
$DIMSAH
 70
     0
  9
$DIMBLK1
  1

  9
$DIMBLK2
  1

  9
$DIMSTYLE
  2
Standard
  9
$DIMCLRD
 70
     2
  9
$DIMCLRE
 70
     2
  9
$DIMCLRT
 70
     2
  9
$DIMTFAC
 40
1.0
  9
$DIMGAP
 40
1.0
  9
$DIMJUST
 70
     0
  9
$DIMSD1
 70
     0
  9
$DIMSD2
 70
     0
  9
$DIMTOLJ
 70
     1
  9
$DIMTZIN
 70
     0
  9
$DIMALTZ
 70
     0
  9
$DIMALTTZ
 70
     0
  9
$DIMUPT
 70
     0
  9
$DIMDEC
 70
     2
  9
$DIMTDEC
 70
     2
  9
$DIMALTU
 70
     2
  9
$DIMALTTD
 70
     2
  9
$DIMTXSTY
  7
Standard
  9
$DIMAUNIT
 70
     0
  9
$DIMADEC
 70
     0
  9
$DIMALTRND
 40
0.0
  9
$DIMAZIN
 70
     0
  9
$DIMDSEP
 70
    46
  9
$DIMATFIT
 70
     3
  9
$DIMFRAC
 70
     0
  9
$DIMLDRBLK
  1

  9
$DIMLUNIT
 70
     2
  9
$DIMLWD
 70
    -1
  9
$DIMLWE
 70
    -1
  9
$DIMTMOVE
 70
     0
  9
$DIMFXL
 40
1.0
  9
$DIMFXLON
 70
     0
  9
$DIMJOGANG
 40
0.7853981633974483
  9
$DIMTFILL
 70
     0
  9
$DIMTFILLCLR
 70
     2
  9
$DIMARCSYM
 70
     0
  9
$DIMLTYPE
  6
ByLayer
  9
$DIMLTEX1
  6
ByLayer
  9
$DIMLTEX2
  6
ByLayer
  9
$DIMTXTDIRECTION
 70
     0
  9
$LUNITS
 70
     2
  9
$LUPREC
 70
     3
  9
$SKETCHINC
 40
1.0
  9
$FILLETRAD
 40
30.0
  9
$AUNITS
 70
     0
  9
$AUPREC
 70
     0
  9
$MENU
  1
.
  9
$ELEVATION
 40
0.0
  9
$PELEVATION
 40
0.0
  9
$THICKNESS
 40
0.0
  9
$LIMCHECK
 70
     0
  9
$CHAMFERA
 40
10.0
  9
$CHAMFERB
 40
10.0
  9
$CHAMFERC
 40
0.0
  9
$CHAMFERD
 40
0.0
  9
$SKPOLY
 70
     0
  9
$TDCREATE
 40
2455815.639909213
  9
$TDUCREATE
 40
2455815.306575880
  9
$TDUPDATE
 40
2457272.682220498
  9
$TDUUPDATE
 40
2457272.348887164
  9
$TDINDWG
 40
24.9296113079
  9
$TDUSRTIMER
 40
24.9296098611
  9
$USRTIMER
 70
     1
  9
$ANGBASE
 50
0.0
  9
$ANGDIR
 70
     0
  9
$PDMODE
 70
     0
  9
$PDSIZE
 40
0.0
  9
$PLINEWID
 40
0.0
  9
$SPLFRAME
 70
     0
  9
$SPLINETYPE
 70
     6
  9
$SPLINESEGS
 70
     8
  9
$HANDSEED
  5
1B2
  9
$SURFTAB1
 70
     6
  9
$SURFTAB2
 70
     6
  9
$SURFTYPE
 70
     6
  9
$SURFU
 70
     6
  9
$SURFV
 70
     6
  9
$UCSBASE
  2

  9
$UCSNAME
  2

  9
$UCSORG
 10
0.0
 20
0.0
 30
0.0
  9
$UCSXDIR
 10
1.0
 20
0.0
 30
0.0
  9
$UCSYDIR
 10
0.0
 20
1.0
 30
0.0
  9
$UCSORTHOREF
  2

  9
$UCSORTHOVIEW
 70
     0
  9
$UCSORGTOP
 10
0.0
 20
0.0
 30
0.0
  9
$UCSORGBOTTOM
 10
0.0
 20
0.0
 30
0.0
  9
$UCSORGLEFT
 10
0.0
 20
0.0
 30
0.0
  9
$UCSORGRIGHT
 10
0.0
 20
0.0
 30
0.0
  9
$UCSORGFRONT
 10
0.0
 20
0.0
 30
0.0
  9
$UCSORGBACK
 10
0.0
 20
0.0
 30
0.0
  9
$PUCSBASE
  2

  9
$PUCSNAME
  2

  9
$PUCSORG
 10
0.0
 20
0.0
 30
0.0
  9
$PUCSXDIR
 10
1.0
 20
0.0
 30
0.0
  9
$PUCSYDIR
 10
0.0
 20
1.0
 30
0.0
  9
$PUCSORTHOREF
  2

  9
$PUCSORTHOVIEW
 70
     0
  9
$PUCSORGTOP
 10
0.0
 20
0.0
 30
0.0
  9
$PUCSORGBOTTOM
 10
0.0
 20
0.0
 30
0.0
  9
$PUCSORGLEFT
 10
0.0
 20
0.0
 30
0.0
  9
$PUCSORGRIGHT
 10
0.0
 20
0.0
 30
0.0
  9
$PUCSORGFRONT
 10
0.0
 20
0.0
 30
0.0
  9
$PUCSORGBACK
 10
0.0
 20
0.0
 30
0.0
  9
$USERI1
 70
     0
  9
$USERI2
 70
     0
  9
$USERI3
 70
     0
  9
$USERI4
 70
     0
  9
$USERI5
 70
     0
  9
$USERR1
 40
0.0
  9
$USERR2
 40
0.0
  9
$USERR3
 40
0.0
  9
$USERR4
 40
0.0
  9
$USERR5
 40
2.5
  9
$WORLDVIEW
 70
     1
  9
$SHADEDGE
 70
     3
  9
$SHADEDIF
 70
    70
  9
$TILEMODE
 70
     1
  9
$MAXACTVP
 70
    64
  9
$PINSBASE
 10
0.0
 20
0.0
 30
0.0
  9
$PLIMCHECK
 70
     0
  9
$PEXTMIN
 10
25.69999999999999
 20
19.5
 30
0.0
  9
$PEXTMAX
 10
231.3
 20
175.5
 30
0.0
  9
$PLIMMIN
 10
-20.0
 20
-7.5
  9
$PLIMMAX
 10
277.0
 20
202.5
  9
$UNITMODE
 70
     0
  9
$VISRETAIN
 70
     1
  9
$PLINEGEN
 70
     0
  9
$PSLTSCALE
 70
     1
  9
$TREEDEPTH
 70
  3020
  9
$CMLSTYLE
  2
Standard
  9
$CMLJUST
 70
     0
  9
$CMLSCALE
 40
20.0
  9
$PROXYGRAPHICS
 70
     1
  9
$MEASUREMENT
 70
     1
  9
$CELWEIGHT
370
    -1
  9
$ENDCAPS
280
     0
  9
$JOINSTYLE
280
     0
  9
$LWDISPLAY
290
     0
  9
$INSUNITS
 70
     4
  9
$HYPERLINKBASE
  1

  9
$STYLESHEET
  1

  9
$XEDIT
290
     1
  9
$CEPSNTYPE
380
     0
  9
$PSTYLEMODE
290
     1
  9
$FINGERPRINTGUID
  2
{2BB6823B-D86C-48C3-AC40-7DC075A585BF}
  9
$VERSIONGUID
  2
{7C042544-2FA1-4490-BEAB-0E8E33B56FBF}
  9
$EXTNAMES
290
     1
  9
$PSVPSCALE
 40
0.0
  9
$OLESTARTUP
290
     0
  9
$SORTENTS
280
   127
  9
$INDEXCTL
280
     0
  9
$HIDETEXT
280
     1
  9
$XCLIPFRAME
280
     0
  9
$HALOGAP
280
     0
  9
$OBSCOLOR
 70
   257
  9
$OBSLTYPE
280
     0
  9
$INTERSECTIONDISPLAY
280
     0
  9
$INTERSECTIONCOLOR
 70
   257
  9
$DIMASSOC
280
     2
  9
$PROJECTNAME
  1

  9
$CAMERADISPLAY
290
     0
  9
$LENSLENGTH
 40
50.0
  9
$CAMERAHEIGHT
 40
0.0
  9
$STEPSPERSEC
 40
2.0
  9
$STEPSIZE
 40
6.0
  9
$3DDWFPREC
 40
2.0
  9
$PSOLWIDTH
 40
5.0
  9
$PSOLHEIGHT
 40
80.0
  9
$LOFTANG1
 40
1.570796326794896
  9
$LOFTANG2
 40
1.570796326794896
  9
$LOFTMAG1
 40
0.0
  9
$LOFTMAG2
 40
0.0
  9
$LOFTPARAM
 70
     7
  9
$LOFTNORMALS
280
     1
  9
$LATITUDE
 40
37.795
  9
$LONGITUDE
 40
-122.394
  9
$NORTHDIRECTION
 40
0.0
  9
$TIMEZONE
 70
 -8000
  9
$LIGHTGLYPHDISPLAY
280
     1
  9
$TILEMODELIGHTSYNCH
280
     1
  9
$CMATERIAL
347
3A
  9
$SOLIDHIST
280
     1
  9
$SHOWHIST
280
     1
  9
$DWFFRAME
280
     2
  9
$DGNFRAME
280
     0
  9
$REALWORLDSCALE
290
     1
  9
$INTERFERECOLOR
 62
     1
  9
$INTERFEREOBJVS
345
48
  9
$INTERFEREVPVS
346
49
  9
$CSHADOW
280
     0
  9
$SHADOWPLANELOCATION
 40
0.0
  0
ENDSEC
  0
SECTION
  2
CLASSES
  0
CLASS
  1
ACDBDICTIONARYWDFLT
  2
AcDbDictionaryWithDefault
  3
ObjectDBX Classes
 90
        0
 91
        1
280
     0
281
     0
  0
CLASS
  1
DICTIONARYVAR
  2
AcDbDictionaryVar
  3
ObjectDBX Classes
 90
        0
 91
        9
280
     0
281
     0
  0
CLASS
  1
TABLESTYLE
  2
AcDbTableStyle
  3
ObjectDBX Classes
 90
     4095
 91
        1
280
     0
281
     0
  0
CLASS
  1
MATERIAL
  2
AcDbMaterial
  3
ObjectDBX Classes
 90
     1153
 91
        3
280
     0
281
     0
  0
CLASS
  1
VISUALSTYLE
  2
AcDbVisualStyle
  3
ObjectDBX Classes
 90
     4095
 91
        3
280
     0
281
     0
  0
CLASS
  1
ACAD_EVALUATION_GRAPH
  2
AcDbEvalGraph
  3
ObjectDBX Classes
 90
     1153
 91
        0
280
     0
281
     0
  0
CLASS
  1
BLOCKLOOKUPPARAMETER
  2
AcDbBlockLookupParameter
  3
ObjectDBX Classes
 90
     1153
 91
        0
280
     0
281
     0
  0
CLASS
  1
BLOCKLOOKUPGRIP
  2
AcDbBlockLookupGrip
  3
ObjectDBX Classes
 90
     1153
 91
        0
280
     0
281
     0
  0
CLASS
  1
BLOCKGRIPLOCATIONCOMPONENT
  2
AcDbBlockGripExpr
  3
ObjectDBX Classes
 90
     1153
 91
        0
280
     0
281
     0
  0
CLASS
  1
BLOCKLOOKUPACTION
  2
AcDbBlockLookupAction
  3
ObjectDBX Classes
 90
     1153
 91
        0
280
     0
281
     0
  0
CLASS
  1
BLOCKLINEARPARAMETER
  2
AcDbBlockLinearParameter
  3
ObjectDBX Classes
 90
     1153
 91
        0
280
     0
281
     0
  0
CLASS
  1
BLOCKSCALEACTION
  2
AcDbBlockScaleAction
  3
ObjectDBX Classes
 90
     1153
 91
        0
280
     0
281
     0
  0
CLASS
  1
ACDB_DYNAMICBLOCKPURGEPREVENTER_VERSION
  2
AcDbDynamicBlockPurgePreventer
  3
ObjectDBX Classes
 90
     1153
 91
        0
280
     0
281
     0
  0
CLASS
  1
ACDB_BLOCKREPRESENTATION_DATA
  2
AcDbBlockRepresentationData
  3
ObjectDBX Classes
 90
     1153
 91
        0
280
     0
281
     0
  0
CLASS
  1
BLOCKSTRETCHACTION
  2
AcDbBlockStretchAction
  3
ObjectDBX Classes
 90
     1153
 91
        0
280
     0
281
     0
  0
CLASS
  1
BLOCKMOVEACTION
  2
AcDbBlockMoveAction
  3
ObjectDBX Classes
 90
     1153
 91
        0
280
     0
281
     0
  0
CLASS
  1
BLOCKVISIBILITYPARAMETER
  2
AcDbBlockVisibilityParameter
  3
ObjectDBX Classes
 90
     1153
 91
        0
280
     0
281
     0
  0
CLASS
  1
SORTENTSTABLE
  2
AcDbSortentsTable
  3
ObjectDBX Classes
 90
        0
 91
        2
280
     0
281
     0
  0
CLASS
  1
BLOCKVISIBILITYGRIP
  2
AcDbBlockVisibilityGrip
  3
ObjectDBX Classes
 90
     1153
 91
        0
280
     0
281
     0
  0
CLASS
  1
BLOCKFLIPPARAMETER
  2
AcDbBlockFlipParameter
  3
ObjectDBX Classes
 90
     1153
 91
        0
280
     0
281
     0
  0
CLASS
  1
BLOCKFLIPGRIP
  2
AcDbBlockFlipGrip
  3
ObjectDBX Classes
 90
     1153
 91
        0
280
     0
281
     0
  0
CLASS
  1
BLOCKFLIPACTION
  2
AcDbBlockFlipAction
  3
ObjectDBX Classes
 90
     1153
 91
        0
280
     0
281
     0
  0
CLASS
  1
BLOCKALIGNMENTPARAMETER
  2
AcDbBlockAlignmentParameter
  3
ObjectDBX Classes
 90
     1153
 91
        0
280
     0
281
     0
  0
CLASS
  1
BLOCKALIGNMENTGRIP
  2
AcDbBlockAlignmentGrip
  3
ObjectDBX Classes
 90
     1153
 91
        0
280
     0
281
     0
  0
CLASS
  1
BLOCKPOINTPARAMETER
  2
AcDbBlockPointParameter
  3
ObjectDBX Classes
 90
     1153
 91
        0
280
     0
281
     0
  0
CLASS
  1
BLOCKLINEARGRIP
  2
AcDbBlockLinearGrip
  3
ObjectDBX Classes
 90
     1153
 91
        0
280
     0
281
     0
  0
CLASS
  1
BLOCKBASEPOINTPARAMETER
  2
AcDbBlockBasepointParameter
  3
ObjectDBX Classes
 90
     1153
 91
        0
280
     0
281
     0
  0
CLASS
  1
BLOCKARRAYACTION
  2
AcDbBlockArrayAction
  3
ObjectDBX Classes
 90
     1153
 91
        0
280
     0
281
     0
  0
CLASS
  1
BLOCKROTATIONPARAMETER
  2
AcDbBlockRotationParameter
  3
ObjectDBX Classes
 90
     1153
 91
        0
280
     0
281
     0
  0
CLASS
  1
BLOCKROTATIONGRIP
  2
AcDbBlockRotationGrip
  3
ObjectDBX Classes
 90
     1153
 91
        0
280
     0
281
     0
  0
CLASS
  1
BLOCKROTATEACTION
  2
AcDbBlockRotateAction
  3
ObjectDBX Classes
 90
     1153
 91
        0
280
     0
281
     0
  0
CLASS
  1
BLOCKPOLARPARAMETER
  2
AcDbBlockPolarParameter
  3
ObjectDBX Classes
 90
     1153
 91
        0
280
     0
281
     0
  0
CLASS
  1
BLOCKPOLARGRIP
  2
AcDbBlockPolarGrip
  3
ObjectDBX Classes
 90
     1153
 91
        0
280
     0
281
     0
  0
CLASS
  1
BLOCKPOLARSTRETCHACTION
  2
AcDbBlockPolarStretchAction
  3
ObjectDBX Classes
 90
     1153
 91
        0
280
     0
281
     0
  0
CLASS
  1
BLOCKXYPARAMETER
  2
AcDbBlockXYParameter
  3
ObjectDBX Classes
 90
     1153
 91
        0
280
     0
281
     0
  0
CLASS
  1
BLOCKXYGRIP
  2
AcDbBlockXYGrip
  3
ObjectDBX Classes
 90
     1153
 91
        0
280
     0
281
     0
  0
CLASS
  1
ACAD_TABLE
  2
AcDbTable
  3
ObjectDBX Classes
 90
     1025
 91
        0
280
     0
281
     1
  0
CLASS
  1
DIMASSOC
  2
AcDbDimAssoc
  3
"AcDbDimAssoc|Product Desc:     AcDim ARX App For Dimension|Company:          Autodesk, Inc.|WEB Address:      www.autodesk.com"
 90
        0
 91
       14
280
     0
281
     0
  0
CLASS
  1
LARGE_RADIAL_DIMENSION
  2
AcDbRadialDimensionLarge
  3
ObjectDBX Classes
 90
     1025
 91
        0
280
     0
281
     1
  0
CLASS
  1
SCALE
  2
AcDbScale
  3
ObjectDBX Classes
 90
     1153
 91
       33
280
     0
281
     0
  0
CLASS
  1
MLEADERSTYLE
  2
AcDbMLeaderStyle
  3
ACDB_MLEADERSTYLE_CLASS
 90
     4095
 91
        0
280
     0
281
     0
  0
CLASS
  1
VLO-VL
  2
vlo_VL
  3
VL|AutoLISP based application
 90
      129
 91
        0
280
     1
281
     0
  0
CLASS
  1
CELLSTYLEMAP
  2
AcDbCellStyleMap
  3
ObjectDBX Classes
 90
     1152
 91
        1
280
     0
281
     0
  0
CLASS
  1
RASTERVARIABLES
  2
AcDbRasterVariables
  3
ISM
 90
        0
 91
        0
280
     0
281
     0
  0
CLASS
  1
IMAGEDEF
  2
AcDbRasterImageDef
  3
ISM
 90
        0
 91
        0
280
     0
281
     0
  0
CLASS
  1
IMAGEDEF_REACTOR
  2
AcDbRasterImageDefReactor
  3
ISM
 90
        1
 91
        0
280
     0
281
     0
  0
CLASS
  1
IMAGE
  2
AcDbRasterImage
  3
ISM
 90
     2175
 91
        0
280
     0
281
     1
  0
CLASS
  1
ACDBSECTIONVIEWSTYLE
  2
AcDbSectionViewStyle
  3
ObjectDBX Classes
 90
     1025
 91
        0
280
     0
281
     0
  0
CLASS
  1
ACDBDETAILVIEWSTYLE
  2
AcDbDetailViewStyle
  3
ObjectDBX Classes
 90
     1025
 91
        0
280
     0
281
     0
  0
CLASS
  1
SOLID_BACKGROUND
  2
AcDbSolidBackground
  3
SCENEOE
 90
     4095
 91
        0
280
     0
281
     0
  0
CLASS
  1
NPOCOLLECTION
  2
AcDbImpNonPersistentObjectsCollection
  3
ObjectDBX Classes
 90
     1153
 91
        0
280
     0
281
     0
  0
ENDSEC
  0
SECTION
  2
TABLES
  0
TABLE
  2
VPORT
  5
27
102
{ACAD_XDICTIONARY
360
2C
102
}
330
0
100
AcDbSymbolTable
 70
     1
  0
VPORT
  5
28
330
27
100
AcDbSymbolTableRecord
100
AcDbViewportTableRecord
  2
*Active
 70
     0
 10
0.0
 20
0.0
 11
1.0
 21
1.0
 12
-28596.46505585351
 22
35280.34061465034
 13
0.0
 23
0.0
 14
10.0
 24
10.0
 15
10.0
 25
10.0
 16
0.0
 26
0.0
 36
1.0
 17
0.0
 27
0.0
 37
0.0
 40
2070.213053358239
 41
2.720081135902637
 42
50.0
 43
0.0
 44
0.0
 50
0.0
 51
0.0
 71
     0
 72
  1000
 73
     1
 74
     3
 75
     0
 76
     1
 77
     0
 78
     0
281
     0
 65
     1
110
0.0
120
0.0
130
0.0
111
1.0
121
0.0
131
0.0
112
0.0
122
1.0
132
0.0
 79
     0
146
0.0
348
29
 60
     2
 61
     5
292
     1
282
     1
141
0.0
142
0.0
 63
   250
421
  3355443
1001
ACAD_NAV_VCDISPLAY
1070
     3
  0
ENDTAB
  0
TABLE
  2
LTYPE
  5
22
330
0
100
AcDbSymbolTable
 70
     2
  0
LTYPE
  5
23
330
22
100
AcDbSymbolTableRecord
100
AcDbLinetypeTableRecord
  2
ByBlock
 70
     0
  3

 72
    65
 73
     0
 40
0.0
  0
LTYPE
  5
24
330
22
100
AcDbSymbolTableRecord
100
AcDbLinetypeTableRecord
  2
ByLayer
 70
     0
  3

 72
    65
 73
     0
 40
0.0
  0
LTYPE
  5
E
330
22
100
AcDbSymbolTableRecord
100
AcDbLinetypeTableRecord
  2
Continuous
 70
     0
  3
Solid line
 72
    65
 73
     0
 40
0.0
  0
LTYPE
  5
8B
330
22
100
AcDbSymbolTableRecord
100
AcDbLinetypeTableRecord
  2
HIDDEN2
 70
     0
  3
Hidden (.5x) _ _ _ _ _ _ _ _ _ _ _ _ _ _ _ _ _
 72
    65
 73
     2
 40
0.1875
 49
0.125
 74
     0
 49
-0.0625
 74
     0
  0
ENDTAB
  0
TABLE
  2
LAYER
  5
19
102
{ACAD_XDICTIONARY
360
1A
102
}
330
0
100
AcDbSymbolTable
 70
     4
  0
LAYER
  5
6
102
{ACAD_XDICTIONARY
360
7
102
}
330
19
100
AcDbSymbolTableRecord
100
AcDbLayerTableRecord
  2
0
 70
     0
 62
     7
  6
Continuous
370
    -3
390
9
347
C
348
0
  0
LAYER
  5
9E
330
19
100
AcDbSymbolTableRecord
100
AcDbLayerTableRecord
  2
Defpoints
 70
     0
 62
     8
  6
Continuous
290
     0
370
    -3
390
9
347
C
348
0
  0
LAYER
  5
40
102
{ACAD_XDICTIONARY
360
41
102
}
330
19
100
AcDbSymbolTableRecord
100
AcDbLayerTableRecord
  2
标注
 70
     0
 62
     1
  6
Continuous
370
    -3
390
9
347
C
348
0
1001
AcAecLayerStandard
1000

1000

  0
LAYER
  5
88
102
{ACAD_XDICTIONARY
360
89
102
}
330
19
100
AcDbSymbolTableRecord
100
AcDbLayerTableRecord
  2
虚线
 70
     0
 62
   252
  6
HIDDEN2
370
    -3
390
9
347
C
348
0
1001
AcAecLayerStandard
1000

1000

  0
ENDTAB
  0
TABLE
  2
STYLE
  5
1F
330
0
100
AcDbSymbolTable
 70
     2
  0
STYLE
  5
20
330
1F
100
AcDbSymbolTableRecord
100
AcDbTextStyleTableRecord
  2
Standard
 70
     0
 40
0.0
 41
0.7800000000000001
 50
0.0
 71
     0
 42
2.5
  3
times.ttf
  4

1001
ACAD
1000
Times New Roman
1071
       18
  0
STYLE
  5
44
330
1F
100
AcDbSymbolTableRecord
100
AcDbTextStyleTableRecord
  2
样式 2
 70
     0
 40
0.0
 41
0.7800000000000001
 50
0.0
 71
     0
 42
2.5
  3
@Dotum.shx
  4

  0
ENDTAB
  0
TABLE
  2
VIEW
  5
25
330
0
100
AcDbSymbolTable
 70
     0
  0
ENDTAB
  0
TABLE
  2
UCS
  5
26
330
0
100
AcDbSymbolTable
 70
     0
  0
ENDTAB
  0
TABLE
  2
APPID
  5
2D
330
0
100
AcDbSymbolTable
 70
     7
  0
APPID
  5
1E
330
2D
100
AcDbSymbolTableRecord
100
AcDbRegAppTableRecord
  2
ACAD
 70
     0
  0
APPID
  5
13
330
2D
100
AcDbSymbolTableRecord
100
AcDbRegAppTableRecord
  2
ACAD_PSEXT
 70
     0
  0
APPID
  5
43
330
2D
100
AcDbSymbolTableRecord
100
AcDbRegAppTableRecord
  2
AcAecLayerStandard
 70
     0
  0
APPID
  5
30
330
2D
100
AcDbSymbolTableRecord
100
AcDbRegAppTableRecord
  2
ACAD_DSTYLE_DIMJAG
 70
     0
  0
APPID
  5
31
330
2D
100
AcDbSymbolTableRecord
100
AcDbRegAppTableRecord
  2
ACAD_DSTYLE_DIMTALN
 70
     0
  0
APPID
  5
A1
330
2D
100
AcDbSymbolTableRecord
100
AcDbRegAppTableRecord
  2
ACAD_DSTYLE_DIMRADIAL_EXTENSION
 70
     0
  0
APPID
  5
2B
330
2D
100
AcDbSymbolTableRecord
100
AcDbRegAppTableRecord
  2
ACAD_NAV_VCDISPLAY
 70
     0
  0
ENDTAB
  0
TABLE
  2
DIMSTYLE
  5
2E
330
0
100
AcDbSymbolTable
 70
     5
100
AcDbDimStyleTable
 71
     5
340
2F
340
32
340
33
340
34
340
35
  0
DIMSTYLE
105
2F
102
{ACAD_REACTORS
330
97
330
A2
330
B1
330
C0
330
D0
330
DC
330
E8
330
FA
330
10A
330
118
330
128
330
138
330
146
330
154
330
164
330
174
330
184
330
194
102
}
330
2E
100
AcDbSymbolTableRecord
100
AcDbDimStyleTableRecord
  2
Standard
 70
     0
 41
25.0
 42
2.0
 70
     2
140
15.0
141
-0.09
143
0.03937
147
1.0
170
     1
176
     2
177
     2
178
     2
271
     2
272
     2
340
20
345
24
346
24
347
24
371
    -1
372
    -1
1001
ACAD_DSTYLE_DIMJAG
1070
   388
1040
1.5
1001
ACAD_DSTYLE_DIMTALN
1070
   392
1070
     0
  0
DIMSTYLE
105
35
330
2E
100
AcDbSymbolTableRecord
100
AcDbDimStyleTableRecord
  2
ISO-60
 70
     0
 41
55.0
 42
5.0
 43
3.75
 44
1.25
 73
     0
 77
     1
 78
     8
140
60.0
141
2.5
143
0.03937007874016
147
5.0
171
     3
271
     0
272
     0
274
     3
283
     0
284
     8
340
20
  0
DIMSTYLE
105
34
330
2E
100
AcDbSymbolTableRecord
100
AcDbDimStyleTableRecord
  2
0-ISO-40
 70
     0
 41
35.0
 42
5.0
 43
3.75
 44
1.25
 73
     0
 77
     1
 78
     8
140
40.0
141
2.5
143
0.03937007874016
147
5.0
171
     3
172
     1
176
   256
177
   256
178
   256
271
     2
272
     2
274
     3
283
     0
284
     8
340
20
345
24
346
24
347
24
371
    -1
372
    -1
  0
DIMSTYLE
105
32
330
2E
100
AcDbSymbolTableRecord
100
AcDbDimStyleTableRecord
  2
ISO-35
 70
     0
 41
30.0
 42
8.0
 43
3.75
 44
1.25
 73
     0
 77
     1
 78
     8
140
35.0
141
2.5
143
0.03937007874016
147
3.0
171
     3
176
   256
177
   256
178
   256
271
     2
272
     2
274
     3
283
     0
284
     8
340
20
345
24
346
24
347
24
371
    -1
372
    -1
  0
DIMSTYLE
105
33
330
2E
100
AcDbSymbolTableRecord
100
AcDbDimStyleTableRecord
  2
ISO-45
 70
     0
 41
35.0
 42
2.0
 43
3.75
 44
2.0
 73
     0
 77
     1
 78
     8
140
45.0
141
2.5
143
0.03937007874016
147
3.0
171
     3
176
   256
177
   256
178
   256
271
     2
272
     2
274
     3
283
     0
284
     8
340
20
345
24
346
24
347
24
371
    -1
372
    -1
  0
ENDTAB
  0
TABLE
  2
BLOCK_RECORD
  5
1
330
0
100
AcDbSymbolTable
 70
    18
  0
BLOCK_RECORD
  5
2
102
{ACAD_XDICTIONARY
360
3
102
}
330
1
100
AcDbSymbolTableRecord
100
AcDbBlockTableRecord
  2
*Model_Space
340
10
 70
     0
280
     1
281
     0
  0
BLOCK_RECORD
  5
14
330
1
100
AcDbSymbolTableRecord
100
AcDbBlockTableRecord
  2
*Paper_Space
340
17
 70
     0
280
     1
281
     0
  0
BLOCK_RECORD
  5
98
330
1
100
AcDbSymbolTableRecord
100
AcDbBlockTableRecord
  2
*D0
340
0
 70
     0
280
     1
281
     0
  0
BLOCK_RECORD
  5
A5
330
1
100
AcDbSymbolTableRecord
100
AcDbBlockTableRecord
  2
*D1
340
0
 70
     0
280
     1
281
     0
  0
BLOCK_RECORD
  5
B4
330
1
100
AcDbSymbolTableRecord
100
AcDbBlockTableRecord
  2
*D2
340
0
 70
     0
280
     1
281
     0
  0
BLOCK_RECORD
  5
C3
330
1
100
AcDbSymbolTableRecord
100
AcDbBlockTableRecord
  2
*D3
340
0
 70
     0
280
     1
281
     0
  0
BLOCK_RECORD
  5
D3
330
1
100
AcDbSymbolTableRecord
100
AcDbBlockTableRecord
  2
*D4
340
0
 70
     0
280
     1
281
     0
  0
BLOCK_RECORD
  5
DF
330
1
100
AcDbSymbolTableRecord
100
AcDbBlockTableRecord
  2
*D5
340
0
 70
     0
280
     1
281
     0
  0
BLOCK_RECORD
  5
EB
330
1
100
AcDbSymbolTableRecord
100
AcDbBlockTableRecord
  2
*D6
340
0
 70
     0
280
     1
281
     0
  0
BLOCK_RECORD
  5
FD
330
1
100
AcDbSymbolTableRecord
100
AcDbBlockTableRecord
  2
*D7
340
0
 70
     0
280
     1
281
     0
  0
BLOCK_RECORD
  5
10B
330
1
100
AcDbSymbolTableRecord
100
AcDbBlockTableRecord
  2
*D8
340
0
 70
     0
280
     1
281
     0
  0
BLOCK_RECORD
  5
11B
330
1
100
AcDbSymbolTableRecord
100
AcDbBlockTableRecord
  2
*D9
340
0
 70
     0
280
     1
281
     0
  0
BLOCK_RECORD
  5
12B
330
1
100
AcDbSymbolTableRecord
100
AcDbBlockTableRecord
  2
*D10
340
0
 70
     0
280
     1
281
     0
  0
BLOCK_RECORD
  5
139
330
1
100
AcDbSymbolTableRecord
100
AcDbBlockTableRecord
  2
*D11
340
0
 70
     0
280
     1
281
     0
  0
BLOCK_RECORD
  5
147
330
1
100
AcDbSymbolTableRecord
100
AcDbBlockTableRecord
  2
*D12
340
0
 70
     0
280
     1
281
     0
  0
BLOCK_RECORD
  5
157
330
1
100
AcDbSymbolTableRecord
100
AcDbBlockTableRecord
  2
*D13
340
0
 70
     0
280
     1
281
     0
  0
BLOCK_RECORD
  5
167
330
1
100
AcDbSymbolTableRecord
100
AcDbBlockTableRecord
  2
*D14
340
0
 70
     0
280
     1
281
     0
  0
BLOCK_RECORD
  5
177
330
1
100
AcDbSymbolTableRecord
100
AcDbBlockTableRecord
  2
*D15
340
0
 70
     0
280
     1
281
     0
  0
BLOCK_RECORD
  5
187
330
1
100
AcDbSymbolTableRecord
100
AcDbBlockTableRecord
  2
*D16
340
0
 70
     0
280
     1
281
     0
  0
BLOCK_RECORD
  5
197
330
1
100
AcDbSymbolTableRecord
100
AcDbBlockTableRecord
  2
*D17
340
0
 70
     0
280
     1
281
     0
  0
ENDTAB
  0
ENDSEC
  0
SECTION
  2
BLOCKS
  0
BLOCK
  5
5
330
2
100
AcDbEntity
  8
0
100
AcDbBlockBegin
  2
*Model_Space
 70
     0
 10
0.0
 20
0.0
 30
0.0
  3
*Model_Space
  1

  0
ENDBLK
  5
F
330
2
100
AcDbEntity
  8
0
100
AcDbBlockEnd
  0
BLOCK
  5
15
330
14
100
AcDbEntity
 67
     1
  8
0
100
AcDbBlockBegin
  2
*Paper_Space
 70
     0
 10
0.0
 20
0.0
 30
0.0
  3
*Paper_Space
  1

  0
ENDBLK
  5
16
330
14
100
AcDbEntity
 67
     1
  8
0
100
AcDbBlockEnd
  0
BLOCK
  5
99
330
98
100
AcDbEntity
  8
0
 62
     0
370
   100
100
AcDbBlockBegin
  2
*D0
 70
     1
 10
0.0
 20
0.0
 30
0.0
  3
*D0
  1

  0
LINE
  5
9A
330
98
100
AcDbEntity
  8
0
 62
     2
440
 16777216
100
AcDbLine
 10
-29207.32983042218
 20
35420.12593071403
 30
0.0
 11
-28996.50525391797
 21
35485.15670015524
 31
0.0
  0
MTEXT
  5
9B
330
98
100
AcDbEntity
  8
0
 62
     2
440
 16777216
370
   100
100
AcDbMText
 10
-29121.8985448859
 20
35469.92108953117
 30
0.0
 40
30.0
 41
0.0
 46
0.0
 71
     5
 72
     1
  1
R25 [R0.984]
 11
0.9555728057864671
 21
0.2947551744098461
 31
0.0
 73
     1
 44
1.0
  0
SOLID
  5
9C
330
98
100
AcDbEntity
  8
0
 62
     2
440
 16777216
370
   100
100
AcDbTrace
 10
-28997.88077806521
 20
35489.61603991557
 30
0.0
 11
-28995.12972977072
 21
35480.6973603949
 31
0.0
 12
-28969.74921535595
 22
35493.40984503871
 32
0.0
 13
-28969.74921535595
 23
35493.40984503871
 33
0.0
  0
POINT
  5
9D
330
98
100
AcDbEntity
  8
Defpoints
 62
     0
440
 16777216
370
   100
100
AcDbPoint
 10
-28969.74921535595
 20
35493.40984503871
 30
0.0
  0
POINT
  5
9F
330
98
100
AcDbEntity
  8
Defpoints
 62
     0
440
 16777216
370
   100
100
AcDbPoint
 10
-28993.63853550057
 20
35486.04096567848
 30
0.0
  0
ENDBLK
  5
A0
330
98
100
AcDbEntity
  8
0
 62
     0
370
   100
100
AcDbBlockEnd
  0
BLOCK
  5
A6
330
A5
100
AcDbEntity
  8
0
 62
     0
370
   100
100
AcDbBlockBegin
  2
*D1
 70
     1
 10
0.0
 20
0.0
 30
0.0
  3
*D1
  1

  0
LINE
  5
A7
330
A5
100
AcDbEntity
  8
0
 62
     2
440
 16777216
100
AcDbLine
 10
-28985.6385355006
 20
35511.04096567843
 30
0.0
 11
-28899.39034848259
 21
35511.04096567843
 31
0.0
  0
LINE
  5
A8
330
A5
100
AcDbEntity
  8
0
 62
     2
440
 16777216
100
AcDbLine
 10
-28960.66543689803
 20
35133.04096567843
 30
0.0
 11
-28899.39034848259
 21
35133.04096567843
 31
0.0
  0
LINE
  5
A9
330
A5
100
AcDbEntity
  8
0
 62
     2
440
 16777216
100
AcDbLine
 10
-28900.64034848259
 20
35483.04096567843
 30
0.0
 11
-28900.64034848259
 21
35161.04096567843
 31
0.0
  0
SOLID
  5
AA
330
A5
100
AcDbEntity
  8
0
 62
     2
440
 16777216
370
   100
100
AcDbTrace
 10
-28905.30701514925
 20
35483.04096567843
 30
0.0
 11
-28895.97368181592
 21
35483.04096567843
 31
0.0
 12
-28900.64034848259
 22
35511.04096567843
 32
0.0
 13
-28900.64034848259
 23
35511.04096567843
 33
0.0
  0
SOLID
  5
AB
330
A5
100
AcDbEntity
  8
0
 62
     2
440
 16777216
370
   100
100
AcDbTrace
 10
-28905.30701514925
 20
35161.04096567843
 30
0.0
 11
-28895.97368181592
 21
35161.04096567843
 31
0.0
 12
-28900.64034848259
 22
35133.04096567843
 32
0.0
 13
-28900.64034848259
 23
35133.04096567843
 33
0.0
  0
MTEXT
  5
AC
330
A5
100
AcDbEntity
  8
0
 62
     2
440
 16777216
370
   100
100
AcDbMText
 10
-28923.04193463976
 20
35322.04096567843
 30
0.0
 40
30.0
 41
0.0
 46
0.0
 71
     5
 72
     1
  1
378 [14.882]
 11
0.0000000000000001
 21
1.0
 31
0.0
 73
     1
 44
1.0
  0
POINT
  5
AD
330
A5
100
AcDbEntity
  8
Defpoints
 62
     0
440
 16777216
370
   100
100
AcDbPoint
 10
-28993.6385355006
 20
35511.04096567843
 30
0.0
  0
POINT
  5
AE
330
A5
100
AcDbEntity
  8
Defpoints
 62
     0
440
 16777216
370
   100
100
AcDbPoint
 10
-28968.66543689803
 20
35133.04096567843
 30
0.0
  0
POINT
  5
AF
330
A5
100
AcDbEntity
  8
Defpoints
 62
     0
440
 16777216
370
   100
100
AcDbPoint
 10
-28900.64034848259
 20
35133.04096567843
 30
0.0
  0
ENDBLK
  5
B0
330
A5
100
AcDbEntity
  8
0
 62
     0
370
   100
100
AcDbBlockEnd
  0
BLOCK
  5
B5
330
B4
100
AcDbEntity
  8
0
 62
     0
370
   100
100
AcDbBlockBegin
  2
*D2
 70
     1
 10
0.0
 20
0.0
 30
0.0
  3
*D2
  1

  0
LINE
  5
B6
330
B4
100
AcDbEntity
  8
0
 62
     2
440
 16777216
100
AcDbLine
 10
-29526.86480655157
 20
35583.04000699829
 30
0.0
 11
-29771.13890126045
 21
35583.04000699829
 31
0.0
  0
LINE
  5
B7
330
B4
100
AcDbEntity
  8
0
 62
     2
440
 16777216
100
AcDbLine
 10
-29730.6385355006
 20
35133.04096567843
 30
0.0
 11
-29771.13890126045
 21
35133.04096567843
 31
0.0
  0
LINE
  5
B8
330
B4
100
AcDbEntity
  8
0
 62
     2
440
 16777216
100
AcDbLine
 10
-29769.88890126045
 20
35555.04000699829
 30
0.0
 11
-29769.88890126045
 21
35161.04096567843
 31
0.0
  0
SOLID
  5
B9
330
B4
100
AcDbEntity
  8
0
 62
     2
440
 16777216
370
   100
100
AcDbTrace
 10
-29774.55556792712
 20
35555.04000699829
 30
0.0
 11
-29765.22223459378
 21
35555.04000699829
 31
0.0
 12
-29769.88890126045
 22
35583.04000699829
 32
0.0
 13
-29769.88890126045
 23
35583.04000699829
 33
0.0
  0
SOLID
  5
BA
330
B4
100
AcDbEntity
  8
0
 62
     2
440
 16777216
370
   100
100
AcDbTrace
 10
-29774.55556792712
 20
35161.04096567843
 30
0.0
 11
-29765.22223459378
 21
35161.04096567843
 31
0.0
 12
-29769.88890126045
 22
35133.04096567843
 32
0.0
 13
-29769.88890126045
 23
35133.04096567843
 33
0.0
  0
MTEXT
  5
BB
330
B4
100
AcDbEntity
  8
0
 62
     2
440
 16777216
370
   100
100
AcDbMText
 10
-29792.29048741763
 20
35358.04048633835
 30
0.0
 40
30.0
 41
0.0
 46
0.0
 71
     5
 72
     1
  1
450 [17.716]
 11
0.0000000000000001
 21
1.0
 31
0.0
 73
     1
 44
1.0
  0
POINT
  5
BC
330
B4
100
AcDbEntity
  8
Defpoints
 62
     0
440
 16777216
370
   100
100
AcDbPoint
 10
-29518.86480655157
 20
35583.04000699829
 30
0.0
  0
POINT
  5
BD
330
B4
100
AcDbEntity
  8
Defpoints
 62
     0
440
 16777216
370
   100
100
AcDbPoint
 10
-29722.6385355006
 20
35133.04096567843
 30
0.0
  0
POINT
  5
BE
330
B4
100
AcDbEntity
  8
Defpoints
 62
     0
440
 16777216
370
   100
100
AcDbPoint
 10
-29769.88890126045
 20
35133.04096567843
 30
0.0
  0
ENDBLK
  5
BF
330
B4
100
AcDbEntity
  8
0
 62
     0
370
   100
100
AcDbBlockEnd
  0
BLOCK
  5
C4
330
C3
100
AcDbEntity
  8
0
 62
     0
370
   100
100
AcDbBlockBegin
  2
*D3
 70
     1
 10
0.0
 20
0.0
 30
0.0
  3
*D3
  1

  0
LINE
  5
C5
330
C3
100
AcDbEntity
  8
0
 62
     2
440
 16777216
100
AcDbLine
 10
-29722.6385355006
 20
35150.92425311308
 30
0.0
 11
-29722.6385355006
 21
35072.78117576215
 31
0.0
  0
LINE
  5
C6
330
C3
100
AcDbEntity
  8
0
 62
     2
440
 16777216
100
AcDbLine
 10
-28968.6385355006
 20
35156.04096567843
 30
0.0
 11
-28968.6385355006
 21
35072.78117576215
 31
0.0
  0
LINE
  5
C7
330
C3
100
AcDbEntity
  8
0
 62
     2
440
 16777216
100
AcDbLine
 10
-29697.6385355006
 20
35072.96117576215
 30
0.0
 11
-29396.71571646671
 21
35072.96117576215
 31
0.0
  0
LINE
  5
C8
330
C3
100
AcDbEntity
  8
0
 62
     2
440
 16777216
100
AcDbLine
 10
-28993.6385355006
 20
35072.96117576215
 30
0.0
 11
-29294.56135453449
 21
35072.96117576215
 31
0.0
  0
SOLID
  5
C9
330
C3
100
AcDbEntity
  8
0
 62
     2
440
 16777216
370
   100
100
AcDbTrace
 10
-29697.6385355006
 20
35077.12784242881
 30
0.0
 11
-29697.6385355006
 21
35068.79450909548
 31
0.0
 12
-29722.6385355006
 22
35072.96117576215
 32
0.0
 13
-29722.6385355006
 23
35072.96117576215
 33
0.0
  0
SOLID
  5
CA
330
C3
100
AcDbEntity
  8
0
 62
     2
440
 16777216
370
   100
100
AcDbTrace
 10
-28993.6385355006
 20
35077.12784242881
 30
0.0
 11
-28993.6385355006
 21
35068.79450909548
 31
0.0
 12
-28968.6385355006
 22
35072.96117576215
 32
0.0
 13
-28968.6385355006
 23
35072.96117576215
 33
0.0
  0
MTEXT
  5
CB
330
C3
100
AcDbEntity
  8
0
 62
     2
440
 16777216
370
   100
100
AcDbMText
 10
-29345.6385355006
 20
35072.96117576215
 30
0.0
 40
15.0
 41
0.0
 46
0.0
 71
     5
 72
     1
  1
\A1;754.00 [29.68]
 73
     1
 44
1.0
  0
POINT
  5
CC
330
C3
100
AcDbEntity
  8
Defpoints
 62
     0
440
 16777216
370
   100
100
AcDbPoint
 10
-29722.6385355006
 20
35152.92425311308
 30
0.0
  0
POINT
  5
CD
330
C3
100
AcDbEntity
  8
Defpoints
 62
     0
440
 16777216
370
   100
100
AcDbPoint
 10
-28968.6385355006
 20
35158.04096567843
 30
0.0
  0
POINT
  5
CE
330
C3
100
AcDbEntity
  8
Defpoints
 62
     0
440
 16777216
370
   100
100
AcDbPoint
 10
-28968.6385355006
 20
35072.96117576215
 30
0.0
  0
ENDBLK
  5
CF
330
C3
100
AcDbEntity
  8
0
 62
     0
370
   100
100
AcDbBlockEnd
  0
BLOCK
  5
D4
330
D3
100
AcDbEntity
  8
0
 62
     0
370
   100
100
AcDbBlockBegin
  2
*D4
 70
     1
 10
0.0
 20
0.0
 30
0.0
  3
*D4
  1

  0
LINE
  5
D5
330
D3
100
AcDbEntity
  8
标注
 62
     2
440
 16777216
100
AcDbLine
 10
-29648.90056800482
 20
35486.8094511951
 30
0.0
 11
-29673.90056800483
 21
35486.80945119509
 31
0.0
  0
LINE
  5
D6
330
D3
100
AcDbEntity
  8
标注
 62
     2
440
 16777216
100
AcDbLine
 10
-29673.90056800483
 20
35486.80945119509
 30
0.0
 11
-29697.32302737458
 21
35495.54949679406
 31
0.0
  0
MTEXT
  5
D7
330
D3
100
AcDbEntity
  8
标注
 62
     2
440
 16777216
370
   100
100
AcDbMText
 10
-29594.7655283509
 20
35486.80945119509
 30
0.0
 40
15.0
 41
0.0
 46
0.0
 71
     5
 72
     1
  1
\A1;R30.00 [R1.18]
 73
     1
 44
1.0
  0
SOLID
  5
D8
330
D3
100
AcDbEntity
  8
标注
 62
     2
440
 16777216
370
   100
100
AcDbTrace
 10
-29695.86635310809
 20
35499.45324002236
 30
0.0
 11
-29698.77970164108
 21
35491.64575356577
 31
0.0
 12
-29720.74548674434
 22
35504.28954239304
 32
0.0
 13
-29720.74548674434
 23
35504.28954239304
 33
0.0
  0
POINT
  5
D9
330
D3
100
AcDbEntity
  8
Defpoints
 62
     0
440
 16777216
370
   100
100
AcDbPoint
 10
-29720.74548674434
 20
35504.28954239304
 30
0.0
  0
POINT
  5
DA
330
D3
100
AcDbEntity
  8
Defpoints
 62
     0
440
 16777216
370
   100
100
AcDbPoint
 10
-29692.6385355006
 20
35493.80148767425
 30
0.0
  0
ENDBLK
  5
DB
330
D3
100
AcDbEntity
  8
0
 62
     0
370
   100
100
AcDbBlockEnd
  0
BLOCK
  5
E0
330
DF
100
AcDbEntity
  8
0
 62
     0
370
   100
100
AcDbBlockBegin
  2
*D5
 70
     1
 10
0.0
 20
0.0
 30
0.0
  3
*D5
  1

  0
LINE
  5
E1
330
DF
100
AcDbEntity
  8
标注
 62
     2
440
 16777216
100
AcDbLine
 10
-29532.69573797581
 20
35419.37455341376
 30
0.0
 11
-29507.69573797581
 21
35419.37455341376
 31
0.0
  0
LINE
  5
E2
330
DF
100
AcDbEntity
  8
标注
 62
     2
440
 16777216
100
AcDbLine
 10
-29507.69573797581
 20
35419.37455341376
 30
0.0
 11
-29496.62280667013
 21
35557.11735597804
 31
0.0
  0
MTEXT
  5
E3
330
DF
100
AcDbEntity
  8
标注
 62
     2
440
 16777216
370
   100
100
AcDbMText
 10
-29595.46870120581
 20
35419.37455341376
 30
0.0
 40
15.0
 41
0.0
 46
0.0
 71
     5
 72
     1
  1
\A1;R312.23 [R12.29]
 73
     1
 44
1.0
  0
SOLID
  5
E4
330
DF
100
AcDbEntity
  8
标注
 62
     2
440
 16777216
370
   100
100
AcDbTrace
 10
-29500.77607510628
 20
35557.45123081747
 30
0.0
 11
-29492.46953823398
 21
35556.78348113862
 31
0.0
 12
-29494.6195576336
 22
35582.03696659494
 32
0.0
 13
-29494.6195576336
 23
35582.03696659494
 33
0.0
  0
POINT
  5
E5
330
DF
100
AcDbEntity
  8
Defpoints
 62
     0
440
 16777216
370
   100
100
AcDbPoint
 10
-29494.6195576336
 20
35582.03696659494
 30
0.0
  0
POINT
  5
E6
330
DF
100
AcDbEntity
  8
Defpoints
 62
     0
440
 16777216
370
   100
100
AcDbPoint
 10
-29519.63853550057
 20
35270.81096567836
 30
0.0
  0
ENDBLK
  5
E7
330
DF
100
AcDbEntity
  8
0
 62
     0
370
   100
100
AcDbBlockEnd
  0
BLOCK
  5
EC
330
EB
100
AcDbEntity
  8
0
 62
     0
370
   100
100
AcDbBlockBegin
  2
*D6
 70
     1
 10
0.0
 20
0.0
 30
0.0
  3
*D6
  1

  0
LINE
  5
ED
330
EB
100
AcDbEntity
  8
标注
 62
     2
440
 16777216
100
AcDbLine
 10
-29357.41325309976
 20
35464.34921556578
 30
0.0
 11
-29332.41325309975
 21
35464.34921556578
 31
0.0
  0
LINE
  5
EE
330
EB
100
AcDbEntity
  8
标注
 62
     2
440
 16777216
100
AcDbLine
 10
-29332.41325309975
 20
35464.34921556578
 30
0.0
 11
-29325.29829674211
 21
35488.31538747597
 31
0.0
  0
MTEXT
  5
EF
330
EB
100
AcDbEntity
  8
标注
 62
     2
440
 16777216
370
   100
100
AcDbMText
 10
-29411.54829275368
 20
35464.34921556578
 30
0.0
 40
15.0
 41
0.0
 46
0.0
 71
     5
 72
     1
  1
\A1;R30.00 [R1.18]
 73
     1
 44
1.0
  0
SOLID
  5
F0
330
EB
100
AcDbEntity
  8
标注
 62
     2
440
 16777216
370
   100
100
AcDbTrace
 10
-29329.29265872714
 20
35489.50121353557
 30
0.0
 11
-29321.30393475708
 21
35487.12956141636
 31
0.0
 12
-29318.18334038447
 22
35512.28155938616
 32
0.0
 13
-29318.18334038447
 23
35512.28155938616
 33
0.0
  0
LINE
  5
F1
330
EB
100
AcDbEntity
  8
标注
 62
     2
440
 16777216
100
AcDbLine
 10
-29309.73539275531
 20
35541.04096567837
 30
0.0
 11
-29309.55539275531
 21
35541.04096567837
 31
0.0
  0
LINE
  5
F2
330
EB
100
AcDbEntity
  8
标注
 62
     2
440
 16777216
100
AcDbLine
 10
-29309.64539275532
 20
35540.95096567837
 30
0.0
 11
-29309.64539275531
 21
35541.13096567836
 31
0.0
  0
LINE
  5
F3
330
EB
100
AcDbEntity
  8
标注
 62
     2
440
 16777216
100
AcDbLine
 10
-29309.82539275531
 20
35541.04096567836
 30
0.0
 11
-29339.73539275528
 21
35541.04096567837
 31
0.0
  0
LINE
  5
F4
330
EB
100
AcDbEntity
  8
标注
 62
     2
440
 16777216
100
AcDbLine
 10
-29309.46539275531
 20
35541.04096567837
 30
0.0
 11
-29279.55539275534
 21
35541.04096567837
 31
0.0
  0
LINE
  5
F5
330
EB
100
AcDbEntity
  8
标注
 62
     2
440
 16777216
100
AcDbLine
 10
-29309.64539275531
 20
35540.86096567837
 30
0.0
 11
-29309.64539275531
 21
35510.95096567839
 31
0.0
  0
LINE
  5
F6
330
EB
100
AcDbEntity
  8
标注
 62
     2
440
 16777216
100
AcDbLine
 10
-29309.64539275531
 20
35541.22096567836
 30
0.0
 11
-29309.64539275531
 21
35571.13096567833
 31
0.0
  0
POINT
  5
F7
330
EB
100
AcDbEntity
  8
Defpoints
 62
     0
440
 16777216
370
   100
100
AcDbPoint
 10
-29318.18334038447
 20
35512.28155938616
 30
0.0
  0
POINT
  5
F8
330
EB
100
AcDbEntity
  8
Defpoints
 62
     0
440
 16777216
370
   100
100
AcDbPoint
 10
-29309.64539275531
 20
35541.04096567837
 30
0.0
  0
ENDBLK
  5
F9
330
EB
100
AcDbEntity
  8
0
 62
     0
370
   100
100
AcDbBlockEnd
  0
BLOCK
  5
FE
330
FD
100
AcDbEntity
  8
0
 62
     0
370
   100
100
AcDbBlockBegin
  2
*D7
 70
     1
 10
0.0
 20
0.0
 30
0.0
  3
*D7
  1

  0
LINE
  5
FF
330
FD
100
AcDbEntity
  8
标注
 62
     2
440
 16777216
100
AcDbLine
 10
-27947.80855844385
 20
35675.0511550022
 30
0.0
 11
-28247.06997565955
 21
35675.0511550022
 31
0.0
  0
LINE
  5
100
330
FD
100
AcDbEntity
  8
标注
 62
     2
440
 16777216
100
AcDbLine
 10
-28123.80855844385
 20
35225.0511550022
 30
0.0
 11
-28247.06997565955
 21
35225.0511550022
 31
0.0
  0
LINE
  5
101
330
FD
100
AcDbEntity
  8
标注
 62
     2
440
 16777216
100
AcDbLine
 10
-28246.88997565955
 20
35650.0511550022
 30
0.0
 11
-28246.88997565955
 21
35460.75194808078
 31
0.0
  0
LINE
  5
102
330
FD
100
AcDbEntity
  8
标注
 62
     2
440
 16777216
100
AcDbLine
 10
-28246.88997565955
 20
35250.0511550022
 30
0.0
 11
-28246.88997565955
 21
35439.35036192362
 31
0.0
  0
SOLID
  5
103
330
FD
100
AcDbEntity
  8
标注
 62
     2
440
 16777216
370
   100
100
AcDbTrace
 10
-28251.05664232621
 20
35650.0511550022
 30
0.0
 11
-28242.72330899288
 21
35650.0511550022
 31
0.0
 12
-28246.88997565955
 22
35675.0511550022
 32
0.0
 13
-28246.88997565955
 23
35675.0511550022
 33
0.0
  0
SOLID
  5
104
330
FD
100
AcDbEntity
  8
标注
 62
     2
440
 16777216
370
   100
100
AcDbTrace
 10
-28251.05664232621
 20
35250.0511550022
 30
0.0
 11
-28242.72330899288
 21
35250.0511550022
 31
0.0
 12
-28246.88997565955
 22
35225.0511550022
 32
0.0
 13
-28246.88997565955
 23
35225.0511550022
 33
0.0
  0
MTEXT
  5
105
330
FD
100
AcDbEntity
  8
标注
 62
     2
440
 16777216
370
   100
100
AcDbMText
 10
-28246.88997565955
 20
35450.05115500219
 30
0.0
 40
15.0
 41
0.0
 46
0.0
 71
     5
 72
     1
  1
\A1;450.00 [17.72]
 73
     1
 44
1.0
  0
POINT
  5
106
330
FD
100
AcDbEntity
  8
Defpoints
 62
     0
440
 16777216
370
   100
100
AcDbPoint
 10
-27945.80855844385
 20
35675.0511550022
 30
0.0
  0
POINT
  5
107
330
FD
100
AcDbEntity
  8
Defpoints
 62
     0
440
 16777216
370
   100
100
AcDbPoint
 10
-28121.80855844385
 20
35225.0511550022
 30
0.0
  0
POINT
  5
108
330
FD
100
AcDbEntity
  8
Defpoints
 62
     0
440
 16777216
370
   100
100
AcDbPoint
 10
-28246.88997565955
 20
35225.0511550022
 30
0.0
  0
ENDBLK
  5
109
330
FD
100
AcDbEntity
  8
0
 62
     0
370
   100
100
AcDbBlockEnd
  0
BLOCK
  5
10C
330
10B
100
AcDbEntity
  8
0
 62
     0
370
   100
100
AcDbBlockBegin
  2
*D8
 70
     1
 10
0.0
 20
0.0
 30
0.0
  3
*D8
  1

  0
LINE
  5
10D
330
10B
100
AcDbEntity
  8
标注
 62
     2
440
 16777216
100
AcDbLine
 10
-27947.80855844385
 20
35703.0511550022
 30
0.0
 11
-28364.75000728973
 21
35703.0511550022
 31
0.0
  0
LINE
  5
10E
330
10B
100
AcDbEntity
  8
标注
 62
     2
440
 16777216
100
AcDbLine
 10
-28148.80855844385
 20
35197.0511550022
 30
0.0
 11
-28364.75000728973
 21
35197.0511550022
 31
0.0
  0
LINE
  5
10F
330
10B
100
AcDbEntity
  8
标注
 62
     2
440
 16777216
100
AcDbLine
 10
-28364.57000728973
 20
35678.0511550022
 30
0.0
 11
-28364.57000728973
 21
35460.75194808078
 31
0.0
  0
LINE
  5
110
330
10B
100
AcDbEntity
  8
标注
 62
     2
440
 16777216
100
AcDbLine
 10
-28364.57000728973
 20
35222.0511550022
 30
0.0
 11
-28364.57000728973
 21
35439.35036192362
 31
0.0
  0
SOLID
  5
111
330
10B
100
AcDbEntity
  8
标注
 62
     2
440
 16777216
370
   100
100
AcDbTrace
 10
-28368.7366739564
 20
35678.0511550022
 30
0.0
 11
-28360.40334062306
 21
35678.0511550022
 31
0.0
 12
-28364.57000728973
 22
35703.0511550022
 32
0.0
 13
-28364.57000728973
 23
35703.0511550022
 33
0.0
  0
SOLID
  5
112
330
10B
100
AcDbEntity
  8
标注
 62
     2
440
 16777216
370
   100
100
AcDbTrace
 10
-28368.7366739564
 20
35222.0511550022
 30
0.0
 11
-28360.40334062306
 21
35222.0511550022
 31
0.0
 12
-28364.57000728973
 22
35197.0511550022
 32
0.0
 13
-28364.57000728973
 23
35197.0511550022
 33
0.0
  0
MTEXT
  5
113
330
10B
100
AcDbEntity
  8
标注
 62
     2
440
 16777216
370
   100
100
AcDbMText
 10
-28364.57000728973
 20
35450.05115500219
 30
0.0
 40
15.0
 41
0.0
 46
0.0
 71
     5
 72
     1
  1
\A1;506.00 [19.92]
 73
     1
 44
1.0
  0
POINT
  5
114
330
10B
100
AcDbEntity
  8
Defpoints
 62
     0
440
 16777216
370
   100
100
AcDbPoint
 10
-27945.80855844385
 20
35703.0511550022
 30
0.0
  0
POINT
  5
115
330
10B
100
AcDbEntity
  8
Defpoints
 62
     0
440
 16777216
370
   100
100
AcDbPoint
 10
-28146.80855844385
 20
35197.0511550022
 30
0.0
  0
POINT
  5
116
330
10B
100
AcDbEntity
  8
Defpoints
 62
     0
440
 16777216
370
   100
100
AcDbPoint
 10
-28364.57000728973
 20
35197.0511550022
 30
0.0
  0
ENDBLK
  5
117
330
10B
100
AcDbEntity
  8
0
 62
     0
370
   100
100
AcDbBlockEnd
  0
BLOCK
  5
11C
330
11B
100
AcDbEntity
  8
0
 62
     0
370
   100
100
AcDbBlockBegin
  2
*D9
 70
     1
 10
0.0
 20
0.0
 30
0.0
  3
*D9
  1

  0
LINE
  5
11D
330
11B
100
AcDbEntity
  8
标注
 62
     2
440
 16777216
100
AcDbLine
 10
-27415.80855844385
 20
35603.0511550022
 30
0.0
 11
-27299.55755580376
 21
35603.0511550022
 31
0.0
  0
LINE
  5
11E
330
11B
100
AcDbEntity
  8
标注
 62
     2
440
 16777216
100
AcDbLine
 10
-27413.80855844385
 20
35225.0511550022
 30
0.0
 11
-27299.55755580376
 21
35225.0511550022
 31
0.0
  0
LINE
  5
11F
330
11B
100
AcDbEntity
  8
标注
 62
     2
440
 16777216
100
AcDbLine
 10
-27299.73755580376
 20
35578.0511550022
 30
0.0
 11
-27299.73755580376
 21
35424.75194808079
 31
0.0
  0
LINE
  5
120
330
11B
100
AcDbEntity
  8
标注
 62
     2
440
 16777216
100
AcDbLine
 10
-27299.73755580376
 20
35250.0511550022
 30
0.0
 11
-27299.73755580376
 21
35403.35036192362
 31
0.0
  0
SOLID
  5
121
330
11B
100
AcDbEntity
  8
标注
 62
     2
440
 16777216
370
   100
100
AcDbTrace
 10
-27303.90422247042
 20
35578.0511550022
 30
0.0
 11
-27295.57088913709
 21
35578.0511550022
 31
0.0
 12
-27299.73755580376
 22
35603.0511550022
 32
0.0
 13
-27299.73755580376
 23
35603.0511550022
 33
0.0
  0
SOLID
  5
122
330
11B
100
AcDbEntity
  8
标注
 62
     2
440
 16777216
370
   100
100
AcDbTrace
 10
-27303.90422247042
 20
35250.0511550022
 30
0.0
 11
-27295.57088913709
 21
35250.0511550022
 31
0.0
 12
-27299.73755580376
 22
35225.0511550022
 32
0.0
 13
-27299.73755580376
 23
35225.0511550022
 33
0.0
  0
MTEXT
  5
123
330
11B
100
AcDbEntity
  8
标注
 62
     2
440
 16777216
370
   100
100
AcDbMText
 10
-27299.73755580376
 20
35414.05115500219
 30
0.0
 40
15.0
 41
0.0
 46
0.0
 71
     5
 72
     1
  1
\A1;378.00 [14.88]
 73
     1
 44
1.0
  0
POINT
  5
124
330
11B
100
AcDbEntity
  8
Defpoints
 62
     0
440
 16777216
370
   100
100
AcDbPoint
 10
-27417.80855844385
 20
35603.0511550022
 30
0.0
  0
POINT
  5
125
330
11B
100
AcDbEntity
  8
Defpoints
 62
     0
440
 16777216
370
   100
100
AcDbPoint
 10
-27415.80855844385
 20
35225.0511550022
 30
0.0
  0
POINT
  5
126
330
11B
100
AcDbEntity
  8
Defpoints
 62
     0
440
 16777216
370
   100
100
AcDbPoint
 10
-27299.73755580376
 20
35225.0511550022
 30
0.0
  0
ENDBLK
  5
127
330
11B
100
AcDbEntity
  8
0
 62
     0
370
   100
100
AcDbBlockEnd
  0
BLOCK
  5
12C
330
12B
100
AcDbEntity
  8
0
 62
     0
370
   100
100
AcDbBlockBegin
  2
*D10
 70
     1
 10
0.0
 20
0.0
 30
0.0
  3
*D10
  1

  0
LINE
  5
12D
330
12B
100
AcDbEntity
  8
标注
 62
     2
440
 16777216
100
AcDbLine
 10
-27392.80855844385
 20
35631.0511550022
 30
0.0
 11
-27175.19971134276
 21
35631.0511550022
 31
0.0
  0
LINE
  5
12E
330
12B
100
AcDbEntity
  8
标注
 62
     2
440
 16777216
100
AcDbLine
 10
-27390.80855844385
 20
35199.0511550022
 30
0.0
 11
-27175.19971134276
 21
35199.0511550022
 31
0.0
  0
LINE
  5
12F
330
12B
100
AcDbEntity
  8
标注
 62
     2
440
 16777216
100
AcDbLine
 10
-27175.37971134276
 20
35606.0511550022
 30
0.0
 11
-27175.37971134276
 21
35425.75194808078
 31
0.0
  0
LINE
  5
130
330
12B
100
AcDbEntity
  8
标注
 62
     2
440
 16777216
100
AcDbLine
 10
-27175.37971134276
 20
35224.0511550022
 30
0.0
 11
-27175.37971134276
 21
35404.35036192361
 31
0.0
  0
SOLID
  5
131
330
12B
100
AcDbEntity
  8
标注
 62
     2
440
 16777216
370
   100
100
AcDbTrace
 10
-27179.54637800942
 20
35606.0511550022
 30
0.0
 11
-27171.21304467609
 21
35606.0511550022
 31
0.0
 12
-27175.37971134276
 22
35631.0511550022
 32
0.0
 13
-27175.37971134276
 23
35631.0511550022
 33
0.0
  0
SOLID
  5
132
330
12B
100
AcDbEntity
  8
标注
 62
     2
440
 16777216
370
   100
100
AcDbTrace
 10
-27179.54637800942
 20
35224.0511550022
 30
0.0
 11
-27171.21304467609
 21
35224.0511550022
 31
0.0
 12
-27175.37971134276
 22
35199.0511550022
 32
0.0
 13
-27175.37971134276
 23
35199.0511550022
 33
0.0
  0
MTEXT
  5
133
330
12B
100
AcDbEntity
  8
标注
 62
     2
440
 16777216
370
   100
100
AcDbMText
 10
-27175.37971134276
 20
35415.05115500219
 30
0.0
 40
15.0
 41
0.0
 46
0.0
 71
     5
 72
     1
  1
\A1;432.00 [17.01]
 73
     1
 44
1.0
  0
POINT
  5
134
330
12B
100
AcDbEntity
  8
Defpoints
 62
     0
440
 16777216
370
   100
100
AcDbPoint
 10
-27394.80855844385
 20
35631.0511550022
 30
0.0
  0
POINT
  5
135
330
12B
100
AcDbEntity
  8
Defpoints
 62
     0
440
 16777216
370
   100
100
AcDbPoint
 10
-27392.80855844385
 20
35199.0511550022
 30
0.0
  0
POINT
  5
136
330
12B
100
AcDbEntity
  8
Defpoints
 62
     0
440
 16777216
370
   100
100
AcDbPoint
 10
-27175.37971134276
 20
35199.0511550022
 30
0.0
  0
ENDBLK
  5
137
330
12B
100
AcDbEntity
  8
0
 62
     0
370
   100
100
AcDbBlockEnd
  0
BLOCK
  5
13A
330
139
100
AcDbEntity
  8
0
 62
     0
370
   100
100
AcDbBlockBegin
  2
*D11
 70
     1
 10
0.0
 20
0.0
 30
0.0
  3
*D11
  1

  0
LINE
  5
13B
330
139
100
AcDbEntity
  8
标注
 62
     2
440
 16777216
100
AcDbLine
 10
-28146.80855844385
 20
35246.0511550022
 30
0.0
 11
-28146.80855844385
 21
35139.05314341263
 31
0.0
  0
LINE
  5
13C
330
139
100
AcDbEntity
  8
标注
 62
     2
440
 16777216
100
AcDbLine
 10
-27740.80855844385
 20
35246.0511550022
 30
0.0
 11
-27740.80855844385
 21
35139.05314341263
 31
0.0
  0
LINE
  5
13D
330
139
100
AcDbEntity
  8
标注
 62
     2
440
 16777216
100
AcDbLine
 10
-28121.80855844385
 20
35139.23314341262
 30
0.0
 11
-27995.0713197993
 21
35139.23314341262
 31
0.0
  0
LINE
  5
13E
330
139
100
AcDbEntity
  8
标注
 62
     2
440
 16777216
100
AcDbLine
 10
-27765.80855844385
 20
35139.23314341262
 30
0.0
 11
-27892.54579708841
 21
35139.23314341262
 31
0.0
  0
SOLID
  5
13F
330
139
100
AcDbEntity
  8
标注
 62
     2
440
 16777216
370
   100
100
AcDbTrace
 10
-28121.80855844385
 20
35143.39981007929
 30
0.0
 11
-28121.80855844385
 21
35135.06647674596
 31
0.0
 12
-28146.80855844385
 22
35139.23314341262
 32
0.0
 13
-28146.80855844385
 23
35139.23314341262
 33
0.0
  0
SOLID
  5
140
330
139
100
AcDbEntity
  8
标注
 62
     2
440
 16777216
370
   100
100
AcDbTrace
 10
-27765.80855844385
 20
35143.39981007929
 30
0.0
 11
-27765.80855844385
 21
35135.06647674596
 31
0.0
 12
-27740.80855844385
 22
35139.23314341262
 32
0.0
 13
-27740.80855844385
 23
35139.23314341262
 33
0.0
  0
MTEXT
  5
141
330
139
100
AcDbEntity
  8
标注
 62
     2
440
 16777216
370
   100
100
AcDbMText
 10
-27943.80855844385
 20
35139.23314341262
 30
0.0
 40
15.0
 41
0.0
 46
0.0
 71
     5
 72
     1
  1
\A1;406.00 [15.98]
 73
     1
 44
1.0
  0
POINT
  5
142
330
139
100
AcDbEntity
  8
Defpoints
 62
     0
440
 16777216
370
   100
100
AcDbPoint
 10
-28146.80855844385
 20
35248.0511550022
 30
0.0
  0
POINT
  5
143
330
139
100
AcDbEntity
  8
Defpoints
 62
     0
440
 16777216
370
   100
100
AcDbPoint
 10
-27740.80855844385
 20
35248.0511550022
 30
0.0
  0
POINT
  5
144
330
139
100
AcDbEntity
  8
Defpoints
 62
     0
440
 16777216
370
   100
100
AcDbPoint
 10
-27740.80855844385
 20
35139.23314341262
 30
0.0
  0
ENDBLK
  5
145
330
139
100
AcDbEntity
  8
0
 62
     0
370
   100
100
AcDbBlockEnd
  0
BLOCK
  5
148
330
147
100
AcDbEntity
  8
0
 62
     0
370
   100
100
AcDbBlockBegin
  2
*D12
 70
     1
 10
0.0
 20
0.0
 30
0.0
  3
*D12
  1

  0
LINE
  5
149
330
147
100
AcDbEntity
  8
标注
 62
     2
440
 16777216
100
AcDbLine
 10
-27710.80855844386
 20
35246.0511550022
 30
0.0
 11
-27710.80855844386
 21
35139.05314341263
 31
0.0
  0
LINE
  5
14A
330
147
100
AcDbEntity
  8
标注
 62
     2
440
 16777216
100
AcDbLine
 10
-27392.80855844385
 20
35246.0511550022
 30
0.0
 11
-27392.80855844385
 21
35139.05314341263
 31
0.0
  0
LINE
  5
14B
330
147
100
AcDbEntity
  8
标注
 62
     2
440
 16777216
100
AcDbLine
 10
-27685.80855844385
 20
35139.23314341262
 30
0.0
 11
-27602.85621525712
 21
35139.23314341262
 31
0.0
  0
LINE
  5
14C
330
147
100
AcDbEntity
  8
标注
 62
     2
440
 16777216
100
AcDbLine
 10
-27417.80855844385
 20
35139.23314341262
 30
0.0
 11
-27500.76090163059
 21
35139.23314341262
 31
0.0
  0
SOLID
  5
14D
330
147
100
AcDbEntity
  8
标注
 62
     2
440
 16777216
370
   100
100
AcDbTrace
 10
-27685.80855844385
 20
35143.39981007929
 30
0.0
 11
-27685.80855844385
 21
35135.06647674596
 31
0.0
 12
-27710.80855844386
 22
35139.23314341262
 32
0.0
 13
-27710.80855844386
 23
35139.23314341262
 33
0.0
  0
SOLID
  5
14E
330
147
100
AcDbEntity
  8
标注
 62
     2
440
 16777216
370
   100
100
AcDbTrace
 10
-27417.80855844385
 20
35143.39981007929
 30
0.0
 11
-27417.80855844385
 21
35135.06647674596
 31
0.0
 12
-27392.80855844385
 22
35139.23314341262
 32
0.0
 13
-27392.80855844385
 23
35139.23314341262
 33
0.0
  0
MTEXT
  5
14F
330
147
100
AcDbEntity
  8
标注
 62
     2
440
 16777216
370
   100
100
AcDbMText
 10
-27551.80855844385
 20
35139.23314341262
 30
0.0
 40
15.0
 41
0.0
 46
0.0
 71
     5
 72
     1
  1
\A1;318.00 [12.52]
 73
     1
 44
1.0
  0
POINT
  5
150
330
147
100
AcDbEntity
  8
Defpoints
 62
     0
440
 16777216
370
   100
100
AcDbPoint
 10
-27710.80855844386
 20
35248.0511550022
 30
0.0
  0
POINT
  5
151
330
147
100
AcDbEntity
  8
Defpoints
 62
     0
440
 16777216
370
   100
100
AcDbPoint
 10
-27392.80855844385
 20
35248.0511550022
 30
0.0
  0
POINT
  5
152
330
147
100
AcDbEntity
  8
Defpoints
 62
     0
440
 16777216
370
   100
100
AcDbPoint
 10
-27392.80855844385
 20
35139.23314341262
 30
0.0
  0
ENDBLK
  5
153
330
147
100
AcDbEntity
  8
0
 62
     0
370
   100
100
AcDbBlockEnd
  0
BLOCK
  5
158
330
157
100
AcDbEntity
  8
0
 62
     0
370
   100
100
AcDbBlockBegin
  2
*D13
 70
     1
 10
0.0
 20
0.0
 30
0.0
  3
*D13
  1

  0
LINE
  5
159
330
157
100
AcDbEntity
  8
标注
 62
     2
440
 16777216
100
AcDbLine
 10
-28174.80855844385
 20
35225.0511550022
 30
0.0
 11
-28174.80855844385
 21
35082.68942144012
 31
0.0
  0
LINE
  5
15A
330
157
100
AcDbEntity
  8
标注
 62
     2
440
 16777216
100
AcDbLine
 10
-27364.80855844385
 20
35225.0511550022
 30
0.0
 11
-27364.80855844385
 21
35082.68942144012
 31
0.0
  0
LINE
  5
15B
330
157
100
AcDbEntity
  8
标注
 62
     2
440
 16777216
100
AcDbLine
 10
-28149.80855844385
 20
35082.86942144012
 30
0.0
 11
-27820.68328807615
 21
35082.86942144012
 31
0.0
  0
LINE
  5
15C
330
157
100
AcDbEntity
  8
标注
 62
     2
440
 16777216
100
AcDbLine
 10
-27389.80855844385
 20
35082.86942144012
 30
0.0
 11
-27718.93382881156
 21
35082.86942144012
 31
0.0
  0
SOLID
  5
15D
330
157
100
AcDbEntity
  8
标注
 62
     2
440
 16777216
370
   100
100
AcDbTrace
 10
-28149.80855844385
 20
35087.03608810678
 30
0.0
 11
-28149.80855844385
 21
35078.70275477345
 31
0.0
 12
-28174.80855844385
 22
35082.86942144012
 32
0.0
 13
-28174.80855844385
 23
35082.86942144012
 33
0.0
  0
SOLID
  5
15E
330
157
100
AcDbEntity
  8
标注
 62
     2
440
 16777216
370
   100
100
AcDbTrace
 10
-27389.80855844385
 20
35087.03608810678
 30
0.0
 11
-27389.80855844385
 21
35078.70275477345
 31
0.0
 12
-27364.80855844385
 22
35082.86942144012
 32
0.0
 13
-27364.80855844385
 23
35082.86942144012
 33
0.0
  0
MTEXT
  5
15F
330
157
100
AcDbEntity
  8
标注
 62
     2
440
 16777216
370
   100
100
AcDbMText
 10
-27769.80855844385
 20
35082.86942144012
 30
0.0
 40
15.0
 41
0.0
 46
0.0
 71
     5
 72
     1
  1
\A1;810.00 [31.89]
 73
     1
 44
1.0
  0
POINT
  5
160
330
157
100
AcDbEntity
  8
Defpoints
 62
     0
440
 16777216
370
   100
100
AcDbPoint
 10
-28174.80855844385
 20
35227.0511550022
 30
0.0
  0
POINT
  5
161
330
157
100
AcDbEntity
  8
Defpoints
 62
     0
440
 16777216
370
   100
100
AcDbPoint
 10
-27364.80855844385
 20
35227.0511550022
 30
0.0
  0
POINT
  5
162
330
157
100
AcDbEntity
  8
Defpoints
 62
     0
440
 16777216
370
   100
100
AcDbPoint
 10
-27364.80855844385
 20
35082.86942144012
 30
0.0
  0
ENDBLK
  5
163
330
157
100
AcDbEntity
  8
0
 62
     0
370
   100
100
AcDbBlockEnd
  0
BLOCK
  5
168
330
167
100
AcDbEntity
  8
0
 62
     0
370
   100
100
AcDbBlockBegin
  2
*D14
 70
     1
 10
0.0
 20
0.0
 30
0.0
  3
*D14
  1

  0
LINE
  5
169
330
167
100
AcDbEntity
  8
标注
 62
     2
440
 16777216
100
AcDbLine
 10
-27742.80855844385
 20
34989.16611333541
 30
0.0
 11
-27818.58348483673
 21
34989.16611333541
 31
0.0
  0
LINE
  5
16A
330
167
100
AcDbEntity
  8
标注
 62
     2
440
 16777216
100
AcDbLine
 10
-27742.80855844385
 20
34964.16611333541
 30
0.0
 11
-27818.58348483673
 21
34964.16611333541
 31
0.0
  0
LINE
  5
16B
330
167
100
AcDbEntity
  8
标注
 62
     2
440
 16777216
100
AcDbLine
 10
-27818.40348483673
 20
35014.16611333541
 30
0.0
 11
-27818.40348483673
 21
35039.16611333541
 31
0.0
  0
LINE
  5
16C
330
167
100
AcDbEntity
  8
标注
 62
     2
440
 16777216
100
AcDbLine
 10
-27818.40348483673
 20
34939.16611333542
 30
0.0
 11
-27818.40348483673
 21
34914.16611333542
 31
0.0
  0
SOLID
  5
16D
330
167
100
AcDbEntity
  8
标注
 62
     2
440
 16777216
370
   100
100
AcDbTrace
 10
-27822.5701515034
 20
35014.16611333541
 30
0.0
 11
-27814.23681817006
 21
35014.16611333541
 31
0.0
 12
-27818.40348483673
 22
34989.16611333541
 32
0.0
 13
-27818.40348483673
 23
34989.16611333541
 33
0.0
  0
SOLID
  5
16E
330
167
100
AcDbEntity
  8
标注
 62
     2
440
 16777216
370
   100
100
AcDbTrace
 10
-27822.5701515034
 20
34939.16611333542
 30
0.0
 11
-27814.23681817006
 21
34939.16611333542
 31
0.0
 12
-27818.40348483673
 22
34964.16611333541
 32
0.0
 13
-27818.40348483673
 23
34964.16611333541
 33
0.0
  0
MTEXT
  5
16F
330
167
100
AcDbEntity
  8
标注
 62
     2
440
 16777216
370
   100
100
AcDbMText
 10
-27818.40348483673
 20
34976.66611333541
 30
0.0
 40
15.0
 41
0.0
 46
0.0
 71
     5
 72
     1
  1
\A1;25.00 [0.98]
 73
     1
 44
1.0
  0
POINT
  5
170
330
167
100
AcDbEntity
  8
Defpoints
 62
     0
440
 16777216
370
   100
100
AcDbPoint
 10
-27740.80855844385
 20
34989.16611333541
 30
0.0
  0
POINT
  5
171
330
167
100
AcDbEntity
  8
Defpoints
 62
     0
440
 16777216
370
   100
100
AcDbPoint
 10
-27740.80855844385
 20
34964.16611333541
 30
0.0
  0
POINT
  5
172
330
167
100
AcDbEntity
  8
Defpoints
 62
     0
440
 16777216
370
   100
100
AcDbPoint
 10
-27818.40348483673
 20
34964.16611333541
 30
0.0
  0
ENDBLK
  5
173
330
167
100
AcDbEntity
  8
0
 62
     0
370
   100
100
AcDbBlockEnd
  0
BLOCK
  5
178
330
177
100
AcDbEntity
  8
0
 62
     0
370
   100
100
AcDbBlockBegin
  2
*D15
 70
     1
 10
0.0
 20
0.0
 30
0.0
  3
*D15
  1

  0
LINE
  5
179
330
177
100
AcDbEntity
  8
标注
 62
     2
440
 16777216
100
AcDbLine
 10
-28176.80855844385
 20
34989.16611333541
 30
0.0
 11
-28225.30624457665
 21
34989.16611333541
 31
0.0
  0
LINE
  5
17A
330
177
100
AcDbEntity
  8
标注
 62
     2
440
 16777216
100
AcDbLine
 10
-28176.80855844385
 20
34764.16611333541
 30
0.0
 11
-28225.30624457665
 21
34764.16611333541
 31
0.0
  0
LINE
  5
17B
330
177
100
AcDbEntity
  8
标注
 62
     2
440
 16777216
100
AcDbLine
 10
-28225.12624457665
 20
34964.16611333541
 30
0.0
 11
-28225.12624457665
 21
34887.366906414
 31
0.0
  0
LINE
  5
17C
330
177
100
AcDbEntity
  8
标注
 62
     2
440
 16777216
100
AcDbLine
 10
-28225.12624457665
 20
34789.16611333541
 30
0.0
 11
-28225.12624457665
 21
34865.96532025683
 31
0.0
  0
SOLID
  5
17D
330
177
100
AcDbEntity
  8
标注
 62
     2
440
 16777216
370
   100
100
AcDbTrace
 10
-28229.29291124331
 20
34964.16611333541
 30
0.0
 11
-28220.95957790998
 21
34964.16611333541
 31
0.0
 12
-28225.12624457665
 22
34989.16611333541
 32
0.0
 13
-28225.12624457665
 23
34989.16611333541
 33
0.0
  0
SOLID
  5
17E
330
177
100
AcDbEntity
  8
标注
 62
     2
440
 16777216
370
   100
100
AcDbTrace
 10
-28229.29291124331
 20
34789.16611333541
 30
0.0
 11
-28220.95957790998
 21
34789.16611333541
 31
0.0
 12
-28225.12624457665
 22
34764.16611333541
 32
0.0
 13
-28225.12624457665
 23
34764.16611333541
 33
0.0
  0
MTEXT
  5
17F
330
177
100
AcDbEntity
  8
标注
 62
     2
440
 16777216
370
   100
100
AcDbMText
 10
-28225.12624457665
 20
34876.66611333541
 30
0.0
 40
15.0
 41
0.0
 46
0.0
 71
     5
 72
     1
  1
\A1;225.00 [8.86]
 73
     1
 44
1.0
  0
POINT
  5
180
330
177
100
AcDbEntity
  8
Defpoints
 62
     0
440
 16777216
370
   100
100
AcDbPoint
 10
-28174.80855844385
 20
34989.16611333541
 30
0.0
  0
POINT
  5
181
330
177
100
AcDbEntity
  8
Defpoints
 62
     0
440
 16777216
370
   100
100
AcDbPoint
 10
-28174.80855844385
 20
34764.16611333541
 30
0.0
  0
POINT
  5
182
330
177
100
AcDbEntity
  8
Defpoints
 62
     0
440
 16777216
370
   100
100
AcDbPoint
 10
-28225.12624457665
 20
34764.16611333541
 30
0.0
  0
ENDBLK
  5
183
330
177
100
AcDbEntity
  8
0
 62
     0
370
   100
100
AcDbBlockEnd
  0
BLOCK
  5
188
330
187
100
AcDbEntity
  8
0
 62
     0
370
   100
100
AcDbBlockBegin
  2
*D16
 70
     1
 10
0.0
 20
0.0
 30
0.0
  3
*D16
  1

  0
LINE
  5
189
330
187
100
AcDbEntity
  8
标注
 62
     2
440
 16777216
100
AcDbLine
 10
-28176.80855844385
 20
34989.16611333541
 30
0.0
 11
-28329.97749388178
 21
34989.16611333541
 31
0.0
  0
LINE
  5
18A
330
187
100
AcDbEntity
  8
标注
 62
     2
440
 16777216
100
AcDbLine
 10
-27990.80855844385
 20
34759.16611333541
 30
0.0
 11
-28329.97749388178
 21
34759.16611333541
 31
0.0
  0
LINE
  5
18B
330
187
100
AcDbEntity
  8
标注
 62
     2
440
 16777216
100
AcDbLine
 10
-28329.79749388178
 20
34964.16611333541
 30
0.0
 11
-28329.79749388178
 21
34884.866906414
 31
0.0
  0
LINE
  5
18C
330
187
100
AcDbEntity
  8
标注
 62
     2
440
 16777216
100
AcDbLine
 10
-28329.79749388178
 20
34784.16611333542
 30
0.0
 11
-28329.79749388178
 21
34863.46532025683
 31
0.0
  0
SOLID
  5
18D
330
187
100
AcDbEntity
  8
标注
 62
     2
440
 16777216
370
   100
100
AcDbTrace
 10
-28333.96416054845
 20
34964.16611333541
 30
0.0
 11
-28325.63082721511
 21
34964.16611333541
 31
0.0
 12
-28329.79749388178
 22
34989.16611333541
 32
0.0
 13
-28329.79749388178
 23
34989.16611333541
 33
0.0
  0
SOLID
  5
18E
330
187
100
AcDbEntity
  8
标注
 62
     2
440
 16777216
370
   100
100
AcDbTrace
 10
-28333.96416054845
 20
34784.16611333542
 30
0.0
 11
-28325.63082721511
 21
34784.16611333542
 31
0.0
 12
-28329.79749388178
 22
34759.16611333541
 32
0.0
 13
-28329.79749388178
 23
34759.16611333541
 33
0.0
  0
MTEXT
  5
18F
330
187
100
AcDbEntity
  8
标注
 62
     2
440
 16777216
370
   100
100
AcDbMText
 10
-28329.79749388178
 20
34874.16611333541
 30
0.0
 40
15.0
 41
0.0
 46
0.0
 71
     5
 72
     1
  1
\A1;230.00 [9.06]
 73
     1
 44
1.0
  0
POINT
  5
190
330
187
100
AcDbEntity
  8
Defpoints
 62
     0
440
 16777216
370
   100
100
AcDbPoint
 10
-28174.80855844385
 20
34989.16611333541
 30
0.0
  0
POINT
  5
191
330
187
100
AcDbEntity
  8
Defpoints
 62
     0
440
 16777216
370
   100
100
AcDbPoint
 10
-27988.80855844385
 20
34759.16611333541
 30
0.0
  0
POINT
  5
192
330
187
100
AcDbEntity
  8
Defpoints
 62
     0
440
 16777216
370
   100
100
AcDbPoint
 10
-28329.79749388178
 20
34759.16611333541
 30
0.0
  0
ENDBLK
  5
193
330
187
100
AcDbEntity
  8
0
 62
     0
370
   100
100
AcDbBlockEnd
  0
BLOCK
  5
198
330
197
100
AcDbEntity
  8
0
 62
     0
370
   100
100
AcDbBlockBegin
  2
*D17
 70
     1
 10
0.0
 20
0.0
 30
0.0
  3
*D17
  1

  0
LINE
  5
199
330
197
100
AcDbEntity
  8
标注
 62
     2
440
 16777216
100
AcDbLine
 10
-27502.80855844385
 20
34799.16611333541
 30
0.0
 11
-27308.45567845436
 21
34799.16611333541
 31
0.0
  0
LINE
  5
19A
330
197
100
AcDbEntity
  8
标注
 62
     2
440
 16777216
100
AcDbLine
 10
-27362.80855844385
 20
34989.16611333541
 30
0.0
 11
-27308.45567845436
 21
34989.16611333541
 31
0.0
  0
LINE
  5
19B
330
197
100
AcDbEntity
  8
标注
 62
     2
440
 16777216
100
AcDbLine
 10
-27308.63567845436
 20
34824.16611333542
 30
0.0
 11
-27308.63567845436
 21
34883.46532025683
 31
0.0
  0
LINE
  5
19C
330
197
100
AcDbEntity
  8
标注
 62
     2
440
 16777216
100
AcDbLine
 10
-27308.63567845436
 20
34964.16611333541
 30
0.0
 11
-27308.63567845436
 21
34904.866906414
 31
0.0
  0
SOLID
  5
19D
330
197
100
AcDbEntity
  8
标注
 62
     2
440
 16777216
370
   100
100
AcDbTrace
 10
-27312.80234512103
 20
34824.16611333542
 30
0.0
 11
-27304.46901178769
 21
34824.16611333542
 31
0.0
 12
-27308.63567845436
 22
34799.16611333541
 32
0.0
 13
-27308.63567845436
 23
34799.16611333541
 33
0.0
  0
SOLID
  5
19E
330
197
100
AcDbEntity
  8
标注
 62
     2
440
 16777216
370
   100
100
AcDbTrace
 10
-27312.80234512103
 20
34964.16611333541
 30
0.0
 11
-27304.46901178769
 21
34964.16611333541
 31
0.0
 12
-27308.63567845436
 22
34989.16611333541
 32
0.0
 13
-27308.63567845436
 23
34989.16611333541
 33
0.0
  0
MTEXT
  5
19F
330
197
100
AcDbEntity
  8
标注
 62
     2
440
 16777216
370
   100
100
AcDbMText
 10
-27308.63567845437
 20
34894.16611333541
 30
0.0
 40
15.0
 41
0.0
 46
0.0
 71
     5
 72
     1
  1
\A1;190.00 [7.48]
 73
     1
 44
1.0
  0
POINT
  5
1A0
330
197
100
AcDbEntity
  8
Defpoints
 62
     0
440
 16777216
370
   100
100
AcDbPoint
 10
-27504.80855844385
 20
34799.16611333541
 30
0.0
  0
POINT
  5
1A1
330
197
100
AcDbEntity
  8
Defpoints
 62
     0
440
 16777216
370
   100
100
AcDbPoint
 10
-27364.80855844385
 20
34989.16611333541
 30
0.0
  0
POINT
  5
1A2
330
197
100
AcDbEntity
  8
Defpoints
 62
     0
440
 16777216
370
   100
100
AcDbPoint
 10
-27308.63567845436
 20
34989.16611333541
 30
0.0
  0
ENDBLK
  5
1A3
330
197
100
AcDbEntity
  8
0
 62
     0
370
   100
100
AcDbBlockEnd
  0
ENDSEC
  0
SECTION
  2
ENTITIES
  0
LWPOLYLINE
  5
6B
102
{ACAD_REACTORS
330
11A
102
}
330
2
100
AcDbEntity
  8
0
100
AcDbPolyline
 90
        8
 70
     1
 43
0.0
 10
-27685.80855844385
 20
35603.0511550022
 10
-27417.80855844385
 20
35603.0511550022
 42
-0.4142135623730951
 10
-27392.80855844385
 20
35578.0511550022
 10
-27392.80855844385
 20
35250.0511550022
 42
-0.4142135623730951
 10
-27417.80855844385
 20
35225.0511550022
 10
-27685.80855844385
 20
35225.0511550022
 42
-0.4142135623730951
 10
-27710.80855844386
 20
35250.0511550022
 10
-27710.80855844386
 20
35578.0511550022
 42
-0.4142135623730951
  0
ARC
  5
6C
330
2
100
AcDbEntity
  8
0
100
AcDbCircle
 10
-27943.80855844385
 20
35362.82115500219
 30
0.0
 40
312.23
100
AcDbArc
 50
52.1950560111721
 51
127.8049439888279
  0
LWPOLYLINE
  5
6D
102
{ACAD_REACTORS
330
FC
102
}
330
2
100
AcDbEntity
  8
0
100
AcDbPolyline
 90
        6
 70
     0
 43
0.0
 10
-27740.80855844385
 20
35585.81167699804
 10
-27740.80855844385
 20
35250.0511550022
 42
-0.4142135623730951
 10
-27765.80855844385
 20
35225.0511550022
 10
-28121.80855844385
 20
35225.0511550022
 42
-0.4142135623730951
 10
-28146.80855844385
 20
35250.0511550022
 10
-28146.80855844385
 20
35585.81167699804
  0
ARC
  5
6E
330
2
100
AcDbEntity
  8
0
100
AcDbCircle
 10
-27770.80855844381
 20
35585.81167699804
 30
0.0
 40
30.0
100
AcDbArc
 50
0.0
 51
52.1950560111721
  0
ARC
  5
6F
330
2
100
AcDbEntity
  8
0
100
AcDbCircle
 10
-28116.80855844388
 20
35585.81167699804
 30
0.0
 40
30.0
100
AcDbArc
 50
127.8049439888279
 51
180.0
  0
ARC
  5
70
330
2
100
AcDbEntity
  8
0
100
AcDbCircle
 10
-28116.80855844388
 20
35585.81167699804
 30
0.0
 40
58.0
100
AcDbArc
 50
127.8049439888279
 51
180.0
  0
ARC
  5
71
330
2
100
AcDbEntity
  8
0
100
AcDbCircle
 10
-27943.80855844385
 20
35362.82115500219
 30
0.0
 40
340.23
100
AcDbArc
 50
53.66111307881308
 51
127.8049439888279
  0
ARC
  5
72
330
2
100
AcDbEntity
  8
0
100
AcDbCircle
 10
-27724.4250586085
 20
35661.0511550022
 30
0.0
 40
30.0
100
AcDbArc
 50
233.6611130788131
 51
270.0
  0
ARC
  5
73
330
2
100
AcDbEntity
  8
0
100
AcDbCircle
 10
-27724.4250586085
 20
35661.0511550022
 30
0.0
 40
58.0
100
AcDbArc
 50
233.6611130788131
 51
270.0
  0
LWPOLYLINE
  5
74
102
{ACAD_REACTORS
330
12A
330
156
102
}
330
2
100
AcDbEntity
  8
0
100
AcDbPolyline
 90
        8
 70
     0
 43
0.0
 10
-28174.80855844385
 20
35585.81167699804
 10
-28174.80855844385
 20
35227.0511550022
 10
-28144.80855844385
 20
35197.0511550022
 10
-27394.80855844385
 20
35197.0511550022
 10
-27364.80855844385
 20
35227.0511550022
 10
-27364.80855844385
 20
35601.0511550022
 10
-27394.80855844385
 20
35631.0511550022
 10
-27724.4250586085
 20
35631.0511550022
  0
CIRCLE
  5
75
330
2
100
AcDbEntity
  8
0
100
AcDbCircle
 10
-27943.80855844385
 20
35500.0511550022
 30
0.0
 40
55.0
  0
CIRCLE
  5
76
330
2
100
AcDbEntity
  8
0
100
AcDbCircle
 10
-27943.80855844385
 20
35500.0511550022
 30
0.0
 40
45.0
  0
CIRCLE
  5
77
330
2
100
AcDbEntity
  8
0
100
AcDbCircle
 10
-27551.80855844385
 20
35464.0511550022
 30
0.0
 40
55.0
  0
CIRCLE
  5
78
330
2
100
AcDbEntity
  8
0
100
AcDbCircle
 10
-27551.80855844385
 20
35464.0511550022
 30
0.0
 40
45.0
  0
LINE
  5
79
330
2
100
AcDbEntity
  8
0
100
AcDbLine
 10
-27770.80855844381
 20
35585.81167699804
 30
0.0
 11
-27894.53109813452
 21
35524.47925164241
 31
0.0
  0
LINE
  5
7A
330
2
100
AcDbEntity
  8
0
100
AcDbLine
 10
-27993.08601875317
 20
35524.47925164241
 30
0.0
 11
-28116.80855844388
 21
35585.81167699804
 31
0.0
  0
LINE
  5
7B
330
2
100
AcDbEntity
  8
0
100
AcDbLine
 10
-28121.80855844385
 20
35250.0511550022
 30
0.0
 11
-27975.70881135936
 21
35455.24742899726
 31
0.0
  0
LINE
  5
7C
330
2
100
AcDbEntity
  8
0
100
AcDbLine
 10
-27911.90830552833
 20
35455.24742899726
 30
0.0
 11
-27765.80855844385
 21
35250.0511550022
 31
0.0
  0
LINE
  5
7D
330
2
100
AcDbEntity
  8
0
100
AcDbLine
 10
-27417.80855844385
 20
35578.0511550022
 30
0.0
 11
-27509.91732677452
 21
35499.68996403431
 31
0.0
  0
LINE
  5
7E
330
2
100
AcDbEntity
  8
0
100
AcDbLine
 10
-27593.69979011317
 20
35499.68996403431
 30
0.0
 11
-27685.80855844385
 21
35578.0511550022
 31
0.0
  0
LINE
  5
7F
330
2
100
AcDbEntity
  8
0
100
AcDbLine
 10
-27685.80855844385
 20
35250.0511550022
 30
0.0
 11
-27580.99765014628
 21
35417.43573989532
 31
0.0
  0
LINE
  5
80
330
2
100
AcDbEntity
  8
0
100
AcDbLine
 10
-27522.61946674141
 20
35417.43573989532
 30
0.0
 11
-27417.80855844385
 21
35250.0511550022
 31
0.0
  0
LINE
  5
81
330
2
100
AcDbEntity
  8
0
100
AcDbLine
 10
-28174.80855844385
 20
34989.16611333541
 30
0.0
 11
-27364.80855844385
 21
34989.16611333541
 31
0.0
  0
LWPOLYLINE
  5
82
330
2
100
AcDbEntity
  8
0
100
AcDbPolyline
 90
        4
 70
     1
 43
0.0
 10
-27606.80855844385
 20
34804.16611333541
 10
-27496.80855844385
 20
34804.16611333541
 10
-27506.80855844385
 20
34799.16611333541
 10
-27596.80855844385
 20
34799.16611333541
  0
LWPOLYLINE
  5
83
102
{ACAD_REACTORS
330
186
102
}
330
2
100
AcDbEntity
  8
0
100
AcDbPolyline
 90
        4
 70
     1
 43
0.0
 10
-27998.80855844385
 20
34764.16611333541
 10
-27888.80855844385
 20
34764.16611333541
 10
-27898.80855844385
 20
34759.16611333541
 10
-27988.80855844385
 20
34759.16611333541
  0
LWPOLYLINE
  5
84
330
2
100
AcDbEntity
  8
0
100
AcDbPolyline
 90
        8
 70
     0
 43
0.0
 10
-28146.80855844385
 20
34989.16611333541
 10
-28142.33807157516
 20
34796.93517798189
 42
0.3872099407035525
 10
-28119.08882194469
 20
34772.57732057324
 10
-27998.80855844385
 20
34764.16611333541
 10
-27888.80855844385
 20
34764.16611333541
 10
-27768.52829494298
 20
34772.57732057324
 42
0.387209940703552
 10
-27745.27904531253
 20
34796.93517798189
 10
-27741.38995379268
 20
34964.16611333541
  0
LWPOLYLINE
  5
85
330
2
100
AcDbEntity
  8
0
100
AcDbPolyline
 90
        8
 70
     0
 43
0.0
 10
-27710.09427272956
 20
34964.16611333541
 10
-27706.43576850384
 20
34836.11846543547
 42
0.3768493186989092
 10
-27683.95843399138
 20
34811.95903005739
 10
-27606.80855844385
 20
34804.16611333541
 10
-27496.80855844385
 20
34804.16611333541
 10
-27419.65868289632
 20
34811.95903005739
 42
0.3768493186989099
 10
-27397.18134838383
 20
34836.11846543547
 10
-27392.80855844385
 20
34989.16611333541
  0
LINE
  5
86
330
2
100
AcDbEntity
  8
0
100
AcDbLine
 10
-27741.38995379268
 20
34964.16611333541
 30
0.0
 11
-27710.09427272956
 21
34964.16611333541
 31
0.0
  0
LINE
  5
87
330
2
100
AcDbEntity
  8
虚线
 48
50.0
100
AcDbLine
 10
-27710.09427272956
 20
34964.16611333541
 30
0.0
 11
-27710.80855844386
 21
34989.16611333541
 31
0.0
  0
LINE
  5
8C
102
{ACAD_REACTORS
330
166
102
}
330
2
100
AcDbEntity
  8
虚线
 48
50.0
100
AcDbLine
 10
-27741.38995379268
 20
34964.16611333541
 30
0.0
 11
-27740.80855844385
 21
34989.16611333541
 31
0.0
  0
LINE
  5
8D
330
2
100
AcDbEntity
  8
0
 48
80.0
100
AcDbLine
 10
-27724.4250586085
 20
35603.0511550022
 30
0.0
 11
-27685.80855844385
 21
35603.0511550022
 31
0.0
  0
LWPOLYLINE
  5
8E
102
{ACAD_REACTORS
330
176
330
186
330
196
102
}
330
2
100
AcDbEntity
  8
0
 48
80.0
100
AcDbPolyline
 90
        4
 70
     1
 43
0.0
 10
-28174.80855844385
 20
34989.16611333541
 10
-27364.80855844385
 20
34989.16611333541
 10
-27364.80855844385
 20
34764.16611333541
 10
-28174.80855844385
 20
34764.16611333541
  0
LWPOLYLINE
  5
8F
102
{ACAD_REACTORS
330
A4
330
C2
102
}
330
2
100
AcDbEntity
  8
0
100
AcDbPolyline
 90
        5
 70
     0
 43
0.0
 10
-29127.6385355006
 20
35511.04096567843
 10
-28993.6385355006
 20
35511.04096567843
 42
-0.4142135623730951
 10
-28968.6385355006
 20
35486.04096567844
 10
-28968.6385355006
 20
35158.04096567843
 42
0.0013682255157457
 10
-28968.66543689803
 20
35133.04096567843
 42
0.0013682255157457
  0
LWPOLYLINE
  5
90
102
{ACAD_REACTORS
330
A4
102
}
330
2
100
AcDbEntity
  8
0
100
AcDbPolyline
 90
        2
 70
     0
 43
0.0
 10
-28968.66543689803
 20
35133.04096567843
 10
-29722.6385355006
 20
35133.04096567843
  0
LWPOLYLINE
  5
91
330
2
100
AcDbEntity
  8
0
100
AcDbPolyline
 90
        3
 70
     0
 43
0.0
 10
-29697.63853550059
 20
35133.04096567843
 10
-29697.6385355006
 20
35133.04096567843
 42
-0.0131713803538238
 10
-29698.95498822204
 20
35133.0756506948
 42
-0.0131713803538238
  0
LWPOLYLINE
  5
92
102
{ACAD_REACTORS
330
B3
330
C2
102
}
330
2
100
AcDbEntity
  8
0
100
AcDbPolyline
 90
        2
 70
     0
 43
0.0
 10
-29722.6385355006
 20
35133.04096567843
 10
-29722.6385355006
 20
35493.80148767427
  0
ARC
  5
93
102
{ACAD_REACTORS
330
DE
102
}
330
2
100
AcDbEntity
  8
0
100
AcDbCircle
 10
-29519.6385355006
 20
35270.81096567842
 30
0.0
 40
312.23
100
AcDbArc
 50
52.14956316696916
 51
127.8049439891271
  0
ARC
  5
94
102
{ACAD_REACTORS
330
EA
102
}
330
2
100
AcDbEntity
  8
0
100
AcDbCircle
 10
-29309.64539275539
 20
35541.04096567843
 30
0.0
 40
30.0
100
AcDbArc
 50
232.1495631669691
 51
270.0
  0
ARC
  5
95
102
{ACAD_REACTORS
330
D2
102
}
330
2
100
AcDbEntity
  8
0
100
AcDbCircle
 10
-29692.63853550063
 20
35493.80148767427
 30
0.0
 40
30.0
100
AcDbArc
 50
127.8049439891271
 51
180.0
  0
LINE
  5
96
330
2
100
AcDbEntity
  8
0
 48
50.0
100
AcDbLine
 10
-29127.6385355006
 20
35511.04096567843
 30
0.0
 11
-29309.64539275539
 21
35511.04096567843
 31
0.0
  0
DIMENSION
  5
97
330
2
100
AcDbEntity
  8
0
 62
     0
370
   100
100
AcDbDimension
280
     0
  2
*D0
 10
-28993.63853550057
 20
35486.04096567848
 30
0.0
 11
-29115.29556145109
 21
35448.51474299289
 31
0.0
 70
   132
 71
     5
 42
24.99999999995998
 73
     0
 74
     0
 75
     0
  3
Standard
100
AcDbRadialDimension
 15
-28969.74921535595
 25
35493.40984503871
 35
0.0
 40
0.0
1001
ACAD
1000
DSTYLE
1002
{
1070
    41
1040
28.0
1070
    42
1040
8.0
1070
    43
1040
3.75
1070
    44
1040
1.25
1070
    70
1070
   256
1070
    73
1070
     0
1070
    74
1070
     0
1070
    77
1070
     1
1070
    78
1070
     8
1070
   140
1040
30.0
1070
   141
1040
2.5
1070
   143
1040
0.03937007874016
1070
   147
1040
3.0
1070
   171
1070
     3
1070
   172
1070
     1
1070
   274
1070
     3
1070
   283
1070
     0
1070
   284
1070
     8
1070
   288
1070
     1
1002
}
1001
ACAD_DSTYLE_DIMRADIAL_EXTENSION
1070
   387
1070
     1
1070
   388
1040
0.0
1070
   390
1040
1.570796326794896
  0
DIMENSION
  5
A2
102
{ACAD_XDICTIONARY
360
A3
102
}
102
{ACAD_REACTORS
330
A4
102
}
330
2
100
AcDbEntity
  8
0
 62
     0
370
   100
100
AcDbDimension
280
     0
  2
*D1
 10
-28900.64034848259
 20
35133.04096567843
 30
0.0
 11
-28923.04193463976
 21
35322.04096567843
 31
0.0
 71
     5
 42
378.0
 73
     0
 74
     0
 75
     0
  3
Standard
100
AcDbAlignedDimension
 13
-28993.6385355006
 23
35511.04096567843
 33
0.0
 14
-28968.66543689803
 24
35133.04096567843
 34
0.0
 50
90.0
100
AcDbRotatedDimension
1001
ACAD
1000
DSTYLE
1002
{
1070
    41
1040
28.0
1070
    42
1040
8.0
1070
    43
1040
3.75
1070
    44
1040
1.25
1070
    70
1070
   256
1070
    73
1070
     0
1070
    74
1070
     0
1070
    77
1070
     1
1070
    78
1070
     8
1070
   140
1040
30.0
1070
   141
1040
2.5
1070
   143
1040
0.03937007874016
1070
   147
1040
3.0
1070
   171
1070
     3
1070
   172
1070
     1
1070
   274
1070
     3
1070
   283
1070
     0
1070
   284
1070
     8
1002
}
  0
DIMENSION
  5
B1
102
{ACAD_XDICTIONARY
360
B2
102
}
102
{ACAD_REACTORS
330
B3
102
}
330
2
100
AcDbEntity
  8
0
 62
     0
370
   100
100
AcDbDimension
280
     0
  2
*D2
 10
-29769.88890126045
 20
35133.04096567843
 30
0.0
 11
-29792.29048741763
 21
35358.04048633835
 31
0.0
 71
     5
 42
449.9990413198538
 73
     0
 74
     0
 75
     0
  3
Standard
100
AcDbAlignedDimension
 13
-29518.86480655157
 23
35583.04000699829
 33
0.0
 14
-29722.6385355006
 24
35133.04096567843
 34
0.0
 50
90.0
100
AcDbRotatedDimension
1001
ACAD
1000
DSTYLE
1002
{
1070
    41
1040
28.0
1070
    42
1040
8.0
1070
    43
1040
3.75
1070
    44
1040
1.25
1070
    70
1070
   256
1070
    73
1070
     0
1070
    74
1070
     0
1070
    77
1070
     1
1070
    78
1070
     8
1070
   140
1040
30.0
1070
   141
1040
2.5
1070
   143
1040
0.03937007874016
1070
   147
1040
3.0
1070
   171
1070
     3
1070
   172
1070
     1
1070
   274
1070
     3
1070
   283
1070
     0
1070
   284
1070
     8
1002
}
  0
DIMENSION
  5
C0
102
{ACAD_XDICTIONARY
360
C1
102
}
102
{ACAD_REACTORS
330
C2
102
}
330
2
100
AcDbEntity
  8
0
 62
     0
370
   100
100
AcDbDimension
280
     0
  2
*D3
 10
-28968.6385355006
 20
35072.96117576215
 30
0.0
 11
-29345.6385355006
 21
35072.96117576215
 31
0.0
 71
     5
 42
754.0
 73
     0
 74
     0
 75
     0
  3
Standard
100
AcDbAlignedDimension
 13
-29722.6385355006
 23
35152.92425311308
 33
0.0
 14
-28968.6385355006
 24
35158.04096567843
 34
0.0
100
AcDbRotatedDimension
  0
DIMENSION
  5
D0
102
{ACAD_XDICTIONARY
360
D1
102
}
102
{ACAD_REACTORS
330
D2
102
}
330
2
100
AcDbEntity
  8
标注
 62
     0
370
   100
100
AcDbDimension
280
     0
  2
*D4
 10
-29692.6385355006
 20
35493.80148767425
 30
0.0
 11
-29594.7655283509
 21
35486.80945119509
 31
0.0
 70
   132
 71
     5
 42
30.00000000003638
 73
     0
 74
     0
 75
     0
  3
Standard
100
AcDbRadialDimension
 15
-29720.74548674434
 25
35504.28954239304
 35
0.0
 40
0.0
1001
ACAD
1000
DSTYLE
1002
{
1070
   288
1070
     1
1002
}
1001
ACAD_DSTYLE_DIMRADIAL_EXTENSION
1070
   387
1070
     1
1070
   388
1040
2.230617072937204
1070
   390
1040
3.141592653589793
  0
DIMENSION
  5
DC
102
{ACAD_XDICTIONARY
360
DD
102
}
102
{ACAD_REACTORS
330
DE
102
}
330
2
100
AcDbEntity
  8
标注
 62
     0
370
   100
100
AcDbDimension
280
     0
  2
*D5
 10
-29519.63853550057
 20
35270.81096567836
 30
0.0
 11
-29595.46870120581
 21
35419.37455341376
 31
0.0
 70
   132
 71
     5
 42
312.2300000000541
 73
     0
 74
     0
 75
     0
  3
Standard
100
AcDbRadialDimension
 15
-29494.6195576336
 25
35582.03696659494
 35
0.0
 40
0.0
1001
ACAD
1000
DSTYLE
1002
{
1070
   288
1070
     1
1002
}
1001
ACAD_DSTYLE_DIMRADIAL_EXTENSION
1070
   387
1070
     1
1070
   388
1040
0.9101815807403731
1070
   390
1040
2.230617072937204
  0
DIMENSION
  5
E8
102
{ACAD_XDICTIONARY
360
E9
102
}
102
{ACAD_REACTORS
330
EA
102
}
330
2
100
AcDbEntity
  8
标注
 62
     0
370
   100
100
AcDbDimension
280
     0
  2
*D6
 10
-29309.64539275531
 20
35541.04096567837
 30
0.0
 11
-29411.54829275368
 21
35464.34921556578
 31
0.0
 70
     4
 71
     5
 42
29.9999999999709
 73
     0
 74
     0
 75
     0
  3
Standard
100
AcDbRadialDimension
 15
-29318.18334038447
 25
35512.28155938616
 35
0.0
 40
0.0
1001
ACAD
1000
DSTYLE
1002
{
1070
   288
1070
     1
1002
}
1001
ACAD_DSTYLE_DIMRADIAL_EXTENSION
1070
   387
1070
     1
1070
   388
1040
4.051774234330165
1070
   390
1040
4.712388980384689
  0
DIMENSION
  5
FA
102
{ACAD_XDICTIONARY
360
FB
102
}
102
{ACAD_REACTORS
330
FC
102
}
330
2
100
AcDbEntity
  8
标注
 62
     0
370
   100
100
AcDbDimension
280
     0
  2
*D7
 10
-28246.88997565955
 20
35225.0511550022
 30
0.0
 11
-28246.88997565955
 21
35450.05115500219
 31
0.0
 71
     5
 42
450.0
 73
     0
 74
     0
 75
     0
  3
Standard
100
AcDbAlignedDimension
 13
-27945.80855844385
 23
35675.0511550022
 33
0.0
 14
-28121.80855844385
 24
35225.0511550022
 34
0.0
 50
90.0
100
AcDbRotatedDimension
  0
DIMENSION
  5
10A
330
2
100
AcDbEntity
  8
标注
 62
     0
370
   100
100
AcDbDimension
280
     0
  2
*D8
 10
-28364.57000728973
 20
35197.0511550022
 30
0.0
 11
-28364.57000728973
 21
35450.05115500219
 31
0.0
 71
     5
 42
506.0
 73
     0
 74
     0
 75
     0
  3
Standard
100
AcDbAlignedDimension
 13
-27945.80855844385
 23
35703.0511550022
 33
0.0
 14
-28146.80855844385
 24
35197.0511550022
 34
0.0
 50
90.0
100
AcDbRotatedDimension
  0
DIMENSION
  5
118
102
{ACAD_XDICTIONARY
360
119
102
}
102
{ACAD_REACTORS
330
11A
102
}
330
2
100
AcDbEntity
  8
标注
 62
     0
370
   100
100
AcDbDimension
280
     0
  2
*D9
 10
-27299.73755580376
 20
35225.0511550022
 30
0.0
 11
-27299.73755580376
 21
35414.05115500219
 31
0.0
 71
     5
 42
378.0
 73
     0
 74
     0
 75
     0
  3
Standard
100
AcDbAlignedDimension
 13
-27417.80855844385
 23
35603.0511550022
 33
0.0
 14
-27415.80855844385
 24
35225.0511550022
 34
0.0
 50
90.0
100
AcDbRotatedDimension
  0
DIMENSION
  5
128
102
{ACAD_XDICTIONARY
360
129
102
}
102
{ACAD_REACTORS
330
12A
102
}
330
2
100
AcDbEntity
  8
标注
 62
     0
370
   100
100
AcDbDimension
280
     0
  2
*D10
 10
-27175.37971134276
 20
35199.0511550022
 30
0.0
 11
-27175.37971134276
 21
35415.05115500219
 31
0.0
 71
     5
 42
432.0
 73
     0
 74
     0
 75
     0
  3
Standard
100
AcDbAlignedDimension
 13
-27394.80855844385
 23
35631.0511550022
 33
0.0
 14
-27392.80855844385
 24
35199.0511550022
 34
0.0
 50
90.0
100
AcDbRotatedDimension
  0
DIMENSION
  5
138
330
2
100
AcDbEntity
  8
标注
 62
     0
370
   100
100
AcDbDimension
280
     0
  2
*D11
 10
-27740.80855844385
 20
35139.23314341262
 30
0.0
 11
-27943.80855844385
 21
35139.23314341262
 31
0.0
 71
     5
 42
406.0
 73
     0
 74
     0
 75
     0
  3
Standard
100
AcDbAlignedDimension
 13
-28146.80855844385
 23
35248.0511550022
 33
0.0
 14
-27740.80855844385
 24
35248.0511550022
 34
0.0
100
AcDbRotatedDimension
  0
DIMENSION
  5
146
330
2
100
AcDbEntity
  8
标注
 62
     0
370
   100
100
AcDbDimension
280
     0
  2
*D12
 10
-27392.80855844385
 20
35139.23314341262
 30
0.0
 11
-27551.80855844385
 21
35139.23314341262
 31
0.0
 71
     5
 42
318.0
 73
     0
 74
     0
 75
     0
  3
Standard
100
AcDbAlignedDimension
 13
-27710.80855844386
 23
35248.0511550022
 33
0.0
 14
-27392.80855844385
 24
35248.0511550022
 34
0.0
100
AcDbRotatedDimension
  0
DIMENSION
  5
154
102
{ACAD_XDICTIONARY
360
155
102
}
102
{ACAD_REACTORS
330
156
102
}
330
2
100
AcDbEntity
  8
标注
 62
     0
370
   100
100
AcDbDimension
280
     0
  2
*D13
 10
-27364.80855844385
 20
35082.86942144012
 30
0.0
 11
-27769.80855844385
 21
35082.86942144012
 31
0.0
 71
     5
 42
810.0
 73
     0
 74
     0
 75
     0
  3
Standard
100
AcDbAlignedDimension
 13
-28174.80855844385
 23
35227.0511550022
 33
0.0
 14
-27364.80855844385
 24
35227.0511550022
 34
0.0
100
AcDbRotatedDimension
  0
DIMENSION
  5
164
102
{ACAD_XDICTIONARY
360
165
102
}
102
{ACAD_REACTORS
330
166
102
}
330
2
100
AcDbEntity
  8
标注
 62
     0
370
   100
100
AcDbDimension
280
     0
  2
*D14
 10
-27818.40348483673
 20
34964.16611333541
 30
0.0
 11
-27818.40348483673
 21
34976.66611333541
 31
0.0
 71
     5
 42
25.0
 73
     0
 74
     0
 75
     0
  3
Standard
100
AcDbAlignedDimension
 13
-27740.80855844385
 23
34989.16611333541
 33
0.0
 14
-27740.80855844385
 24
34964.16611333541
 34
0.0
 50
90.0
100
AcDbRotatedDimension
  0
DIMENSION
  5
174
102
{ACAD_XDICTIONARY
360
175
102
}
102
{ACAD_REACTORS
330
176
102
}
330
2
100
AcDbEntity
  8
标注
 62
     0
370
   100
100
AcDbDimension
280
     0
  2
*D15
 10
-28225.12624457665
 20
34764.16611333541
 30
0.0
 11
-28225.12624457665
 21
34876.66611333541
 31
0.0
 71
     5
 42
225.0
 73
     0
 74
     0
 75
     0
  3
Standard
100
AcDbAlignedDimension
 13
-28174.80855844385
 23
34989.16611333541
 33
0.0
 14
-28174.80855844385
 24
34764.16611333541
 34
0.0
 50
90.0
100
AcDbRotatedDimension
  0
DIMENSION
  5
184
102
{ACAD_XDICTIONARY
360
185
102
}
102
{ACAD_REACTORS
330
186
102
}
330
2
100
AcDbEntity
  8
标注
 62
     0
370
   100
100
AcDbDimension
280
     0
  2
*D16
 10
-28329.79749388178
 20
34759.16611333541
 30
0.0
 11
-28329.79749388178
 21
34874.16611333541
 31
0.0
 71
     5
 42
230.0
 73
     0
 74
     0
 75
     0
  3
Standard
100
AcDbAlignedDimension
 13
-28174.80855844385
 23
34989.16611333541
 33
0.0
 14
-27988.80855844385
 24
34759.16611333541
 34
0.0
 50
90.0
100
AcDbRotatedDimension
  0
DIMENSION
  5
194
102
{ACAD_XDICTIONARY
360
195
102
}
102
{ACAD_REACTORS
330
196
102
}
330
2
100
AcDbEntity
  8
标注
 62
     0
370
   100
100
AcDbDimension
280
     0
  2
*D17
 10
-27308.63567845436
 20
34989.16611333541
 30
0.0
 11
-27308.63567845437
 21
34894.16611333541
 31
0.0
 71
     5
 42
190.0
 73
     0
 74
     0
 75
     0
  3
Standard
100
AcDbAlignedDimension
 13
-27504.80855844385
 23
34799.16611333541
 33
0.0
 14
-27364.80855844385
 24
34989.16611333541
 34
0.0
 50
90.0
100
AcDbRotatedDimension
  0
ENDSEC
  0
SECTION
  2
OBJECTS
  0
DICTIONARY
  5
B
330
0
100
AcDbDictionary
281
     1
  3
ACAD_COLOR
350
3C
  3
ACAD_GROUP
350
37
  3
ACAD_LAYOUT
350
11
  3
ACAD_MATERIAL
350
D
  3
ACAD_MLEADERSTYLE
350
3F
  3
ACAD_MLINESTYLE
350
38
  3
ACAD_PLOTSETTINGS
350
39
  3
ACAD_PLOTSTYLENAME
350
A
  3
ACAD_SCALELIST
350
3D
  3
ACAD_TABLESTYLE
350
3E
  3
ACAD_VISUALSTYLE
350
2A
  3
ACDB_RECOMPOSE_DATA
350
1B1
  3
AcDbVariableDictionary
350
1A6
  0
DICTIONARY
  5
2C
330
27
100
AcDbDictionary
280
     1
281
     1
  0
DICTIONARY
  5
1A
330
19
100
AcDbDictionary
280
     1
281
     1
  3
ACAD_LAYERFILTERS
360
1B
  3
ACAD_LAYERSTATES
360
1C
  3
ACLYDICTIONARY
360
1D
  0
DICTIONARY
  5
7
330
6
100
AcDbDictionary
280
     1
281
     1
  3
ADSK_XREC_LAYER_RECONCILED
360
8
  0
DICTIONARY
  5
41
330
40
100
AcDbDictionary
280
     1
281
     1
  3
ADSK_XREC_LAYER_RECONCILED
360
42
  0
DICTIONARY
  5
89
330
88
100
AcDbDictionary
280
     1
281
     1
  3
ADSK_XREC_LAYER_RECONCILED
360
8A
  0
DICTIONARY
  5
3
330
2
100
AcDbDictionary
280
     1
281
     1
  3
ACAD_SORTENTS
360
1A4
  0
DICTIONARY
  5
A3
330
A2
100
AcDbDictionary
280
     1
281
     1
  3
ACAD_DIMASSOC
360
A4
  0
DICTIONARY
  5
B2
330
B1
100
AcDbDictionary
280
     1
281
     1
  3
ACAD_DIMASSOC
360
B3
  0
DICTIONARY
  5
C1
330
C0
100
AcDbDictionary
280
     1
281
     1
  3
ACAD_DIMASSOC
360
C2
  0
DICTIONARY
  5
D1
330
D0
100
AcDbDictionary
280
     1
281
     1
  3
ACAD_DIMASSOC
360
D2
  0
DICTIONARY
  5
DD
330
DC
100
AcDbDictionary
280
     1
281
     1
  3
ACAD_DIMASSOC
360
DE
  0
DICTIONARY
  5
E9
330
E8
100
AcDbDictionary
280
     1
281
     1
  3
ACAD_DIMASSOC
360
EA
  0
DICTIONARY
  5
FB
330
FA
100
AcDbDictionary
280
     1
281
     1
  3
ACAD_DIMASSOC
360
FC
  0
DICTIONARY
  5
119
330
118
100
AcDbDictionary
280
     1
281
     1
  3
ACAD_DIMASSOC
360
11A
  0
DICTIONARY
  5
129
330
128
100
AcDbDictionary
280
     1
281
     1
  3
ACAD_DIMASSOC
360
12A
  0
DICTIONARY
  5
155
330
154
100
AcDbDictionary
280
     1
281
     1
  3
ACAD_DIMASSOC
360
156
  0
DICTIONARY
  5
165
330
164
100
AcDbDictionary
280
     1
281
     1
  3
ACAD_DIMASSOC
360
166
  0
DICTIONARY
  5
175
330
174
100
AcDbDictionary
280
     1
281
     1
  3
ACAD_DIMASSOC
360
176
  0
DICTIONARY
  5
185
330
184
100
AcDbDictionary
280
     1
281
     1
  3
ACAD_DIMASSOC
360
186
  0
DICTIONARY
  5
195
330
194
100
AcDbDictionary
280
     1
281
     1
  3
ACAD_DIMASSOC
360
196
  0
DICTIONARY
  5
3C
102
{ACAD_REACTORS
330
B
102
}
330
B
100
AcDbDictionary
281
     1
  0
DICTIONARY
  5
37
102
{ACAD_REACTORS
330
B
102
}
330
B
100
AcDbDictionary
281
     1
  0
DICTIONARY
  5
11
102
{ACAD_REACTORS
330
B
102
}
330
B
100
AcDbDictionary
281
     1
  3
Model
350
10
  3
布局1
350
17
  0
DICTIONARY
  5
D
102
{ACAD_REACTORS
330
B
102
}
330
B
100
AcDbDictionary
281
     1
  3
ByBlock
350
3B
  3
ByLayer
350
3A
  3
Global
350
C
  0
DICTIONARY
  5
3F
102
{ACAD_REACTORS
330
B
102
}
330
B
100
AcDbDictionary
281
     1
  0
DICTIONARY
  5
38
102
{ACAD_REACTORS
330
B
102
}
330
B
100
AcDbDictionary
281
     1
  3
Standard
350
45
  0
DICTIONARY
  5
39
102
{ACAD_REACTORS
330
B
102
}
330
B
100
AcDbDictionary
281
     1
  0
ACDBDICTIONARYWDFLT
  5
A
102
{ACAD_REACTORS
330
B
102
}
330
B
100
AcDbDictionary
281
     1
  3
Normal
350
9
100
AcDbDictionaryWithDefault
340
9
  0
DICTIONARY
  5
3D
102
{ACAD_REACTORS
330
B
102
}
330
B
100
AcDbDictionary
281
     1
  3
A0
350
4A
  3
A1
350
4B
  3
A2
350
4C
  3
A3
350
4D
  3
A4
350
4E
  3
A5
350
4F
  3
A6
350
50
  3
A7
350
51
  3
A8
350
52
  3
A9
350
53
  3
B0
350
54
  3
B1
350
55
  3
B2
350
56
  3
B3
350
57
  3
B4
350
58
  3
B5
350
59
  3
B6
350
5A
  3
B7
350
5B
  3
B8
350
5C
  3
B9
350
5D
  3
C0
350
5E
  3
C1
350
5F
  3
C2
350
60
  3
C3
350
61
  3
C4
350
62
  3
C5
350
63
  3
C6
350
64
  3
C7
350
65
  3
C8
350
66
  3
C9
350
67
  3
D0
350
68
  3
D1
350
69
  3
D2
350
6A
  0
DICTIONARY
  5
3E
102
{ACAD_REACTORS
330
B
102
}
330
B
100
AcDbDictionary
281
     1
  3
Standard
350
46
  0
DICTIONARY
  5
2A
102
{ACAD_REACTORS
330
B
102
}
330
B
100
AcDbDictionary
281
     1
  3
2dWireframe
350
29
  3
3dWireframe
350
49
  3
Realistic
350
48
  0
XRECORD
  5
1B1
102
{ACAD_REACTORS
330
B
102
}
330
B
100
AcDbXrecord
280
     1
 90
        1
330
46
  0
DICTIONARY
  5
1A6
102
{ACAD_REACTORS
330
B
102
}
330
B
100
AcDbDictionary
281
     1
  3
CANNOSCALE
350
1AC
  3
CMLEADERSTYLE
350
1A8
  3
CTABLESTYLE
350
1A7
  3
CVIEWDETAILSTYLE
350
1A9
  3
CVIEWSECTIONSTYLE
350
1AA
  3
LAYEREVAL
350
1AE
  3
LAYERNOTIFY
350
1AF
  3
LIGHTINGUNITS
350
1AD
  3
MSLTSCALE
350
1AB
  0
DICTIONARY
  5
1B
102
{ACAD_REACTORS
330
1A
102
}
330
1A
100
AcDbDictionary
281
     1
  0
DICTIONARY
  5
1C
102
{ACAD_REACTORS
330
1A
102
}
330
1A
100
AcDbDictionary
281
     1
  0
DICTIONARY
  5
1D
102
{ACAD_REACTORS
330
1A
102
}
330
1A
100
AcDbDictionary
281
     1
1001
ACAD
1000
<All
  0
XRECORD
  5
8
102
{ACAD_REACTORS
330
7
102
}
330
7
100
AcDbXrecord
280
     1
290
     1
  0
XRECORD
  5
42
102
{ACAD_REACTORS
330
41
102
}
330
41
100
AcDbXrecord
280
     1
290
     1
  0
XRECORD
  5
8A
102
{ACAD_REACTORS
330
89
102
}
330
89
100
AcDbXrecord
280
     1
290
     1
  0
SORTENTSTABLE
  5
1A4
102
{ACAD_REACTORS
330
3
102
}
330
3
100
AcDbSortentsTable
330
2
  0
DIMASSOC
  5
A4
102
{ACAD_REACTORS
330
A3
102
}
330
A3
100
AcDbDimAssoc
330
A2
 90
        3
 70
     0
 71
     0
  1
AcDbOsnapPointRef
 72
     1
331
8F
 73
     2
 91
        1
 40
1.0
 10
0.0
 20
0.0
 30
2.000000000000000E+50
 75
     0
  1
AcDbOsnapPointRef
 72
    13
331
90
 73
     2
 91
        1
 40
0.0
 10
0.0
 20
0.0
 30
2.000000000000000E+50
 75
     0
  0
DIMASSOC
  5
B3
102
{ACAD_REACTORS
330
B2
102
}
330
B2
100
AcDbDimAssoc
330
B1
 90
        2
 70
     0
 71
     0
  1
AcDbOsnapPointRef
 72
    13
331
92
 73
     2
 91
        1
 40
0.0
 10
0.0
 20
0.0
 30
2.000000000000000E+50
 75
     0
  0
DIMASSOC
  5
C2
102
{ACAD_REACTORS
330
C1
102
}
330
C1
100
AcDbDimAssoc
330
C0
 90
        3
 70
     0
 71
     0
  1
AcDbOsnapPointRef
 72
    10
331
92
 73
     2
 91
        1
 40
0.055114920348381
 10
0.0
 20
0.0
 30
0.0
 75
     0
  1
AcDbOsnapPointRef
 72
     1
331
8F
 73
     2
 91
        3
 40
1.0
 10
0.0
 20
0.0
 30
2.000000000000000E+50
 75
     0
  0
DIMASSOC
  5
D2
102
{ACAD_REACTORS
330
D1
102
}
330
D1
100
AcDbDimAssoc
330
D0
 90
        2
 70
     0
 71
     0
  1
AcDbOsnapPointRef
 72
     3
331
95
 73
     2
 91
        0
 40
0.0
 10
0.0
 20
0.0
 30
0.0
 75
     0
  0
DIMASSOC
  5
DE
102
{ACAD_REACTORS
330
DD
102
}
330
DD
100
AcDbDimAssoc
330
DC
 90
        2
 70
     0
 71
     0
  1
AcDbOsnapPointRef
 72
     3
331
93
 73
     2
 91
        0
 40
0.0
 10
0.0
 20
0.0
 30
0.0
 75
     0
  0
DIMASSOC
  5
EA
102
{ACAD_REACTORS
330
E9
102
}
330
E9
100
AcDbDimAssoc
330
E8
 90
        2
 70
     0
 71
     0
  1
AcDbOsnapPointRef
 72
     3
331
94
 73
     2
 91
        0
 40
0.0
 10
0.0
 20
0.0
 30
0.0
 75
     0
  0
DIMASSOC
  5
FC
102
{ACAD_REACTORS
330
FB
102
}
330
FB
100
AcDbDimAssoc
330
FA
 90
        2
 70
     0
 71
     0
  1
AcDbOsnapPointRef
 72
     1
331
6D
 73
     2
 91
        3
 40
1.0
 10
0.0
 20
0.0
 30
2.000000000000000E+50
 75
     0
  0
DIMASSOC
  5
11A
102
{ACAD_REACTORS
330
119
102
}
330
119
100
AcDbDimAssoc
330
118
 90
        1
 70
     0
 71
     0
  1
AcDbOsnapPointRef
 72
    13
331
6B
 73
     2
 91
        2
 40
1.570796326794896
 10
0.0
 20
0.0
 30
2.000000000000000E+50
 75
     0
  0
DIMASSOC
  5
12A
102
{ACAD_REACTORS
330
129
102
}
330
129
100
AcDbDimAssoc
330
128
 90
        1
 70
     0
 71
     0
  1
AcDbOsnapPointRef
 72
     1
331
74
 73
     2
 91
        6
 40
1.0
 10
0.0
 20
0.0
 30
2.000000000000000E+50
 75
     0
  0
DIMASSOC
  5
156
102
{ACAD_REACTORS
330
155
102
}
330
155
100
AcDbDimAssoc
330
154
 90
        3
 70
     0
 71
     0
  1
AcDbOsnapPointRef
 72
     1
331
74
 73
     2
 91
        1
 40
1.0
 10
0.0
 20
0.0
 30
2.000000000000000E+50
 75
     0
  1
AcDbOsnapPointRef
 72
     1
331
74
 73
     2
 91
        4
 40
1.0
 10
0.0
 20
0.0
 30
2.000000000000000E+50
 75
     0
  0
DIMASSOC
  5
166
102
{ACAD_REACTORS
330
165
102
}
330
165
100
AcDbDimAssoc
330
164
 90
        3
 70
     0
 71
     0
  1
AcDbOsnapPointRef
 72
     1
331
8C
 73
     2
 91
        0
 40
1.0
 10
0.0
 20
0.0
 30
2.000000000000000E+50
 75
     0
  1
AcDbOsnapPointRef
 72
    13
331
8C
 73
     2
 91
        0
 40
0.0005405405405179
 10
0.0
 20
0.0
 30
2.000000000000000E+50
 75
     0
  0
DIMASSOC
  5
176
102
{ACAD_REACTORS
330
175
102
}
330
175
100
AcDbDimAssoc
330
174
 90
        3
 70
     0
 71
     0
  1
AcDbOsnapPointRef
 72
    13
331
8E
 73
     2
 91
        1
 40
0.0
 10
0.0
 20
0.0
 30
2.000000000000000E+50
 75
     0
  1
AcDbOsnapPointRef
 72
     1
331
8E
 73
     2
 91
        3
 40
1.0
 10
0.0
 20
0.0
 30
2.000000000000000E+50
 75
     0
  0
DIMASSOC
  5
186
102
{ACAD_REACTORS
330
185
102
}
330
185
100
AcDbDimAssoc
330
184
 90
        3
 70
     0
 71
     0
  1
AcDbOsnapPointRef
 72
    13
331
8E
 73
     2
 91
        1
 40
0.0
 10
0.0
 20
0.0
 30
2.000000000000000E+50
 75
     0
  1
AcDbOsnapPointRef
 72
     1
331
83
 73
     2
 91
        3
 40
1.0
 10
0.0
 20
0.0
 30
2.000000000000000E+50
 75
     0
  0
DIMASSOC
  5
196
102
{ACAD_REACTORS
330
195
102
}
330
195
100
AcDbDimAssoc
330
194
 90
        2
 70
     0
 71
     0
  1
AcDbOsnapPointRef
 72
     1
331
8E
 73
     2
 91
        1
 40
1.0
 10
0.0
 20
0.0
 30
2.000000000000000E+50
 75
     0
  0
LAYOUT
  5
10
102
{ACAD_XDICTIONARY
360
12
102
}
102
{ACAD_REACTORS
330
11
102
}
330
11
100
AcDbPlotSettings
  1

  2
none_device
  4
ISO_A4_(210.00_x_297.00_MM)
  6

 40
7.5
 41
20.0
 42
7.5
 43
20.0
 44
210.0
 45
297.0
 46
11.54999923706054
 47
-13.65000009536743
 48
0.0
 49
0.0
140
0.0
141
0.0
142
1.0
143
8.704084754739808
 70
 11952
 72
     1
 73
     0
 74
     0
  7

 75
     0
147
0.1148885871608098
 76
     0
 77
     2
 78
   300
148
0.0
149
0.0
100
AcDbLayout
  1
Model
 70
     1
 71
     0
 10
0.0
 20
0.0
 11
12.0
 21
9.0
 12
0.0
 22
0.0
 32
0.0
 14
0.0
 24
0.0
 34
0.0
 15
0.0
 25
0.0
 35
0.0
146
0.0
 13
0.0
 23
0.0
 33
0.0
 16
1.0
 26
0.0
 36
0.0
 17
0.0
 27
1.0
 37
0.0
 76
     0
330
2
331
28
1001
ACAD_PSEXT
1000
None
1000
None
1000
Not applicable
1000
The layout will not be plotted unless a new plotter configuration name is selected.
1070
     0
  0
LAYOUT
  5
17
102
{ACAD_XDICTIONARY
360
18
102
}
102
{ACAD_REACTORS
330
11
102
}
330
11
100
AcDbPlotSettings
  1

  2
none_device
  4
ISO_A4_(210.00_x_297.00_MM)
  6

 40
7.5
 41
20.0
 42
7.5
 43
20.0
 44
210.0
 45
297.0
 46
0.0
 47
0.0
 48
0.0
 49
0.0
140
0.0
141
0.0
142
1.0
143
1.0
 70
   688
 72
     1
 73
     1
 74
     5
  7

 75
    16
147
1.0
 76
     0
 77
     2
 78
   300
148
0.0
149
0.0
100
AcDbLayout
  1
布局1
 70
     1
 71
     1
 10
-20.0
 20
-7.5
 11
277.0
 21
202.5
 12
0.0
 22
0.0
 32
0.0
 14
25.69999999999999
 24
19.5
 34
0.0
 15
231.3
 25
175.5
 35
0.0
146
0.0
 13
0.0
 23
0.0
 33
0.0
 16
1.0
 26
0.0
 36
0.0
 17
0.0
 27
1.0
 37
0.0
 76
     0
330
14
1001
ACAD_PSEXT
1000
无
1000
无
1000
不可用
1000
在选择新的绘图仪配置名称之前，不能打印该布局。
1070
     0
  0
MATERIAL
  5
3B
102
{ACAD_REACTORS
330
D
102
}
330
D
100
AcDbMaterial
  1
ByBlock
 73
     1
 78
     1
172
     1
176
     1
270
     1
274
     1
 94
       63
  0
MATERIAL
  5
3A
102
{ACAD_REACTORS
330
D
102
}
330
D
100
AcDbMaterial
  1
ByLayer
 73
     1
 78
     1
172
     1
176
     1
270
     1
274
     1
 94
       63
  0
MATERIAL
  5
C
102
{ACAD_REACTORS
330
D
102
}
330
D
100
AcDbMaterial
  1
Global
 73
     1
 78
     1
172
     1
176
     1
270
     1
274
     1
 94
       63
  0
MLINESTYLE
  5
45
102
{ACAD_REACTORS
330
38
102
}
330
38
100
AcDbMlineStyle
  2
STANDARD
 70
     0
  3

 62
   256
 51
90.0
 52
90.0
 71
     2
 49
0.5
 62
   256
  6
BYLAYER
 49
-0.5
 62
   256
  6
BYLAYER
  0
ACDBPLACEHOLDER
  5
9
102
{ACAD_REACTORS
330
A
102
}
330
A
  0
SCALE
  5
4A
102
{ACAD_REACTORS
330
3D
102
}
330
3D
100
AcDbScale
 70
     0
300
1:1
140
1.0
141
1.0
290
     1
  0
SCALE
  5
4B
102
{ACAD_REACTORS
330
3D
102
}
330
3D
100
AcDbScale
 70
     0
300
1:2
140
1.0
141
2.0
290
     0
  0
SCALE
  5
4C
102
{ACAD_REACTORS
330
3D
102
}
330
3D
100
AcDbScale
 70
     0
300
1:4
140
1.0
141
4.0
290
     0
  0
SCALE
  5
4D
102
{ACAD_REACTORS
330
3D
102
}
330
3D
100
AcDbScale
 70
     0
300
1:5
140
1.0
141
5.0
290
     0
  0
SCALE
  5
4E
102
{ACAD_REACTORS
330
3D
102
}
330
3D
100
AcDbScale
 70
     0
300
1:8
140
1.0
141
8.0
290
     0
  0
SCALE
  5
4F
102
{ACAD_REACTORS
330
3D
102
}
330
3D
100
AcDbScale
 70
     0
300
1:10
140
1.0
141
10.0
290
     0
  0
SCALE
  5
50
102
{ACAD_REACTORS
330
3D
102
}
330
3D
100
AcDbScale
 70
     0
300
1:16
140
1.0
141
16.0
290
     0
  0
SCALE
  5
51
102
{ACAD_REACTORS
330
3D
102
}
330
3D
100
AcDbScale
 70
     0
300
1:20
140
1.0
141
20.0
290
     0
  0
SCALE
  5
52
102
{ACAD_REACTORS
330
3D
102
}
330
3D
100
AcDbScale
 70
     0
300
1:30
140
1.0
141
30.0
290
     0
  0
SCALE
  5
53
102
{ACAD_REACTORS
330
3D
102
}
330
3D
100
AcDbScale
 70
     0
300
1:40
140
1.0
141
40.0
290
     0
  0
SCALE
  5
54
102
{ACAD_REACTORS
330
3D
102
}
330
3D
100
AcDbScale
 70
     0
300
1:50
140
1.0
141
50.0
290
     0
  0
SCALE
  5
55
102
{ACAD_REACTORS
330
3D
102
}
330
3D
100
AcDbScale
 70
     0
300
1:100
140
1.0
141
100.0
290
     0
  0
SCALE
  5
56
102
{ACAD_REACTORS
330
3D
102
}
330
3D
100
AcDbScale
 70
     0
300
2:1
140
2.0
141
1.0
290
     0
  0
SCALE
  5
57
102
{ACAD_REACTORS
330
3D
102
}
330
3D
100
AcDbScale
 70
     0
300
4:1
140
4.0
141
1.0
290
     0
  0
SCALE
  5
58
102
{ACAD_REACTORS
330
3D
102
}
330
3D
100
AcDbScale
 70
     0
300
8:1
140
8.0
141
1.0
290
     0
  0
SCALE
  5
59
102
{ACAD_REACTORS
330
3D
102
}
330
3D
100
AcDbScale
 70
     0
300
10:1
140
10.0
141
1.0
290
     0
  0
SCALE
  5
5A
102
{ACAD_REACTORS
330
3D
102
}
330
3D
100
AcDbScale
 70
     0
300
100:1
140
100.0
141
1.0
290
     0
  0
SCALE
  5
5B
102
{ACAD_REACTORS
330
3D
102
}
330
3D
100
AcDbScale
 70
     0
300
1/128" = 1'-0"
140
0.0078125
141
12.0
290
     0
  0
SCALE
  5
5C
102
{ACAD_REACTORS
330
3D
102
}
330
3D
100
AcDbScale
 70
     0
300
1/64" = 1'-0"
140
0.015625
141
12.0
290
     0
  0
SCALE
  5
5D
102
{ACAD_REACTORS
330
3D
102
}
330
3D
100
AcDbScale
 70
     0
300
1/32" = 1'-0"
140
0.03125
141
12.0
290
     0
  0
SCALE
  5
5E
102
{ACAD_REACTORS
330
3D
102
}
330
3D
100
AcDbScale
 70
     0
300
1/16" = 1'-0"
140
0.0625
141
12.0
290
     0
  0
SCALE
  5
5F
102
{ACAD_REACTORS
330
3D
102
}
330
3D
100
AcDbScale
 70
     0
300
3/32" = 1'-0"
140
0.09375
141
12.0
290
     0
  0
SCALE
  5
60
102
{ACAD_REACTORS
330
3D
102
}
330
3D
100
AcDbScale
 70
     0
300
1/8" = 1'-0"
140
0.125
141
12.0
290
     0
  0
SCALE
  5
61
102
{ACAD_REACTORS
330
3D
102
}
330
3D
100
AcDbScale
 70
     0
300
3/16" = 1'-0"
140
0.1875
141
12.0
290
     0
  0
SCALE
  5
62
102
{ACAD_REACTORS
330
3D
102
}
330
3D
100
AcDbScale
 70
     0
300
1/4" = 1'-0"
140
0.25
141
12.0
290
     0
  0
SCALE
  5
63
102
{ACAD_REACTORS
330
3D
102
}
330
3D
100
AcDbScale
 70
     0
300
3/8" = 1'-0"
140
0.375
141
12.0
290
     0
  0
SCALE
  5
64
102
{ACAD_REACTORS
330
3D
102
}
330
3D
100
AcDbScale
 70
     0
300
1/2" = 1'-0"
140
0.5
141
12.0
290
     0
  0
SCALE
  5
65
102
{ACAD_REACTORS
330
3D
102
}
330
3D
100
AcDbScale
 70
     0
300
3/4" = 1'-0"
140
0.75
141
12.0
290
     0
  0
SCALE
  5
66
102
{ACAD_REACTORS
330
3D
102
}
330
3D
100
AcDbScale
 70
     0
300
1" = 1'-0"
140
1.0
141
12.0
290
     0
  0
SCALE
  5
67
102
{ACAD_REACTORS
330
3D
102
}
330
3D
100
AcDbScale
 70
     0
300
1-1/2" = 1'-0"
140
1.5
141
12.0
290
     0
  0
SCALE
  5
68
102
{ACAD_REACTORS
330
3D
102
}
330
3D
100
AcDbScale
 70
     0
300
3" = 1'-0"
140
3.0
141
12.0
290
     0
  0
SCALE
  5
69
102
{ACAD_REACTORS
330
3D
102
}
330
3D
100
AcDbScale
 70
     0
300
6" = 1'-0"
140
6.0
141
12.0
290
     0
  0
SCALE
  5
6A
102
{ACAD_REACTORS
330
3D
102
}
330
3D
100
AcDbScale
 70
     0
300
1'-0" = 1'-0"
140
12.0
141
12.0
290
     0
  0
TABLESTYLE
  5
46
102
{ACAD_XDICTIONARY
360
47
102
}
102
{ACAD_REACTORS
330
3E
102
}
330
3E
100
AcDbTableStyle
280
     0
  3
Standard
 70
     0
 71
     0
 40
1.5
 41
1.5
280
     0
281
     0
  7
Standard
140
4.5
170
     2
 62
     0
 63
     7
283
     0
 90
      512
 91
        0
  1

274
    -2
284
     1
 64
     0
275
    -2
285
     1
 65
     0
276
    -2
286
     1
 66
     0
277
    -2
287
     1
 67
     0
278
    -2
288
     1
 68
     0
279
    -2
289
     1
 69
     0
  7
Standard
140
6.0
170
     5
 62
     0
 63
     7
283
     0
 90
      512
 91
        0
  1

274
    -2
284
     1
 64
     0
275
    -2
285
     1
 65
     0
276
    -2
286
     1
 66
     0
277
    -2
287
     1
 67
     0
278
    -2
288
     1
 68
     0
279
    -2
289
     1
 69
     0
  7
Standard
140
4.5
170
     5
 62
     0
 63
     7
283
     0
 90
      512
 91
        0
  1

274
    -2
284
     1
 64
     0
275
    -2
285
     1
 65
     0
276
    -2
286
     1
 66
     0
277
    -2
287
     1
 67
     0
278
    -2
288
     1
 68
     0
279
    -2
289
     1
 69
     0
  0
VISUALSTYLE
  5
29
102
{ACAD_REACTORS
330
2A
102
}
330
2A
100
AcDbVisualStyle
  2
2dWireframe
 70
     4
177
     3
291
     0
 70
    58
 90
        0
176
     1
 90
        2
176
     1
 90
        1
176
     1
 90
        0
176
     1
 40
0.6
176
     1
 40
30.0
176
     1
 62
     7
420
 16777215
176
     1
 90
        1
176
     1
 90
        4
176
     1
 62
     7
176
     1
 62
   257
176
     1
 90
        1
176
     1
 90
        1
176
     1
 40
1.0
176
     1
 90
        0
176
     1
 62
   257
176
     1
 40
1.0
176
     1
 90
        1
176
     1
 90
        6
176
     1
 90
        2
176
     1
 62
     7
176
     1
 90
        5
176
     1
 90
        0
176
     1
 90
        0
176
     1
290
     0
176
     1
 90
        1
176
     1
 40
0.0
176
     1
 90
        0
176
     1
290
     1
176
     1
290
     1
176
     1
290
     0
176
     1
290
     0
176
     1
290
     0
176
     1
290
     0
176
     1
290
     0
176
     1
290
     0
176
     1
290
     0
176
     1
 90
       50
176
     1
 40
0.0
176
     1
 40
1.0
176
     1
 90
        0
176
     1
 62
    18
420
        0
176
     1
 90
       50
176
     1
 90
        3
176
     1
 62
     5
420
      255
176
     1
290
     0
176
     1
 90
       50
176
     1
 90
       50
176
     1
 90
       50
176
     1
290
     0
176
     1
 90
       50
176
     1
 62
   256
176
     0
 40
1.0
176
     0
 90
        2
176
     1
  1
strokes_ogs.tif
176
     1
290
     0
176
     1
 40
1.0
176
     1
 40
1.0
176
     1
  0
VISUALSTYLE
  5
49
102
{ACAD_REACTORS
330
2A
102
}
330
2A
100
AcDbVisualStyle
  2
3dWireframe
 70
     5
177
     3
291
     0
 70
    58
 90
        0
176
     1
 90
        2
176
     1
 90
        1
176
     1
 90
        0
176
     1
 40
0.6
176
     1
 40
30.0
176
     1
 62
     7
420
 16777215
176
     1
 90
        1
176
     1
 90
        4
176
     1
 62
     7
176
     1
 62
   257
176
     1
 90
        1
176
     1
 90
        1
176
     1
 40
1.0
176
     1
 90
        0
176
     1
 62
   257
176
     1
 40
1.0
176
     1
 90
        1
176
     1
 90
        6
176
     1
 90
        2
176
     1
 62
     7
176
     1
 90
        5
176
     1
 90
        0
176
     1
 90
        0
176
     1
290
     0
176
     1
 90
        1
176
     1
 40
0.0
176
     1
 90
        0
176
     1
290
     0
176
     1
290
     1
176
     1
290
     1
176
     1
290
     0
176
     1
290
     0
176
     1
290
     0
176
     1
290
     0
176
     1
290
     0
176
     1
290
     0
176
     1
 90
       50
176
     1
 40
0.0
176
     1
 40
1.0
176
     1
 90
        0
176
     1
 62
    18
420
        0
176
     1
 90
       50
176
     1
 90
        3
176
     1
 62
     5
420
      255
176
     1
290
     0
176
     1
 90
       50
176
     1
 90
       50
176
     1
 90
       50
176
     1
290
     0
176
     1
 90
       50
176
     1
 62
   256
176
     0
 40
1.0
176
     0
 90
        2
176
     1
  1
strokes_ogs.tif
176
     1
290
     0
176
     1
 40
1.0
176
     1
 40
1.0
176
     1
  0
VISUALSTYLE
  5
48
102
{ACAD_REACTORS
330
2A
102
}
330
2A
100
AcDbVisualStyle
  2
Realistic
 70
     8
177
     3
291
     0
 70
    58
 90
        2
176
     1
 90
        2
176
     1
 90
        1
176
     1
 90
        0
176
     1
 40
0.6
176
     1
 40
30.0
176
     1
 62
     7
420
 16777215
176
     1
 90
        1
176
     1
 90
        0
176
     1
 62
     7
176
     1
 62
   257
176
     1
 90
        1
176
     1
 90
        1
176
     1
 40
1.0
176
     1
 90
        8
176
     1
 62
     8
420
  7895160
176
     1
 40
1.0
176
     1
 90
        1
176
     1
 90
        6
176
     1
 90
        2
176
     1
 62
     7
176
     1
 90
        5
176
     1
 90
        0
176
     1
 90
        0
176
     1
290
     0
176
     1
 90
       13
176
     1
 40
0.0
176
     1
 90
        0
176
     1
290
     0
176
     1
290
     1
176
     1
290
     1
176
     1
290
     0
176
     1
290
     0
176
     1
290
     0
176
     1
290
     0
176
     1
290
     0
176
     1
290
     0
176
     1
 90
       50
176
     1
 40
0.0
176
     1
 40
1.0
176
     1
 90
        0
176
     1
 62
    18
420
        0
176
     1
 90
       50
176
     1
 90
        3
176
     1
 62
     5
420
      255
176
     1
290
     0
176
     1
 90
       50
176
     1
 90
       50
176
     1
 90
       50
176
     1
290
     0
176
     1
 90
       50
176
     1
 62
   256
176
     0
 40
1.0
176
     0
 90
        2
176
     1
  1
strokes_ogs.tif
176
     1
290
     0
176
     1
 40
1.0
176
     1
 40
1.0
176
     1
  0
DICTIONARYVAR
  5
1AC
102
{ACAD_REACTORS
330
1A6
102
}
330
1A6
100
DictionaryVariables
280
     0
  1
1:1
  0
DICTIONARYVAR
  5
1A8
102
{ACAD_REACTORS
330
1A6
102
}
330
1A6
100
DictionaryVariables
280
     0
  1
STANDARD
  0
DICTIONARYVAR
  5
1A7
102
{ACAD_REACTORS
330
1A6
102
}
330
1A6
100
DictionaryVariables
280
     0
  1
STANDARD
  0
DICTIONARYVAR
  5
1A9
102
{ACAD_REACTORS
330
1A6
102
}
330
1A6
100
DictionaryVariables
280
     0
  1

  0
DICTIONARYVAR
  5
1AA
102
{ACAD_REACTORS
330
1A6
102
}
330
1A6
100
DictionaryVariables
280
     0
  1

  0
DICTIONARYVAR
  5
1AE
102
{ACAD_REACTORS
330
1A6
102
}
330
1A6
100
DictionaryVariables
280
     0
  1
1
  0
DICTIONARYVAR
  5
1AF
102
{ACAD_REACTORS
330
1A6
102
}
330
1A6
100
DictionaryVariables
280
     0
  1
15
  0
DICTIONARYVAR
  5
1AD
102
{ACAD_REACTORS
330
1A6
102
}
330
1A6
100
DictionaryVariables
280
     0
  1
0
  0
DICTIONARYVAR
  5
1AB
102
{ACAD_REACTORS
330
1A6
102
}
330
1A6
100
DictionaryVariables
280
     0
  1
0
  0
DICTIONARY
  5
12
330
10
100
AcDbDictionary
280
     1
281
     1
  0
DICTIONARY
  5
18
330
17
100
AcDbDictionary
280
     1
281
     1
  0
DICTIONARY
  5
47
330
46
100
AcDbDictionary
280
     1
281
     1
  3
ACAD_ROUNDTRIP_2008_TABLESTYLE_CELLSTYLEMAP
360
1B0
  0
CELLSTYLEMAP
  5
1B0
102
{ACAD_REACTORS
330
47
102
}
330
47
100
AcDbCellStyleMap
 90
        3
300
CELLSTYLE
  1
TABLEFORMAT_BEGIN
 90
        5
170
     1
 91
        0
 92
    32768
 62
   257
 93
        1
300
CONTENTFORMAT
  1
CONTENTFORMAT_BEGIN
 90
        0
 91
        0
 92
      512
 93
        0
300

 40
0.0
140
1.0
 94
        5
 62
     0
340
20
144
6.0
309
CONTENTFORMAT_END
171
     1
301
MARGIN
  1
CELLMARGIN_BEGIN
 40
1.5
 40
1.5
 40
1.5
 40
1.5
 40
0.18
 40
0.18
309
CELLMARGIN_END
 94
        6
 95
        1
302
GRIDFORMAT
  1
GRIDFORMAT_BEGIN
 90
        0
 91
        1
 62
     0
 92
       -2
340
0
 93
        0
 40
0.045
309
GRIDFORMAT_END
 95
        2
302
GRIDFORMAT
  1
GRIDFORMAT_BEGIN
 90
        0
 91
        1
 62
     0
 92
       -2
340
0
 93
        0
 40
0.045
309
GRIDFORMAT_END
 95
        4
302
GRIDFORMAT
  1
GRIDFORMAT_BEGIN
 90
        0
 91
        1
 62
     0
 92
       -2
340
0
 93
        0
 40
0.045
309
GRIDFORMAT_END
 95
        8
302
GRIDFORMAT
  1
GRIDFORMAT_BEGIN
 90
        0
 91
        1
 62
     0
 92
       -2
340
0
 93
        0
 40
0.045
309
GRIDFORMAT_END
 95
       16
302
GRIDFORMAT
  1
GRIDFORMAT_BEGIN
 90
        0
 91
        1
 62
     0
 92
       -2
340
0
 93
        0
 40
0.045
309
GRIDFORMAT_END
 95
       32
302
GRIDFORMAT
  1
GRIDFORMAT_BEGIN
 90
        0
 91
        1
 62
     0
 92
       -2
340
0
 93
        0
 40
0.045
309
GRIDFORMAT_END
309
TABLEFORMAT_END
  1
CELLSTYLE_BEGIN
 90
        1
 91
        1
300
_TITLE
309
CELLSTYLE_END
300
CELLSTYLE
  1
TABLEFORMAT_BEGIN
 90
        5
170
     1
 91
        0
 92
        0
 62
   257
 93
        1
300
CONTENTFORMAT
  1
CONTENTFORMAT_BEGIN
 90
        0
 91
        0
 92
      512
 93
        0
300

 40
0.0
140
1.0
 94
        5
 62
     0
340
20
144
4.5
309
CONTENTFORMAT_END
171
     1
301
MARGIN
  1
CELLMARGIN_BEGIN
 40
1.5
 40
1.5
 40
1.5
 40
1.5
 40
0.18
 40
0.18
309
CELLMARGIN_END
 94
        6
 95
        1
302
GRIDFORMAT
  1
GRIDFORMAT_BEGIN
 90
        0
 91
        1
 62
     0
 92
       -2
340
0
 93
        0
 40
0.045
309
GRIDFORMAT_END
 95
        2
302
GRIDFORMAT
  1
GRIDFORMAT_BEGIN
 90
        0
 91
        1
 62
     0
 92
       -2
340
0
 93
        0
 40
0.045
309
GRIDFORMAT_END
 95
        4
302
GRIDFORMAT
  1
GRIDFORMAT_BEGIN
 90
        0
 91
        1
 62
     0
 92
       -2
340
0
 93
        0
 40
0.045
309
GRIDFORMAT_END
 95
        8
302
GRIDFORMAT
  1
GRIDFORMAT_BEGIN
 90
        0
 91
        1
 62
     0
 92
       -2
340
0
 93
        0
 40
0.045
309
GRIDFORMAT_END
 95
       16
302
GRIDFORMAT
  1
GRIDFORMAT_BEGIN
 90
        0
 91
        1
 62
     0
 92
       -2
340
0
 93
        0
 40
0.045
309
GRIDFORMAT_END
 95
       32
302
GRIDFORMAT
  1
GRIDFORMAT_BEGIN
 90
        0
 91
        1
 62
     0
 92
       -2
340
0
 93
        0
 40
0.045
309
GRIDFORMAT_END
309
TABLEFORMAT_END
  1
CELLSTYLE_BEGIN
 90
        2
 91
        1
300
_HEADER
309
CELLSTYLE_END
300
CELLSTYLE
  1
TABLEFORMAT_BEGIN
 90
        5
170
     1
 91
        0
 92
        0
 62
   257
 93
        1
300
CONTENTFORMAT
  1
CONTENTFORMAT_BEGIN
 90
        0
 91
        0
 92
      512
 93
        0
300

 40
0.0
140
1.0
 94
        2
 62
     0
340
20
144
4.5
309
CONTENTFORMAT_END
171
     1
301
MARGIN
  1
CELLMARGIN_BEGIN
 40
1.5
 40
1.5
 40
1.5
 40
1.5
 40
0.18
 40
0.18
309
CELLMARGIN_END
 94
        6
 95
        1
302
GRIDFORMAT
  1
GRIDFORMAT_BEGIN
 90
        0
 91
        1
 62
     0
 92
       -2
340
0
 93
        0
 40
0.045
309
GRIDFORMAT_END
 95
        2
302
GRIDFORMAT
  1
GRIDFORMAT_BEGIN
 90
        0
 91
        1
 62
     0
 92
       -2
340
0
 93
        0
 40
0.045
309
GRIDFORMAT_END
 95
        4
302
GRIDFORMAT
  1
GRIDFORMAT_BEGIN
 90
        0
 91
        1
 62
     0
 92
       -2
340
0
 93
        0
 40
0.045
309
GRIDFORMAT_END
 95
        8
302
GRIDFORMAT
  1
GRIDFORMAT_BEGIN
 90
        0
 91
        1
 62
     0
 92
       -2
340
0
 93
        0
 40
0.045
309
GRIDFORMAT_END
 95
       16
302
GRIDFORMAT
  1
GRIDFORMAT_BEGIN
 90
        0
 91
        1
 62
     0
 92
       -2
340
0
 93
        0
 40
0.045
309
GRIDFORMAT_END
 95
       32
302
GRIDFORMAT
  1
GRIDFORMAT_BEGIN
 90
        0
 91
        1
 62
     0
 92
       -2
340
0
 93
        0
 40
0.045
309
GRIDFORMAT_END
309
TABLEFORMAT_END
  1
CELLSTYLE_BEGIN
 90
        3
 91
        2
300
_DATA
309
CELLSTYLE_END
  0
ENDSEC
  0
SECTION
  2
ACDSDATA
 70
     2
 71
     6
  0
ACDSSCHEMA
 90
        0
  1
AcDb_Thumbnail_Schema
  2
AcDbDs::ID
280
    10
 91
        8
  2
Thumbnail_Data
280
    15
 91
        0
101
ACDSRECORD
 95
        0
 90
        1
  2
AcDbDs::TreatedAsObjectData
280
     1
291
     1
101
ACDSRECORD
 95
        0
 90
        2
  2
AcDbDs::Legacy
280
     1
291
     1
101
ACDSRECORD
  1
AcDbDs::ID
 90
        3
  2
AcDs:Indexable
280
     1
291
     1
101
ACDSRECORD
  1
AcDbDs::ID
 90
        4
  2
AcDbDs::HandleAttribute
280
     7
282
     1
  0
ACDSSCHEMA
 90
        1
  1
AcDbDs::TreatedAsObjectDataSchema
  2
AcDbDs::TreatedAsObjectData
280
     1
 91
        0
  0
ACDSSCHEMA
 90
        2
  1
AcDbDs::LegacySchema
  2
AcDbDs::Legacy
280
     1
 91
        0
  0
ACDSSCHEMA
 90
        3
  1
AcDbDs::IndexedPropertySchema
  2
AcDs:Indexable
280
     1
 91
        0
  0
ACDSSCHEMA
 90
        4
  1
AcDbDs::HandleAttributeSchema
  2
AcDbDs::HandleAttribute
280
     7
 91
        1
284
     1
  0
ACDSRECORD
 90
        0
  2
AcDbDs::ID
280
    10
320
10
  2
Thumbnail_Data
280
    15
 94
     1756
310
89504E470D0A1A0A0000000D49484452000001000000005E0803000000FB5F3A6700000300504C5445212830000000C8C8C80000000000000000000000000000000000000000000000000000330000660000990000CC0000FF0033000033330033660033990033CC0033FF0066000066330066660066990066CC0066FF0099
310
000099330099660099990099CC0099FF00CC0000CC3300CC6600CC9900CCCC00CCFF00FF0000FF3300FF6600FF9900FFCC00FFFF3300003300333300663300993300CC3300FF3333003333333333663333993333CC3333FF3366003366333366663366993366CC3366FF3399003399333399663399993399CC3399FF33CC00
310
33CC3333CC6633CC9933CCCC33CCFF33FF0033FF3333FF6633FF9933FFCC33FFFF6600006600336600666600996600CC6600FF6633006633336633666633996633CC6633FF6666006666336666666666996666CC6666FF6699006699336699666699996699CC6699FF66CC0066CC3366CC6666CC9966CCCC66CCFF66FF0066
310
FF3366FF6666FF9966FFCC66FFFF9900009900339900669900999900CC9900FF9933009933339933669933999933CC9933FF9966009966339966669966999966CC9966FF9999009999339999669999999999CC9999FF99CC0099CC3399CC6699CC9999CCCC99CCFF99FF0099FF3399FF6699FF9999FFCC99FFFFCC0000CC00
310
33CC0066CC0099CC00CCCC00FFCC3300CC3333CC3366CC3399CC33CCCC33FFCC6600CC6633CC6666CC6699CC66CCCC66FFCC9900CC9933CC9966CC9999CC99CCCC99FFCCCC00CCCC33CCCC66CCCC99CCCCCCCCCCFFCCFF00CCFF33CCFF66CCFF99CCFFCCCCFFFFFF0000FF0033FF0066FF0099FF00CCFF00FFFF3300FF3333
310
FF3366FF3399FF33CCFF33FFFF6600FF6633FF6666FF6699FF66CCFF66FFFF9900FF9933FF9966FF9999FF99CCFF99FFFFCC00FFCC33FFCC66FFCC99FFCCCCFFCCFFFFFF00FFFF33FFFF66FFFF99FFFFCCFFFFFF0000000D0D0D1A1A1A2828283535354343435050505D5D5D6B6B6B787878868686939393A1A1A1AEAEAEBB
310
BBBBC9C9C9D6D6D6E4E4E4F1F1F1FFFFFF000000000000000000000000000000000000000000000000000000000000B21171F6000002C84944415478DAED9C5B72A4300C45B583EC7F33B312AF20FFF77F026DF04B74F310898CAF2A45131A52F2419225992042A15028140A6558F9DA9663677B1039AEF23B343B8F39BA99
310
62AAF27A257E44307D740360D255A61F58009809F405C044E50C80F46601128D56CC2CE0B23DFD0D00330B90EE2C400C6340F4A6DE82E065956B00D22300936970F83C80000880000880001E0B20BC646800D3766417200002F00120B412EB995100B4148043089E01201673289A1B180740AC654B598AFB24C94A1E09A0F9
310
4E1D7FBACA0780DA791BFD0E5800EAE19754E6134C00C01480A4DB17E25E386901F3C588DBA52F9D7B8411807FF2B2251300B9F5461801219C7401E453C0AB2B9DEE9AB105E8D5C00900284793FB6EF48B8DBA438D01B1B3BB0258563BC41C8099050055685A469B62C3B657E8009001903516B80510872A211F7F3E631D02
310
808CC54AC33B80653F77AB6C7F13C08BDBBC5D03499A0D3A00300F1195E5B7BF1E7601295D00700E60B3BD721C40B9AD0184D5643C5AC0FB6CE93400C80D2EF013997D02C866FD0280FD34282E01A0D0F1D644C82500944A12C05DB5C012B6610C001701A06E07DC07E0587F65772D701A40501B22B796C3AE00CC455340D3
310
0091F2D85465A24B006F1221B4CDD07CC01B1D313C0780963967B5C5A7531C00081D02088600A0D9AED2CDC49E3851AF90D40B061E01ECEA00EE69909D3EE731006A518EC108801803F828BB9678C2C7A933884F00F748B8A2F1CE07240606B0FDF709E0D701A879A09E1A420B27BD0388E1BE5A1C0D73DE8FEFBA3A92F040
310
0B90B4A858E7D820809B006CD7A76E00880640D3BB6F0B4879DF2E0023B900012C5D40AD25360C0069BB41564110FEF280CF8FC939AD062F0AF4C7245519A91ABCA4310110000110000110000110000110000110000110000110000134DFF3858A14CADD82A5B51D37EBFF84A4D71E22BD03F2E04B037A0390FADA4AA71B19
310
945FD2ED3FB47C0B72493F447A0000000049454E44AE42608240AA15A400E467807F3A70A4010014AC209C5607A5A2A2A2A2A2A2D9A0EE22733AC614DA41E2167B88C801000580021BB814F2CCB7EF2283BA8BCC6B570105A00014C03F01407E30F4FC5F8C340F9E6FDFF29EC7E40A63950050785A941BE4280BF04DAB49CA
310
02884EE46D42600080C801C85E3AF807881028DB182677310000000049454E44AE426082AE4260821680D1003C3D6FF426001CC988CD0FC0BFADAC068024007EDB3AE05921FBAEA6C75B7E06E4F9DA37B8DFC2F507697C88437A6A31380000000049454E44AE426082
  0
ACDSRECORD
 90
        0
  2
AcDbDs::ID
280
    10
320
17
  2
Thumbnail_Data
280
    15
 94
     1943
310
89504E470D0A1A0A0000000D49484452000000B80000007F08030000006B00F8F900000300504C5445FFFFFF000000FFFFFF0000000000000000000000000000000000000000000000000000330000660000990000CC0000FF0033000033330033660033990033CC0033FF0066000066330066660066990066CC0066FF0099
310
000099330099660099990099CC0099FF00CC0000CC3300CC6600CC9900CCCC00CCFF00FF0000FF3300FF6600FF9900FFCC00FFFF3300003300333300663300993300CC3300FF3333003333333333663333993333CC3333FF3366003366333366663366993366CC3366FF3399003399333399663399993399CC3399FF33CC00
310
33CC3333CC6633CC9933CCCC33CCFF33FF0033FF3333FF6633FF9933FFCC33FFFF6600006600336600666600996600CC6600FF6633006633336633666633996633CC6633FF6666006666336666666666996666CC6666FF6699006699336699666699996699CC6699FF66CC0066CC3366CC6666CC9966CCCC66CCFF66FF0066
310
FF3366FF6666FF9966FFCC66FFFF9900009900339900669900999900CC9900FF9933009933339933669933999933CC9933FF9966009966339966669966999966CC9966FF9999009999339999669999999999CC9999FF99CC0099CC3399CC6699CC9999CCCC99CCFF99FF0099FF3399FF6699FF9999FFCC99FFFFCC0000CC00
310
33CC0066CC0099CC00CCCC00FFCC3300CC3333CC3366CC3399CC33CCCC33FFCC6600CC6633CC6666CC6699CC66CCCC66FFCC9900CC9933CC9966CC9999CC99CCCC99FFCCCC00CCCC33CCCC66CCCC99CCCCCCCCCCFFCCFF00CCFF33CCFF66CCFF99CCFFCCCCFFFFFF0000FF0033FF0066FF0099FF00CCFF00FFFF3300FF3333
310
FF3366FF3399FF33CCFF33FFFF6600FF6633FF6666FF6699FF66CCFF66FFFF9900FF9933FF9966FF9999FF99CCFF99FFFFCC00FFCC33FFCC66FFCC99FFCCCCFFCCFFFFFF00FFFF33FFFF66FFFF99FFFFCCFFFFFF0000000D0D0D1A1A1A2828283535354343435050505D5D5D6B6B6B787878868686939393A1A1A1AEAEAEBB
310
BBBBC9C9C9D6D6D6E4E4E4F1F1F1FFFFFF000000000000000000000000000000000000000000000000000000000000790CAC0F000004524944415478DAED9C5B92E3200C457B03296DC3FB5F801673FF7A01FE1F03120870E2C476067B46547742223F0E422F70557E30DFAEE127340777F01DE0D0D67FB329998F48DEB8CD
310
6BF00B6BD9C11DDCC11DFC2F827BE674F0FF0D1C03DB31F06B441107BF1E38AE0B0E0777700777700777700777F017470344F7D4F8427E4F70BA32F8FE7A1C331E783CEEB09000D82C0C69017F00B70067669415757C7FDC0E9C22F8E31E1ADFD843F0C5F279E0D12D97170AFFF1134BA324E4F4B27CE2245B5E108F260AA7
310
8C0347200978020E0154F0481EC09380C24029B591E02117051A8E1A8F5A8D2A65FD1407B5BC0938A21F07DE059CBF028EF74D25AA51512366D2384B37998A50733A7289F6BBC1712278C281804350A59B3F41A640344E34103C6917195C5B724716764E1ACFF331BE1E57D4A4D50C9E2C1E6520622A024E9F45D9AF2C2432
310
99D8B8D8B4A012178D4B1894195A44F1148CD3B844BCA871FC26EB50E7D481A461B0E81C31A0F058E7FC65D65092C025EB041B9F72CED1381E2A996446F360F01C9D610260F994C849C0A72906F8B47E1AADF11CF08A03E65CC91A56248FE626E043C361059EBB098E21F1A68A2AA04F97DA5F0297C229C771709F39D539A3
310
3064CDF1FB2A14DC2DFC49CA11238E1A5F64596C8EBC88C6818F33E11576B2A434F12DB8A1FB2ABEE63C177C9AB45364B9BB261C0F3EED019FB687504E9ABE028E6A87D944402E256E125AD9D41E34B5DF404B16E97077E1A3E069FD55DF25769545C16571660F2B747969CF65CF9A6C07FDD00E8287CBE64283CAE63E7306
310
4F5054C0739AE49AAE9928A31A7DD323F83078BABE5ED53C95985445508D970D13D98BB0F68056E38C6A324A49B00F1C7D39654DC5541CD96896D42F1A2FE07AFC1B1A97D3D4E09E837F98391B533170DAD3C1982DD04C513055E36A6C6826B19993E3E05C598175CE1EDCCC06D3BA618411C8A5A8BAE4B6A9EC02CFCE9627
310
543625D69D93559D9D6198A88297CED9D7707BC0B37AD9C0C982271B74B9756F2A2BCE59AC4FC06B8DCB3383A31ACF536F6D1CB55B113F3795F9453894B8D5D838D1291A2FA6626C5C2759BEB3326C6B5CE747C6DB829F632A26031A1B6F7465ED1F5D1CD76DAF671AA7169CCE01A795A802420DCE2DB80DF6B245DED72A12
310
0E8B734E279A8AE4982A0141328FDED280E7606D071CB7548AC689AAA8424D02024E76CE5248E94EB79A4F1D2A3B8DD393EA50AF124DC9809FEB9C553D4273F5DDA2A3E97991A57B0205BCD5B88027C1D9CE694C25F74AE62C95E976386C8BACF8F80B79B0A7D978EF9C2BB9B0C8A80D874017C7A90A87F149184ECF9CDCDA
310
C00AB89575AB9915F0B5871CFB13D0FC1ADCDC8DDAC95F5DD6992AF33538911638672D24DE867B094EB4A5F1B8857A3DF04D51798E7833F066957F5BF0D9C11DDCC13FCA9C23C1E1E0D706BFCE13090777700777700777700777F0CDB30782CF0E7E6DF0BBFE68C6459B833BF86E70FF9D2C0777700777F0BA36795EAD3C95
310
CC4724477F8CD433A783FF93E0376C81FB0FE8D566DAC99D001A0000000049454E44AE426082
  0
ENDSEC
  0
EOF
