  0
SECTION
  2
HEADER
  9
$ACADVER
  1
AC1027
  9
$ACADMAINTVER
 70
    55
  9
$DWGCODEPAGE
  3
ANSI_936
  9
$REQUIREDVERSIONS
160
                 0
  9
$INSBASE
 10
0.0
 20
0.0
 30
0.0
  9
$EXTMIN
 10
-34607.30634793638
 20
16112.5105673383
 30
0.0
  9
$EXTMAX
 10
-1202.65293636074
 20
38457.29723805076
 30
506.0
  9
$LIMMIN
 10
0.0
 20
0.0
  9
$LIMMAX
 10
420.0
 20
297.0
  9
$ORTHOMODE
 70
     0
  9
$REGENMODE
 70
     1
  9
$FILLMODE
 70
     1
  9
$QTEXTMODE
 70
     0
  9
$MIRRTEXT
 70
     0
  9
$LTSCALE
 40
1.0
  9
$ATTMODE
 70
     1
  9
$TEXTSIZE
 40
2.5
  9
$TRACEWID
 40
1.0
  9
$TEXTSTYLE
  7
样式 2
  9
$CLAYER
  8
标注
  9
$CELTYPE
  6
ByLayer
  9
$CECOLOR
 62
     0
  9
$CELTSCALE
 40
1.0
  9
$DISPSILH
 70
     0
  9
$DIMSCALE
 40
1.0
  9
$DIMASZ
 40
25.0
  9
$DIMEXO
 40
2.0
  9
$DIMDLI
 40
0.38
  9
$DIMRND
 40
0.0
  9
$DIMDLE
 40
0.0
  9
$DIMEXE
 40
0.18
  9
$DIMTP
 40
0.0
  9
$DIMTM
 40
0.0
  9
$DIMTXT
 40
25.0
  9
$DIMCEN
 40
0.0
  9
$DIMTSZ
 40
0.0
  9
$DIMTOL
 70
     0
  9
$DIMLIM
 70
     0
  9
$DIMTIH
 70
     0
  9
$DIMTOH
 70
     0
  9
$DIMSE1
 70
     0
  9
$DIMSE2
 70
     0
  9
$DIMTAD
 70
     0
  9
$DIMZIN
 70
     0
  9
$DIMBLK
  1

  9
$DIMASO
 70
     1
  9
$DIMSHO
 70
     1
  9
$DIMPOST
  1

  9
$DIMAPOST
  1

  9
$DIMALT
 70
     1
  9
$DIMALTD
 70
     2
  9
$DIMALTF
 40
0.03937
  9
$DIMLFAC
 40
1.0
  9
$DIMTOFL
 70
     0
  9
$DIMTVP
 40
0.0
  9
$DIMTIX
 70
     0
  9
$DIMSOXD
 70
     0
  9
$DIMSAH
 70
     0
  9
$DIMBLK1
  1

  9
$DIMBLK2
  1

  9
$DIMSTYLE
  2
Standard
  9
$DIMCLRD
 70
     2
  9
$DIMCLRE
 70
     2
  9
$DIMCLRT
 70
     2
  9
$DIMTFAC
 40
1.0
  9
$DIMGAP
 40
1.0
  9
$DIMJUST
 70
     0
  9
$DIMSD1
 70
     0
  9
$DIMSD2
 70
     0
  9
$DIMTOLJ
 70
     1
  9
$DIMTZIN
 70
     0
  9
$DIMALTZ
 70
     0
  9
$DIMALTTZ
 70
     0
  9
$DIMUPT
 70
     0
  9
$DIMDEC
 70
     2
  9
$DIMTDEC
 70
     2
  9
$DIMALTU
 70
     2
  9
$DIMALTTD
 70
     2
  9
$DIMTXSTY
  7
Standard
  9
$DIMAUNIT
 70
     0
  9
$DIMADEC
 70
     0
  9
$DIMALTRND
 40
0.0
  9
$DIMAZIN
 70
     0
  9
$DIMDSEP
 70
    46
  9
$DIMATFIT
 70
     3
  9
$DIMFRAC
 70
     0
  9
$DIMLDRBLK
  1

  9
$DIMLUNIT
 70
     2
  9
$DIMLWD
 70
    -1
  9
$DIMLWE
 70
    -1
  9
$DIMTMOVE
 70
     0
  9
$DIMFXL
 40
1.0
  9
$DIMFXLON
 70
     0
  9
$DIMJOGANG
 40
0.7853981633974483
  9
$DIMTFILL
 70
     0
  9
$DIMTFILLCLR
 70
     2
  9
$DIMARCSYM
 70
     0
  9
$DIMLTYPE
  6
ByLayer
  9
$DIMLTEX1
  6
ByLayer
  9
$DIMLTEX2
  6
ByLayer
  9
$DIMTXTDIRECTION
 70
     0
  9
$LUNITS
 70
     2
  9
$LUPREC
 70
     3
  9
$SKETCHINC
 40
1.0
  9
$FILLETRAD
 40
30.0
  9
$AUNITS
 70
     0
  9
$AUPREC
 70
     0
  9
$MENU
  1
.
  9
$ELEVATION
 40
0.0
  9
$PELEVATION
 40
0.0
  9
$THICKNESS
 40
0.0
  9
$LIMCHECK
 70
     0
  9
$CHAMFERA
 40
10.0
  9
$CHAMFERB
 40
10.0
  9
$CHAMFERC
 40
0.0
  9
$CHAMFERD
 40
0.0
  9
$SKPOLY
 70
     0
  9
$TDCREATE
 40
2455815.639909213
  9
$TDUCREATE
 40
2455815.306575880
  9
$TDUPDATE
 40
2457272.698655996
  9
$TDUUPDATE
 40
2457272.365322662
  9
$TDINDWG
 40
24.9659092361
  9
$TDUSRTIMER
 40
24.9659077894
  9
$USRTIMER
 70
     1
  9
$ANGBASE
 50
0.0
  9
$ANGDIR
 70
     0
  9
$PDMODE
 70
     0
  9
$PDSIZE
 40
0.0
  9
$PLINEWID
 40
0.0
  9
$SPLFRAME
 70
     0
  9
$SPLINETYPE
 70
     6
  9
$SPLINESEGS
 70
     8
  9
$HANDSEED
  5
186
  9
$SURFTAB1
 70
     6
  9
$SURFTAB2
 70
     6
  9
$SURFTYPE
 70
     6
  9
$SURFU
 70
     6
  9
$SURFV
 70
     6
  9
$UCSBASE
  2

  9
$UCSNAME
  2

  9
$UCSORG
 10
0.0
 20
0.0
 30
0.0
  9
$UCSXDIR
 10
1.0
 20
0.0
 30
0.0
  9
$UCSYDIR
 10
0.0
 20
1.0
 30
0.0
  9
$UCSORTHOREF
  2

  9
$UCSORTHOVIEW
 70
     0
  9
$UCSORGTOP
 10
0.0
 20
0.0
 30
0.0
  9
$UCSORGBOTTOM
 10
0.0
 20
0.0
 30
0.0
  9
$UCSORGLEFT
 10
0.0
 20
0.0
 30
0.0
  9
$UCSORGRIGHT
 10
0.0
 20
0.0
 30
0.0
  9
$UCSORGFRONT
 10
0.0
 20
0.0
 30
0.0
  9
$UCSORGBACK
 10
0.0
 20
0.0
 30
0.0
  9
$PUCSBASE
  2

  9
$PUCSNAME
  2

  9
$PUCSORG
 10
0.0
 20
0.0
 30
0.0
  9
$PUCSXDIR
 10
1.0
 20
0.0
 30
0.0
  9
$PUCSYDIR
 10
0.0
 20
1.0
 30
0.0
  9
$PUCSORTHOREF
  2

  9
$PUCSORTHOVIEW
 70
     0
  9
$PUCSORGTOP
 10
0.0
 20
0.0
 30
0.0
  9
$PUCSORGBOTTOM
 10
0.0
 20
0.0
 30
0.0
  9
$PUCSORGLEFT
 10
0.0
 20
0.0
 30
0.0
  9
$PUCSORGRIGHT
 10
0.0
 20
0.0
 30
0.0
  9
$PUCSORGFRONT
 10
0.0
 20
0.0
 30
0.0
  9
$PUCSORGBACK
 10
0.0
 20
0.0
 30
0.0
  9
$USERI1
 70
     0
  9
$USERI2
 70
     0
  9
$USERI3
 70
     0
  9
$USERI4
 70
     0
  9
$USERI5
 70
     0
  9
$USERR1
 40
0.0
  9
$USERR2
 40
0.0
  9
$USERR3
 40
0.0
  9
$USERR4
 40
0.0
  9
$USERR5
 40
2.5
  9
$WORLDVIEW
 70
     1
  9
$SHADEDGE
 70
     3
  9
$SHADEDIF
 70
    70
  9
$TILEMODE
 70
     1
  9
$MAXACTVP
 70
    64
  9
$PINSBASE
 10
0.0
 20
0.0
 30
0.0
  9
$PLIMCHECK
 70
     0
  9
$PEXTMIN
 10
25.69999999999999
 20
19.5
 30
0.0
  9
$PEXTMAX
 10
231.3
 20
175.5
 30
0.0
  9
$PLIMMIN
 10
-20.0
 20
-7.5
  9
$PLIMMAX
 10
277.0
 20
202.5
  9
$UNITMODE
 70
     0
  9
$VISRETAIN
 70
     1
  9
$PLINEGEN
 70
     0
  9
$PSLTSCALE
 70
     1
  9
$TREEDEPTH
 70
  3020
  9
$CMLSTYLE
  2
Standard
  9
$CMLJUST
 70
     0
  9
$CMLSCALE
 40
20.0
  9
$PROXYGRAPHICS
 70
     1
  9
$MEASUREMENT
 70
     1
  9
$CELWEIGHT
370
    -1
  9
$ENDCAPS
280
     0
  9
$JOINSTYLE
280
     0
  9
$LWDISPLAY
290
     0
  9
$INSUNITS
 70
     4
  9
$HYPERLINKBASE
  1

  9
$STYLESHEET
  1

  9
$XEDIT
290
     1
  9
$CEPSNTYPE
380
     0
  9
$PSTYLEMODE
290
     1
  9
$FINGERPRINTGUID
  2
{55B28C60-F14E-4F0B-9EE9-4B86AD50369C}
  9
$VERSIONGUID
  2
{86B8D631-D791-455E-9FBD-B3A6E77B4C58}
  9
$EXTNAMES
290
     1
  9
$PSVPSCALE
 40
0.0
  9
$OLESTARTUP
290
     0
  9
$SORTENTS
280
   127
  9
$INDEXCTL
280
     0
  9
$HIDETEXT
280
     1
  9
$XCLIPFRAME
280
     0
  9
$HALOGAP
280
     0
  9
$OBSCOLOR
 70
   257
  9
$OBSLTYPE
280
     0
  9
$INTERSECTIONDISPLAY
280
     0
  9
$INTERSECTIONCOLOR
 70
   257
  9
$DIMASSOC
280
     2
  9
$PROJECTNAME
  1

  9
$CAMERADISPLAY
290
     0
  9
$LENSLENGTH
 40
50.0
  9
$CAMERAHEIGHT
 40
0.0
  9
$STEPSPERSEC
 40
2.0
  9
$STEPSIZE
 40
6.0
  9
$3DDWFPREC
 40
2.0
  9
$PSOLWIDTH
 40
5.0
  9
$PSOLHEIGHT
 40
80.0
  9
$LOFTANG1
 40
1.570796326794896
  9
$LOFTANG2
 40
1.570796326794896
  9
$LOFTMAG1
 40
0.0
  9
$LOFTMAG2
 40
0.0
  9
$LOFTPARAM
 70
     7
  9
$LOFTNORMALS
280
     1
  9
$LATITUDE
 40
37.795
  9
$LONGITUDE
 40
-122.394
  9
$NORTHDIRECTION
 40
0.0
  9
$TIMEZONE
 70
 -8000
  9
$LIGHTGLYPHDISPLAY
280
     1
  9
$TILEMODELIGHTSYNCH
280
     1
  9
$CMATERIAL
347
3A
  9
$SOLIDHIST
280
     1
  9
$SHOWHIST
280
     1
  9
$DWFFRAME
280
     2
  9
$DGNFRAME
280
     0
  9
$REALWORLDSCALE
290
     1
  9
$INTERFERECOLOR
 62
     1
  9
$INTERFEREOBJVS
345
48
  9
$INTERFEREVPVS
346
49
  9
$CSHADOW
280
     0
  9
$SHADOWPLANELOCATION
 40
0.0
  0
ENDSEC
  0
SECTION
  2
CLASSES
  0
CLASS
  1
ACDBDICTIONARYWDFLT
  2
AcDbDictionaryWithDefault
  3
ObjectDBX Classes
 90
        0
 91
        1
280
     0
281
     0
  0
CLASS
  1
DICTIONARYVAR
  2
AcDbDictionaryVar
  3
ObjectDBX Classes
 90
        0
 91
        9
280
     0
281
     0
  0
CLASS
  1
TABLESTYLE
  2
AcDbTableStyle
  3
ObjectDBX Classes
 90
     4095
 91
        1
280
     0
281
     0
  0
CLASS
  1
MATERIAL
  2
AcDbMaterial
  3
ObjectDBX Classes
 90
     1153
 91
        3
280
     0
281
     0
  0
CLASS
  1
VISUALSTYLE
  2
AcDbVisualStyle
  3
ObjectDBX Classes
 90
     4095
 91
        3
280
     0
281
     0
  0
CLASS
  1
ACAD_EVALUATION_GRAPH
  2
AcDbEvalGraph
  3
ObjectDBX Classes
 90
     1153
 91
        0
280
     0
281
     0
  0
CLASS
  1
BLOCKLOOKUPPARAMETER
  2
AcDbBlockLookupParameter
  3
ObjectDBX Classes
 90
     1153
 91
        0
280
     0
281
     0
  0
CLASS
  1
BLOCKLOOKUPGRIP
  2
AcDbBlockLookupGrip
  3
ObjectDBX Classes
 90
     1153
 91
        0
280
     0
281
     0
  0
CLASS
  1
BLOCKGRIPLOCATIONCOMPONENT
  2
AcDbBlockGripExpr
  3
ObjectDBX Classes
 90
     1153
 91
        0
280
     0
281
     0
  0
CLASS
  1
BLOCKLOOKUPACTION
  2
AcDbBlockLookupAction
  3
ObjectDBX Classes
 90
     1153
 91
        0
280
     0
281
     0
  0
CLASS
  1
BLOCKLINEARPARAMETER
  2
AcDbBlockLinearParameter
  3
ObjectDBX Classes
 90
     1153
 91
        0
280
     0
281
     0
  0
CLASS
  1
BLOCKSCALEACTION
  2
AcDbBlockScaleAction
  3
ObjectDBX Classes
 90
     1153
 91
        0
280
     0
281
     0
  0
CLASS
  1
ACDB_DYNAMICBLOCKPURGEPREVENTER_VERSION
  2
AcDbDynamicBlockPurgePreventer
  3
ObjectDBX Classes
 90
     1153
 91
        0
280
     0
281
     0
  0
CLASS
  1
ACDB_BLOCKREPRESENTATION_DATA
  2
AcDbBlockRepresentationData
  3
ObjectDBX Classes
 90
     1153
 91
        0
280
     0
281
     0
  0
CLASS
  1
BLOCKSTRETCHACTION
  2
AcDbBlockStretchAction
  3
ObjectDBX Classes
 90
     1153
 91
        0
280
     0
281
     0
  0
CLASS
  1
BLOCKMOVEACTION
  2
AcDbBlockMoveAction
  3
ObjectDBX Classes
 90
     1153
 91
        0
280
     0
281
     0
  0
CLASS
  1
BLOCKVISIBILITYPARAMETER
  2
AcDbBlockVisibilityParameter
  3
ObjectDBX Classes
 90
     1153
 91
        0
280
     0
281
     0
  0
CLASS
  1
SORTENTSTABLE
  2
AcDbSortentsTable
  3
ObjectDBX Classes
 90
        0
 91
        2
280
     0
281
     0
  0
CLASS
  1
BLOCKVISIBILITYGRIP
  2
AcDbBlockVisibilityGrip
  3
ObjectDBX Classes
 90
     1153
 91
        0
280
     0
281
     0
  0
CLASS
  1
BLOCKFLIPPARAMETER
  2
AcDbBlockFlipParameter
  3
ObjectDBX Classes
 90
     1153
 91
        0
280
     0
281
     0
  0
CLASS
  1
BLOCKFLIPGRIP
  2
AcDbBlockFlipGrip
  3
ObjectDBX Classes
 90
     1153
 91
        0
280
     0
281
     0
  0
CLASS
  1
BLOCKFLIPACTION
  2
AcDbBlockFlipAction
  3
ObjectDBX Classes
 90
     1153
 91
        0
280
     0
281
     0
  0
CLASS
  1
BLOCKALIGNMENTPARAMETER
  2
AcDbBlockAlignmentParameter
  3
ObjectDBX Classes
 90
     1153
 91
        0
280
     0
281
     0
  0
CLASS
  1
BLOCKALIGNMENTGRIP
  2
AcDbBlockAlignmentGrip
  3
ObjectDBX Classes
 90
     1153
 91
        0
280
     0
281
     0
  0
CLASS
  1
BLOCKPOINTPARAMETER
  2
AcDbBlockPointParameter
  3
ObjectDBX Classes
 90
     1153
 91
        0
280
     0
281
     0
  0
CLASS
  1
BLOCKLINEARGRIP
  2
AcDbBlockLinearGrip
  3
ObjectDBX Classes
 90
     1153
 91
        0
280
     0
281
     0
  0
CLASS
  1
BLOCKBASEPOINTPARAMETER
  2
AcDbBlockBasepointParameter
  3
ObjectDBX Classes
 90
     1153
 91
        0
280
     0
281
     0
  0
CLASS
  1
BLOCKARRAYACTION
  2
AcDbBlockArrayAction
  3
ObjectDBX Classes
 90
     1153
 91
        0
280
     0
281
     0
  0
CLASS
  1
BLOCKROTATIONPARAMETER
  2
AcDbBlockRotationParameter
  3
ObjectDBX Classes
 90
     1153
 91
        0
280
     0
281
     0
  0
CLASS
  1
BLOCKROTATIONGRIP
  2
AcDbBlockRotationGrip
  3
ObjectDBX Classes
 90
     1153
 91
        0
280
     0
281
     0
  0
CLASS
  1
BLOCKROTATEACTION
  2
AcDbBlockRotateAction
  3
ObjectDBX Classes
 90
     1153
 91
        0
280
     0
281
     0
  0
CLASS
  1
BLOCKPOLARPARAMETER
  2
AcDbBlockPolarParameter
  3
ObjectDBX Classes
 90
     1153
 91
        0
280
     0
281
     0
  0
CLASS
  1
BLOCKPOLARGRIP
  2
AcDbBlockPolarGrip
  3
ObjectDBX Classes
 90
     1153
 91
        0
280
     0
281
     0
  0
CLASS
  1
BLOCKPOLARSTRETCHACTION
  2
AcDbBlockPolarStretchAction
  3
ObjectDBX Classes
 90
     1153
 91
        0
280
     0
281
     0
  0
CLASS
  1
BLOCKXYPARAMETER
  2
AcDbBlockXYParameter
  3
ObjectDBX Classes
 90
     1153
 91
        0
280
     0
281
     0
  0
CLASS
  1
BLOCKXYGRIP
  2
AcDbBlockXYGrip
  3
ObjectDBX Classes
 90
     1153
 91
        0
280
     0
281
     0
  0
CLASS
  1
ACAD_TABLE
  2
AcDbTable
  3
ObjectDBX Classes
 90
     1025
 91
        0
280
     0
281
     1
  0
CLASS
  1
DIMASSOC
  2
AcDbDimAssoc
  3
"AcDbDimAssoc|Product Desc:     AcDim ARX App For Dimension|Company:          Autodesk, Inc.|WEB Address:      www.autodesk.com"
 90
        0
 91
       10
280
     0
281
     0
  0
CLASS
  1
LARGE_RADIAL_DIMENSION
  2
AcDbRadialDimensionLarge
  3
ObjectDBX Classes
 90
     1025
 91
        0
280
     0
281
     1
  0
CLASS
  1
SCALE
  2
AcDbScale
  3
ObjectDBX Classes
 90
     1153
 91
       33
280
     0
281
     0
  0
CLASS
  1
MLEADERSTYLE
  2
AcDbMLeaderStyle
  3
ACDB_MLEADERSTYLE_CLASS
 90
     4095
 91
        0
280
     0
281
     0
  0
CLASS
  1
VLO-VL
  2
vlo_VL
  3
VL|AutoLISP based application
 90
      129
 91
        0
280
     1
281
     0
  0
CLASS
  1
CELLSTYLEMAP
  2
AcDbCellStyleMap
  3
ObjectDBX Classes
 90
     1152
 91
        1
280
     0
281
     0
  0
CLASS
  1
RASTERVARIABLES
  2
AcDbRasterVariables
  3
ISM
 90
        0
 91
        0
280
     0
281
     0
  0
CLASS
  1
IMAGEDEF
  2
AcDbRasterImageDef
  3
ISM
 90
        0
 91
        0
280
     0
281
     0
  0
CLASS
  1
IMAGEDEF_REACTOR
  2
AcDbRasterImageDefReactor
  3
ISM
 90
        1
 91
        0
280
     0
281
     0
  0
CLASS
  1
IMAGE
  2
AcDbRasterImage
  3
ISM
 90
     2175
 91
        0
280
     0
281
     1
  0
CLASS
  1
ACDBSECTIONVIEWSTYLE
  2
AcDbSectionViewStyle
  3
ObjectDBX Classes
 90
     1025
 91
        0
280
     0
281
     0
  0
CLASS
  1
ACDBDETAILVIEWSTYLE
  2
AcDbDetailViewStyle
  3
ObjectDBX Classes
 90
     1025
 91
        0
280
     0
281
     0
  0
CLASS
  1
SOLID_BACKGROUND
  2
AcDbSolidBackground
  3
SCENEOE
 90
     4095
 91
        0
280
     0
281
     0
  0
CLASS
  1
NPOCOLLECTION
  2
AcDbImpNonPersistentObjectsCollection
  3
ObjectDBX Classes
 90
     1153
 91
        0
280
     0
281
     0
  0
ENDSEC
  0
SECTION
  2
TABLES
  0
TABLE
  2
VPORT
  5
27
102
{ACAD_XDICTIONARY
360
2C
102
}
330
0
100
AcDbSymbolTable
 70
     1
  0
VPORT
  5
28
330
27
100
AcDbSymbolTableRecord
100
AcDbViewportTableRecord
  2
*Active
 70
     0
 10
0.0
 20
0.0
 11
1.0
 21
1.0
 12
-32913.90056256249
 22
30661.78718285852
 13
0.0
 23
0.0
 14
10.0
 24
10.0
 15
10.0
 25
10.0
 16
0.0
 26
0.0
 36
1.0
 17
0.0
 27
0.0
 37
0.0
 40
2814.99284173979
 41
2.720081135902637
 42
50.0
 43
0.0
 44
0.0
 50
0.0
 51
0.0
 71
     0
 72
  1000
 73
     1
 74
     3
 75
     0
 76
     1
 77
     0
 78
     0
281
     0
 65
     1
110
0.0
120
0.0
130
0.0
111
1.0
121
0.0
131
0.0
112
0.0
122
1.0
132
0.0
 79
     0
146
0.0
348
29
 60
     2
 61
     5
292
     1
282
     1
141
0.0
142
0.0
 63
   250
421
  3355443
1001
ACAD_NAV_VCDISPLAY
1070
     3
  0
ENDTAB
  0
TABLE
  2
LTYPE
  5
22
330
0
100
AcDbSymbolTable
 70
     1
  0
LTYPE
  5
23
330
22
100
AcDbSymbolTableRecord
100
AcDbLinetypeTableRecord
  2
ByBlock
 70
     0
  3

 72
    65
 73
     0
 40
0.0
  0
LTYPE
  5
24
330
22
100
AcDbSymbolTableRecord
100
AcDbLinetypeTableRecord
  2
ByLayer
 70
     0
  3

 72
    65
 73
     0
 40
0.0
  0
LTYPE
  5
E
330
22
100
AcDbSymbolTableRecord
100
AcDbLinetypeTableRecord
  2
Continuous
 70
     0
  3
Solid line
 72
    65
 73
     0
 40
0.0
  0
ENDTAB
  0
TABLE
  2
LAYER
  5
19
102
{ACAD_XDICTIONARY
360
1A
102
}
330
0
100
AcDbSymbolTable
 70
     4
  0
LAYER
  5
6
102
{ACAD_XDICTIONARY
360
7
102
}
330
19
100
AcDbSymbolTableRecord
100
AcDbLayerTableRecord
  2
0
 70
     0
 62
     7
  6
Continuous
370
    -3
390
9
347
C
348
0
  0
LAYER
  5
BF
330
19
100
AcDbSymbolTableRecord
100
AcDbLayerTableRecord
  2
Defpoints
 70
     0
 62
     8
  6
Continuous
290
     0
370
    -3
390
9
347
C
348
0
  0
LAYER
  5
40
102
{ACAD_XDICTIONARY
360
41
102
}
330
19
100
AcDbSymbolTableRecord
100
AcDbLayerTableRecord
  2
标注
 70
     0
 62
     1
  6
Continuous
370
    -3
390
9
347
C
348
0
1001
AcAecLayerStandard
1000

1000

  0
LAYER
  5
6E
102
{ACAD_XDICTIONARY
360
6F
102
}
330
19
100
AcDbSymbolTableRecord
100
AcDbLayerTableRecord
  2
填充层
 70
     0
 62
     7
  6
Continuous
370
    -3
390
9
347
C
348
0
1001
AcAecLayerStandard
1000

1000

  0
ENDTAB
  0
TABLE
  2
STYLE
  5
1F
330
0
100
AcDbSymbolTable
 70
     2
  0
STYLE
  5
20
330
1F
100
AcDbSymbolTableRecord
100
AcDbTextStyleTableRecord
  2
Standard
 70
     0
 40
0.0
 41
0.7800000000000001
 50
0.0
 71
     0
 42
2.5
  3
times.ttf
  4

1001
ACAD
1000
Times New Roman
1071
       18
  0
STYLE
  5
44
330
1F
100
AcDbSymbolTableRecord
100
AcDbTextStyleTableRecord
  2
样式 2
 70
     0
 40
0.0
 41
0.7800000000000001
 50
0.0
 71
     0
 42
2.5
  3
@Dotum.shx
  4

  0
ENDTAB
  0
TABLE
  2
VIEW
  5
25
330
0
100
AcDbSymbolTable
 70
     0
  0
ENDTAB
  0
TABLE
  2
UCS
  5
26
330
0
100
AcDbSymbolTable
 70
     0
  0
ENDTAB
  0
TABLE
  2
APPID
  5
2D
330
0
100
AcDbSymbolTable
 70
     7
  0
APPID
  5
1E
330
2D
100
AcDbSymbolTableRecord
100
AcDbRegAppTableRecord
  2
ACAD
 70
     0
  0
APPID
  5
13
330
2D
100
AcDbSymbolTableRecord
100
AcDbRegAppTableRecord
  2
ACAD_PSEXT
 70
     0
  0
APPID
  5
43
330
2D
100
AcDbSymbolTableRecord
100
AcDbRegAppTableRecord
  2
AcAecLayerStandard
 70
     0
  0
APPID
  5
30
330
2D
100
AcDbSymbolTableRecord
100
AcDbRegAppTableRecord
  2
ACAD_DSTYLE_DIMJAG
 70
     0
  0
APPID
  5
31
330
2D
100
AcDbSymbolTableRecord
100
AcDbRegAppTableRecord
  2
ACAD_DSTYLE_DIMTALN
 70
     0
  0
APPID
  5
C2
330
2D
100
AcDbSymbolTableRecord
100
AcDbRegAppTableRecord
  2
ACAD_DSTYLE_DIMRADIAL_EXTENSION
 70
     0
  0
APPID
  5
2B
330
2D
100
AcDbSymbolTableRecord
100
AcDbRegAppTableRecord
  2
ACAD_NAV_VCDISPLAY
 70
     0
  0
ENDTAB
  0
TABLE
  2
DIMSTYLE
  5
2E
330
0
100
AcDbSymbolTable
 70
     5
100
AcDbDimStyleTable
 71
     5
340
2F
340
32
340
33
340
34
340
35
  0
DIMSTYLE
105
2F
102
{ACAD_REACTORS
330
B6
330
C3
330
CE
330
DE
330
EE
330
FE
330
10E
330
11C
330
12A
330
138
330
148
330
158
330
168
102
}
330
2E
100
AcDbSymbolTableRecord
100
AcDbDimStyleTableRecord
  2
Standard
 70
     0
 41
25.0
 42
2.0
 70
     2
 73
     0
 74
     0
140
25.0
141
0.0
143
0.03937
147
1.0
170
     1
176
     2
177
     2
178
     2
271
     2
272
     2
340
20
345
24
346
24
347
24
371
    -1
372
    -1
1001
ACAD_DSTYLE_DIMJAG
1070
   388
1040
1.5
1001
ACAD_DSTYLE_DIMTALN
1070
   392
1070
     0
  0
DIMSTYLE
105
35
330
2E
100
AcDbSymbolTableRecord
100
AcDbDimStyleTableRecord
  2
ISO-60
 70
     0
 41
55.0
 42
5.0
 43
3.75
 44
1.25
 73
     0
 77
     1
 78
     8
140
60.0
141
2.5
143
0.03937007874016
147
5.0
171
     3
271
     0
272
     0
274
     3
283
     0
284
     8
340
20
  0
DIMSTYLE
105
34
330
2E
100
AcDbSymbolTableRecord
100
AcDbDimStyleTableRecord
  2
0-ISO-40
 70
     0
 41
35.0
 42
5.0
 43
3.75
 44
1.25
 73
     0
 77
     1
 78
     8
140
40.0
141
2.5
143
0.03937007874016
147
5.0
171
     3
172
     1
176
   256
177
   256
178
   256
271
     2
272
     2
274
     3
283
     0
284
     8
340
20
345
24
346
24
347
24
371
    -1
372
    -1
  0
DIMSTYLE
105
32
330
2E
100
AcDbSymbolTableRecord
100
AcDbDimStyleTableRecord
  2
ISO-35
 70
     0
 41
30.0
 42
8.0
 43
3.75
 44
1.25
 73
     0
 77
     1
 78
     8
140
35.0
141
2.5
143
0.03937007874016
147
3.0
171
     3
176
   256
177
   256
178
   256
271
     2
272
     2
274
     3
283
     0
284
     8
340
20
345
24
346
24
347
24
371
    -1
372
    -1
  0
DIMSTYLE
105
33
330
2E
100
AcDbSymbolTableRecord
100
AcDbDimStyleTableRecord
  2
ISO-45
 70
     0
 41
35.0
 42
2.0
 43
3.75
 44
2.0
 73
     0
 77
     1
 78
     8
140
45.0
141
2.5
143
0.03937007874016
147
3.0
171
     3
176
   256
177
   256
178
   256
271
     2
272
     2
274
     3
283
     0
284
     8
340
20
345
24
346
24
347
24
371
    -1
372
    -1
  0
ENDTAB
  0
TABLE
  2
BLOCK_RECORD
  5
1
330
0
100
AcDbSymbolTable
 70
    13
  0
BLOCK_RECORD
  5
2
102
{ACAD_XDICTIONARY
360
3
102
}
330
1
100
AcDbSymbolTableRecord
100
AcDbBlockTableRecord
  2
*Model_Space
340
10
 70
     0
280
     1
281
     0
  0
BLOCK_RECORD
  5
14
330
1
100
AcDbSymbolTableRecord
100
AcDbBlockTableRecord
  2
*Paper_Space
340
17
 70
     0
280
     1
281
     0
  0
BLOCK_RECORD
  5
B9
330
1
100
AcDbSymbolTableRecord
100
AcDbBlockTableRecord
  2
*D0
340
0
 70
     0
280
     1
281
     0
  0
BLOCK_RECORD
  5
C6
330
1
100
AcDbSymbolTableRecord
100
AcDbBlockTableRecord
  2
*D1
340
0
 70
     0
280
     1
281
     0
  0
BLOCK_RECORD
  5
D1
330
1
100
AcDbSymbolTableRecord
100
AcDbBlockTableRecord
  2
*D2
340
0
 70
     0
280
     1
281
     0
  0
BLOCK_RECORD
  5
E1
330
1
100
AcDbSymbolTableRecord
100
AcDbBlockTableRecord
  2
*D3
340
0
 70
     0
280
     1
281
     0
  0
BLOCK_RECORD
  5
F1
330
1
100
AcDbSymbolTableRecord
100
AcDbBlockTableRecord
  2
*D4
340
0
 70
     0
280
     1
281
     0
  0
BLOCK_RECORD
  5
101
330
1
100
AcDbSymbolTableRecord
100
AcDbBlockTableRecord
  2
*D5
340
0
 70
     0
280
     1
281
     0
  0
BLOCK_RECORD
  5
10F
330
1
100
AcDbSymbolTableRecord
100
AcDbBlockTableRecord
  2
*D6
340
0
 70
     0
280
     1
281
     0
  0
BLOCK_RECORD
  5
11D
330
1
100
AcDbSymbolTableRecord
100
AcDbBlockTableRecord
  2
*D7
340
0
 70
     0
280
     1
281
     0
  0
BLOCK_RECORD
  5
12B
330
1
100
AcDbSymbolTableRecord
100
AcDbBlockTableRecord
  2
*D8
340
0
 70
     0
280
     1
281
     0
  0
BLOCK_RECORD
  5
13B
330
1
100
AcDbSymbolTableRecord
100
AcDbBlockTableRecord
  2
*D9
340
0
 70
     0
280
     1
281
     0
  0
BLOCK_RECORD
  5
14B
330
1
100
AcDbSymbolTableRecord
100
AcDbBlockTableRecord
  2
*D10
340
0
 70
     0
280
     1
281
     0
  0
BLOCK_RECORD
  5
15B
330
1
100
AcDbSymbolTableRecord
100
AcDbBlockTableRecord
  2
*D11
340
0
 70
     0
280
     1
281
     0
  0
BLOCK_RECORD
  5
16B
330
1
100
AcDbSymbolTableRecord
100
AcDbBlockTableRecord
  2
*D12
340
0
 70
     0
280
     1
281
     0
  0
ENDTAB
  0
ENDSEC
  0
SECTION
  2
BLOCKS
  0
BLOCK
  5
5
330
2
100
AcDbEntity
  8
0
100
AcDbBlockBegin
  2
*Model_Space
 70
     0
 10
0.0
 20
0.0
 30
0.0
  3
*Model_Space
  1

  0
ENDBLK
  5
F
330
2
100
AcDbEntity
  8
0
100
AcDbBlockEnd
  0
BLOCK
  5
15
330
14
100
AcDbEntity
 67
     1
  8
0
100
AcDbBlockBegin
  2
*Paper_Space
 70
     0
 10
0.0
 20
0.0
 30
0.0
  3
*Paper_Space
  1

  0
ENDBLK
  5
16
330
14
100
AcDbEntity
 67
     1
  8
0
100
AcDbBlockEnd
  0
BLOCK
  5
BA
330
B9
100
AcDbEntity
  8
0
 62
     0
370
   100
100
AcDbBlockBegin
  2
*D0
 70
     1
 10
0.0
 20
0.0
 30
0.0
  3
*D0
  1

  0
LINE
  5
BB
330
B9
100
AcDbEntity
  8
标注
 62
     2
440
 16777216
100
AcDbLine
 10
-33456.97860895844
 20
31193.51888536473
 30
0.0
 11
-33470.10802548916
 21
31214.79371607058
 31
0.0
  0
MTEXT
  5
BC
330
B9
100
AcDbEntity
  8
标注
 62
     2
440
 16777216
370
   100
100
AcDbMText
 10
-33409.94462776435
 20
31117.30529392408
 30
0.0
 40
25.0
 41
0.0
 46
0.0
 71
     5
 72
     1
  1
\A1;R20.00 [R0.79]
 11
0.5251766612288944
 21
-0.8509932282342035
 31
0.0
 73
     1
 44
1.0
  0
SOLID
  5
BD
330
B9
100
AcDbEntity
  8
标注
 62
     2
440
 16777216
370
   100
100
AcDbTrace
 10
-33466.56222037152
 20
31216.98195215904
 30
0.0
 11
-33473.65383060679
 21
31212.60547998213
 31
0.0
 12
-33483.23744201988
 22
31236.06854677643
 32
0.0
 13
-33483.23744201988
 23
31236.06854677643
 33
0.0
  0
POINT
  5
BE
330
B9
100
AcDbEntity
  8
Defpoints
 62
     0
440
 16777216
370
   100
100
AcDbPoint
 10
-33483.23744201988
 20
31236.06854677643
 30
0.0
  0
POINT
  5
C0
330
B9
100
AcDbEntity
  8
Defpoints
 62
     0
440
 16777216
370
   100
100
AcDbPoint
 10
-33472.73390879529
 20
31219.04868221173
 30
0.0
  0
ENDBLK
  5
C1
330
B9
100
AcDbEntity
  8
0
 62
     0
370
   100
100
AcDbBlockEnd
  0
BLOCK
  5
C7
330
C6
100
AcDbEntity
  8
0
 62
     0
370
   100
100
AcDbBlockBegin
  2
*D1
 70
     1
 10
0.0
 20
0.0
 30
0.0
  3
*D1
  1

  0
LINE
  5
C8
330
C6
100
AcDbEntity
  8
标注
 62
     2
440
 16777216
100
AcDbLine
 10
-33454.87889085346
 20
30623.62473408343
 30
0.0
 11
-33471.41131487367
 21
30642.37783932005
 31
0.0
  0
MTEXT
  5
C9
330
C6
100
AcDbEntity
  8
标注
 62
     2
440
 16777216
370
   100
100
AcDbMText
 10
-33395.65419350001
 20
30556.44481051515
 30
0.0
 40
25.0
 41
0.0
 46
0.0
 71
     5
 72
     1
  1
\A1;R23.00 [R0.91]
 11
0.6612969608085646
 21
-0.7501242094649098
 31
0.0
 73
     1
 44
1.0
  0
SOLID
  5
CA
330
C6
100
AcDbEntity
  8
标注
 62
     2
440
 16777216
370
   100
100
AcDbTrace
 10
-33468.28579733423
 20
30645.13324332342
 30
0.0
 11
-33474.53683241311
 21
30639.62243531669
 31
0.0
 12
-33487.94373889388
 22
30661.13094455668
 32
0.0
 13
-33487.94373889388
 23
30661.13094455668
 33
0.0
  0
POINT
  5
CB
330
C6
100
AcDbEntity
  8
Defpoints
 62
     0
440
 16777216
370
   100
100
AcDbPoint
 10
-33487.94373889388
 20
30661.13094455668
 30
0.0
  0
POINT
  5
CC
330
C6
100
AcDbEntity
  8
Defpoints
 62
     0
440
 16777216
370
   100
100
AcDbPoint
 10
-33472.73390879529
 20
30643.87808773898
 30
0.0
  0
ENDBLK
  5
CD
330
C6
100
AcDbEntity
  8
0
 62
     0
370
   100
100
AcDbBlockEnd
  0
BLOCK
  5
D2
330
D1
100
AcDbEntity
  8
0
 62
     0
370
   100
100
AcDbBlockBegin
  2
*D2
 70
     1
 10
0.0
 20
0.0
 30
0.0
  3
*D2
  1

  0
LINE
  5
D3
330
D1
100
AcDbEntity
  8
标注
 62
     2
440
 16777216
100
AcDbLine
 10
-33492.73390879529
 20
30857.04868221176
 30
0.0
 11
-33492.73390879529
 21
30789.46501733674
 31
0.0
  0
LINE
  5
D4
330
D1
100
AcDbEntity
  8
标注
 62
     2
440
 16777216
100
AcDbLine
 10
-32732.73390879529
 20
30857.04868221176
 30
0.0
 11
-32732.73390879529
 21
30789.46501733674
 31
0.0
  0
LINE
  5
D5
330
D1
100
AcDbEntity
  8
标注
 62
     2
440
 16777216
100
AcDbLine
 10
-33467.73390879529
 20
30789.64501733674
 30
0.0
 11
-33197.19587707214
 21
30789.64501733674
 31
0.0
  0
LINE
  5
D6
330
D1
100
AcDbEntity
  8
标注
 62
     2
440
 16777216
100
AcDbLine
 10
-32757.7339087953
 20
30789.64501733674
 30
0.0
 11
-33028.27194051843
 21
30789.64501733674
 31
0.0
  0
SOLID
  5
D7
330
D1
100
AcDbEntity
  8
标注
 62
     2
440
 16777216
370
   100
100
AcDbTrace
 10
-33467.73390879529
 20
30793.81168400341
 30
0.0
 11
-33467.73390879529
 21
30785.47835067007
 31
0.0
 12
-33492.73390879529
 22
30789.64501733674
 32
0.0
 13
-33492.73390879529
 23
30789.64501733674
 33
0.0
  0
SOLID
  5
D8
330
D1
100
AcDbEntity
  8
标注
 62
     2
440
 16777216
370
   100
100
AcDbTrace
 10
-32757.7339087953
 20
30793.81168400341
 30
0.0
 11
-32757.7339087953
 21
30785.47835067007
 31
0.0
 12
-32732.73390879529
 22
30789.64501733674
 32
0.0
 13
-32732.73390879529
 23
30789.64501733674
 33
0.0
  0
MTEXT
  5
D9
330
D1
100
AcDbEntity
  8
标注
 62
     2
440
 16777216
370
   100
100
AcDbMText
 10
-33112.73390879529
 20
30789.64501733674
 30
0.0
 40
25.0
 41
0.0
 46
0.0
 71
     5
 72
     1
  1
\A1;760.00 [29.92]
 73
     1
 44
1.0
  0
POINT
  5
DA
330
D1
100
AcDbEntity
  8
Defpoints
 62
     0
440
 16777216
370
   100
100
AcDbPoint
 10
-33492.73390879529
 20
30859.04868221176
 30
0.0
  0
POINT
  5
DB
330
D1
100
AcDbEntity
  8
Defpoints
 62
     0
440
 16777216
370
   100
100
AcDbPoint
 10
-32732.73390879529
 20
30859.04868221176
 30
0.0
  0
POINT
  5
DC
330
D1
100
AcDbEntity
  8
Defpoints
 62
     0
440
 16777216
370
   100
100
AcDbPoint
 10
-32732.73390879529
 20
30789.64501733674
 30
0.0
  0
ENDBLK
  5
DD
330
D1
100
AcDbEntity
  8
0
 62
     0
370
   100
100
AcDbBlockEnd
  0
BLOCK
  5
E2
330
E1
100
AcDbEntity
  8
0
 62
     0
370
   100
100
AcDbBlockBegin
  2
*D3
 70
     1
 10
0.0
 20
0.0
 30
0.0
  3
*D3
  1

  0
LINE
  5
E3
330
E1
100
AcDbEntity
  8
标注
 62
     2
440
 16777216
100
AcDbLine
 10
-32750.73390879529
 20
30839.04868221175
 30
0.0
 11
-32678.18759840549
 21
30839.04868221175
 31
0.0
  0
LINE
  5
E4
330
E1
100
AcDbEntity
  8
标注
 62
     2
440
 16777216
100
AcDbLine
 10
-32750.73390879529
 20
31239.04868221174
 30
0.0
 11
-32678.18759840549
 21
31239.04868221174
 31
0.0
  0
LINE
  5
E5
330
E1
100
AcDbEntity
  8
标注
 62
     2
440
 16777216
100
AcDbLine
 10
-32678.36759840549
 20
30864.04868221175
 30
0.0
 11
-32678.36759840549
 21
30954.27741328601
 31
0.0
  0
LINE
  5
E6
330
E1
100
AcDbEntity
  8
标注
 62
     2
440
 16777216
100
AcDbLine
 10
-32678.36759840549
 20
31214.04868221175
 30
0.0
 11
-32678.36759840549
 21
31123.81995113749
 31
0.0
  0
SOLID
  5
E7
330
E1
100
AcDbEntity
  8
标注
 62
     2
440
 16777216
370
   100
100
AcDbTrace
 10
-32682.53426507215
 20
30864.04868221175
 30
0.0
 11
-32674.20093173882
 21
30864.04868221175
 31
0.0
 12
-32678.36759840549
 22
30839.04868221175
 32
0.0
 13
-32678.36759840549
 23
30839.04868221175
 33
0.0
  0
SOLID
  5
E8
330
E1
100
AcDbEntity
  8
标注
 62
     2
440
 16777216
370
   100
100
AcDbTrace
 10
-32682.53426507215
 20
31214.04868221175
 30
0.0
 11
-32674.20093173882
 21
31214.04868221175
 31
0.0
 12
-32678.36759840549
 22
31239.04868221174
 32
0.0
 13
-32678.36759840549
 23
31239.04868221174
 33
0.0
  0
MTEXT
  5
E9
330
E1
100
AcDbEntity
  8
标注
 62
     2
440
 16777216
370
   100
100
AcDbMText
 10
-32678.36759840549
 20
31039.04868221174
 30
0.0
 40
25.0
 41
0.0
 46
0.0
 71
     5
 72
     1
  1
\A1;400.00 [15.75]
 11
0.0000000000000001
 21
1.0
 31
0.0
 73
     1
 44
1.0
  0
POINT
  5
EA
330
E1
100
AcDbEntity
  8
Defpoints
 62
     0
440
 16777216
370
   100
100
AcDbPoint
 10
-32752.73390879529
 20
30839.04868221175
 30
0.0
  0
POINT
  5
EB
330
E1
100
AcDbEntity
  8
Defpoints
 62
     0
440
 16777216
370
   100
100
AcDbPoint
 10
-32752.73390879529
 20
31239.04868221174
 30
0.0
  0
POINT
  5
EC
330
E1
100
AcDbEntity
  8
Defpoints
 62
     0
440
 16777216
370
   100
100
AcDbPoint
 10
-32678.36759840549
 20
31239.04868221174
 30
0.0
  0
ENDBLK
  5
ED
330
E1
100
AcDbEntity
  8
0
 62
     0
370
   100
100
AcDbBlockEnd
  0
BLOCK
  5
F2
330
F1
100
AcDbEntity
  8
0
 62
     0
370
   100
100
AcDbBlockBegin
  2
*D4
 70
     1
 10
0.0
 20
0.0
 30
0.0
  3
*D4
  1

  0
LINE
  5
F3
330
F1
100
AcDbEntity
  8
标注
 62
     2
440
 16777216
100
AcDbLine
 10
-33495.73390879529
 20
30281.878087739
 30
0.0
 11
-33495.73390879529
 21
30214.39139094968
 31
0.0
  0
LINE
  5
F4
330
F1
100
AcDbEntity
  8
标注
 62
     2
440
 16777216
100
AcDbLine
 10
-32729.7339087953
 20
30281.87808773899
 30
0.0
 11
-32729.7339087953
 21
30214.39139094968
 31
0.0
  0
LINE
  5
F5
330
F1
100
AcDbEntity
  8
标注
 62
     2
440
 16777216
100
AcDbLine
 10
-33470.73390879529
 20
30214.57139094968
 30
0.0
 11
-33197.19587707215
 21
30214.57139094968
 31
0.0
  0
LINE
  5
F6
330
F1
100
AcDbEntity
  8
标注
 62
     2
440
 16777216
100
AcDbLine
 10
-32754.7339087953
 20
30214.57139094968
 30
0.0
 11
-33028.27194051844
 21
30214.57139094968
 31
0.0
  0
SOLID
  5
F7
330
F1
100
AcDbEntity
  8
标注
 62
     2
440
 16777216
370
   100
100
AcDbTrace
 10
-33470.73390879529
 20
30218.73805761635
 30
0.0
 11
-33470.73390879529
 21
30210.40472428301
 31
0.0
 12
-33495.73390879529
 22
30214.57139094968
 32
0.0
 13
-33495.73390879529
 23
30214.57139094968
 33
0.0
  0
SOLID
  5
F8
330
F1
100
AcDbEntity
  8
标注
 62
     2
440
 16777216
370
   100
100
AcDbTrace
 10
-32754.7339087953
 20
30218.73805761635
 30
0.0
 11
-32754.7339087953
 21
30210.40472428301
 31
0.0
 12
-32729.7339087953
 22
30214.57139094968
 32
0.0
 13
-32729.7339087953
 23
30214.57139094968
 33
0.0
  0
MTEXT
  5
F9
330
F1
100
AcDbEntity
  8
标注
 62
     2
440
 16777216
370
   100
100
AcDbMText
 10
-33112.73390879529
 20
30214.57139094968
 30
0.0
 40
25.0
 41
0.0
 46
0.0
 71
     5
 72
     1
  1
\A1;766.00 [30.16]
 73
     1
 44
1.0
  0
POINT
  5
FA
330
F1
100
AcDbEntity
  8
Defpoints
 62
     0
440
 16777216
370
   100
100
AcDbPoint
 10
-33495.73390879529
 20
30283.878087739
 30
0.0
  0
POINT
  5
FB
330
F1
100
AcDbEntity
  8
Defpoints
 62
     0
440
 16777216
370
   100
100
AcDbPoint
 10
-32729.7339087953
 20
30283.87808773899
 30
0.0
  0
POINT
  5
FC
330
F1
100
AcDbEntity
  8
Defpoints
 62
     0
440
 16777216
370
   100
100
AcDbPoint
 10
-32729.7339087953
 20
30214.57139094968
 30
0.0
  0
ENDBLK
  5
FD
330
F1
100
AcDbEntity
  8
0
 62
     0
370
   100
100
AcDbBlockEnd
  0
BLOCK
  5
102
330
101
100
AcDbEntity
  8
0
 62
     0
370
   100
100
AcDbBlockBegin
  2
*D5
 70
     1
 10
0.0
 20
0.0
 30
0.0
  3
*D5
  1

  0
LINE
  5
103
330
101
100
AcDbEntity
  8
标注
 62
     2
440
 16777216
100
AcDbLine
 10
-32750.73390879528
 20
30666.87808773899
 30
0.0
 11
-32679.0047599788
 21
30666.87808773899
 31
0.0
  0
LINE
  5
104
330
101
100
AcDbEntity
  8
标注
 62
     2
440
 16777216
100
AcDbLine
 10
-32750.7339087953
 20
30260.87808773899
 30
0.0
 11
-32679.0047599788
 21
30260.87808773899
 31
0.0
  0
LINE
  5
105
330
101
100
AcDbEntity
  8
标注
 62
     2
440
 16777216
100
AcDbLine
 10
-32679.1847599788
 20
30641.87808773899
 30
0.0
 11
-32679.1847599788
 21
30548.64935666473
 31
0.0
  0
LINE
  5
106
330
101
100
AcDbEntity
  8
标注
 62
     2
440
 16777216
100
AcDbLine
 10
-32679.1847599788
 20
30285.87808773899
 30
0.0
 11
-32679.1847599788
 21
30379.10681881325
 31
0.0
  0
SOLID
  5
107
330
101
100
AcDbEntity
  8
标注
 62
     2
440
 16777216
370
   100
100
AcDbTrace
 10
-32683.35142664547
 20
30641.87808773899
 30
0.0
 11
-32675.01809331213
 21
30641.87808773899
 31
0.0
 12
-32679.1847599788
 22
30666.87808773899
 32
0.0
 13
-32679.1847599788
 23
30666.87808773899
 33
0.0
  0
SOLID
  5
108
330
101
100
AcDbEntity
  8
标注
 62
     2
440
 16777216
370
   100
100
AcDbTrace
 10
-32683.35142664547
 20
30285.87808773899
 30
0.0
 11
-32675.01809331213
 21
30285.87808773899
 31
0.0
 12
-32679.1847599788
 22
30260.87808773899
 32
0.0
 13
-32679.1847599788
 23
30260.87808773899
 33
0.0
  0
MTEXT
  5
109
330
101
100
AcDbEntity
  8
标注
 62
     2
440
 16777216
370
   100
100
AcDbMText
 10
-32679.1847599788
 20
30463.87808773899
 30
0.0
 40
25.0
 41
0.0
 46
0.0
 71
     5
 72
     1
  1
\A1;406.00 [15.98]
 11
0.0000000000000001
 21
1.0
 31
0.0
 73
     1
 44
1.0
  0
POINT
  5
10A
330
101
100
AcDbEntity
  8
Defpoints
 62
     0
440
 16777216
370
   100
100
AcDbPoint
 10
-32752.73390879528
 20
30666.87808773899
 30
0.0
  0
POINT
  5
10B
330
101
100
AcDbEntity
  8
Defpoints
 62
     0
440
 16777216
370
   100
100
AcDbPoint
 10
-32752.7339087953
 20
30260.87808773899
 30
0.0
  0
POINT
  5
10C
330
101
100
AcDbEntity
  8
Defpoints
 62
     0
440
 16777216
370
   100
100
AcDbPoint
 10
-32679.1847599788
 20
30260.87808773899
 30
0.0
  0
ENDBLK
  5
10D
330
101
100
AcDbEntity
  8
0
 62
     0
370
   100
100
AcDbBlockEnd
  0
BLOCK
  5
110
330
10F
100
AcDbEntity
  8
0
 62
     0
370
   100
100
AcDbBlockBegin
  2
*D6
 70
     1
 10
0.0
 20
0.0
 30
0.0
  3
*D6
  1

  0
LINE
  5
111
330
10F
100
AcDbEntity
  8
标注
 62
     2
440
 16777216
100
AcDbLine
 10
-32504.05108310597
 20
30791.09738048627
 30
0.0
 11
-32504.05108310597
 21
30698.88514394771
 31
0.0
  0
LINE
  5
112
330
10F
100
AcDbEntity
  8
标注
 62
     2
440
 16777216
100
AcDbLine
 10
-31954.05108310597
 20
30791.09738048627
 30
0.0
 11
-31954.05108310597
 21
30698.88514394771
 31
0.0
  0
LINE
  5
113
330
10F
100
AcDbEntity
  8
标注
 62
     2
440
 16777216
100
AcDbLine
 10
-32479.05108310597
 20
30699.06514394771
 30
0.0
 11
-32313.35840105838
 21
30699.06514394771
 31
0.0
  0
LINE
  5
114
330
10F
100
AcDbEntity
  8
标注
 62
     2
440
 16777216
100
AcDbLine
 10
-31979.05108310597
 20
30699.06514394771
 30
0.0
 11
-32144.74376515356
 21
30699.06514394771
 31
0.0
  0
SOLID
  5
115
330
10F
100
AcDbEntity
  8
标注
 62
     2
440
 16777216
370
   100
100
AcDbTrace
 10
-32479.05108310597
 20
30703.23181061438
 30
0.0
 11
-32479.05108310597
 21
30694.89847728104
 31
0.0
 12
-32504.05108310597
 22
30699.06514394771
 32
0.0
 13
-32504.05108310597
 23
30699.06514394771
 33
0.0
  0
SOLID
  5
116
330
10F
100
AcDbEntity
  8
标注
 62
     2
440
 16777216
370
   100
100
AcDbTrace
 10
-31979.05108310597
 20
30703.23181061438
 30
0.0
 11
-31979.05108310597
 21
30694.89847728104
 31
0.0
 12
-31954.05108310597
 22
30699.06514394771
 32
0.0
 13
-31954.05108310597
 23
30699.06514394771
 33
0.0
  0
MTEXT
  5
117
330
10F
100
AcDbEntity
  8
标注
 62
     2
440
 16777216
370
   100
100
AcDbMText
 10
-32229.05108310597
 20
30699.06514394771
 30
0.0
 40
25.0
 41
0.0
 46
0.0
 71
     5
 72
     1
  1
\A1;550.00 [21.65]
 73
     1
 44
1.0
  0
POINT
  5
118
330
10F
100
AcDbEntity
  8
Defpoints
 62
     0
440
 16777216
370
   100
100
AcDbPoint
 10
-32504.05108310597
 20
30793.09738048627
 30
0.0
  0
POINT
  5
119
330
10F
100
AcDbEntity
  8
Defpoints
 62
     0
440
 16777216
370
   100
100
AcDbPoint
 10
-31954.05108310597
 20
30793.09738048627
 30
0.0
  0
POINT
  5
11A
330
10F
100
AcDbEntity
  8
Defpoints
 62
     0
440
 16777216
370
   100
100
AcDbPoint
 10
-31954.05108310597
 20
30699.06514394771
 30
0.0
  0
ENDBLK
  5
11B
330
10F
100
AcDbEntity
  8
0
 62
     0
370
   100
100
AcDbBlockEnd
  0
BLOCK
  5
11E
330
11D
100
AcDbEntity
  8
0
 62
     0
370
   100
100
AcDbBlockBegin
  2
*D7
 70
     1
 10
0.0
 20
0.0
 30
0.0
  3
*D7
  1

  0
LINE
  5
11F
330
11D
100
AcDbEntity
  8
标注
 62
     2
440
 16777216
100
AcDbLine
 10
-31924.05108310597
 20
30791.09738048627
 30
0.0
 11
-31924.05108310597
 21
30696.88514394771
 31
0.0
  0
LINE
  5
120
330
11D
100
AcDbEntity
  8
标注
 62
     2
440
 16777216
100
AcDbLine
 10
-31744.05108310597
 20
30791.09738048627
 30
0.0
 11
-31744.05108310597
 21
30696.88514394771
 31
0.0
  0
LINE
  5
121
330
11D
100
AcDbEntity
  8
标注
 62
     2
440
 16777216
100
AcDbLine
 10
-31949.05108310597
 20
30697.06514394771
 30
0.0
 11
-31974.05108310597
 21
30697.06514394771
 31
0.0
  0
LINE
  5
122
330
11D
100
AcDbEntity
  8
标注
 62
     2
440
 16777216
100
AcDbLine
 10
-31719.05108310597
 20
30697.06514394771
 30
0.0
 11
-31694.05108310597
 21
30697.06514394771
 31
0.0
  0
SOLID
  5
123
330
11D
100
AcDbEntity
  8
标注
 62
     2
440
 16777216
370
   100
100
AcDbTrace
 10
-31949.05108310597
 20
30701.23181061438
 30
0.0
 11
-31949.05108310597
 21
30692.89847728104
 31
0.0
 12
-31924.05108310597
 22
30697.06514394771
 32
0.0
 13
-31924.05108310597
 23
30697.06514394771
 33
0.0
  0
SOLID
  5
124
330
11D
100
AcDbEntity
  8
标注
 62
     2
440
 16777216
370
   100
100
AcDbTrace
 10
-31719.05108310597
 20
30701.23181061438
 30
0.0
 11
-31719.05108310597
 21
30692.89847728104
 31
0.0
 12
-31744.05108310597
 22
30697.06514394771
 32
0.0
 13
-31744.05108310597
 23
30697.06514394771
 33
0.0
  0
MTEXT
  5
125
330
11D
100
AcDbEntity
  8
标注
 62
     2
440
 16777216
370
   100
100
AcDbMText
 10
-31834.05108310597
 20
30697.06514394771
 30
0.0
 40
25.0
 41
0.0
 46
0.0
 71
     5
 72
     1
  1
\A1;180.00 [7.09]
 73
     1
 44
1.0
  0
POINT
  5
126
330
11D
100
AcDbEntity
  8
Defpoints
 62
     0
440
 16777216
370
   100
100
AcDbPoint
 10
-31924.05108310597
 20
30793.09738048627
 30
0.0
  0
POINT
  5
127
330
11D
100
AcDbEntity
  8
Defpoints
 62
     0
440
 16777216
370
   100
100
AcDbPoint
 10
-31744.05108310597
 20
30793.09738048627
 30
0.0
  0
POINT
  5
128
330
11D
100
AcDbEntity
  8
Defpoints
 62
     0
440
 16777216
370
   100
100
AcDbPoint
 10
-31744.05108310597
 20
30697.06514394771
 30
0.0
  0
ENDBLK
  5
129
330
11D
100
AcDbEntity
  8
0
 62
     0
370
   100
100
AcDbBlockEnd
  0
BLOCK
  5
12C
330
12B
100
AcDbEntity
  8
0
 62
     0
370
   100
100
AcDbBlockBegin
  2
*D8
 70
     1
 10
0.0
 20
0.0
 30
0.0
  3
*D8
  1

  0
LINE
  5
12D
330
12B
100
AcDbEntity
  8
标注
 62
     2
440
 16777216
100
AcDbLine
 10
-32532.05108310597
 20
30777.54361230262
 30
0.0
 11
-32532.05108310597
 21
30637.05123565121
 31
0.0
  0
LINE
  5
12E
330
12B
100
AcDbEntity
  8
标注
 62
     2
440
 16777216
100
AcDbLine
 10
-31716.05108310597
 20
30773.09738048628
 30
0.0
 11
-31716.05108310597
 21
30637.05123565121
 31
0.0
  0
LINE
  5
12F
330
12B
100
AcDbEntity
  8
标注
 62
     2
440
 16777216
100
AcDbLine
 10
-32507.05108310597
 20
30637.23123565121
 30
0.0
 11
-32208.17563249314
 21
30637.23123565121
 31
0.0
  0
LINE
  5
130
330
12B
100
AcDbEntity
  8
标注
 62
     2
440
 16777216
100
AcDbLine
 10
-31741.05108310597
 20
30637.23123565121
 30
0.0
 11
-32039.9265337188
 21
30637.23123565121
 31
0.0
  0
SOLID
  5
131
330
12B
100
AcDbEntity
  8
标注
 62
     2
440
 16777216
370
   100
100
AcDbTrace
 10
-32507.05108310597
 20
30641.39790231788
 30
0.0
 11
-32507.05108310597
 21
30633.06456898454
 31
0.0
 12
-32532.05108310597
 22
30637.23123565121
 32
0.0
 13
-32532.05108310597
 23
30637.23123565121
 33
0.0
  0
SOLID
  5
132
330
12B
100
AcDbEntity
  8
标注
 62
     2
440
 16777216
370
   100
100
AcDbTrace
 10
-31741.05108310597
 20
30641.39790231788
 30
0.0
 11
-31741.05108310597
 21
30633.06456898454
 31
0.0
 12
-31716.05108310597
 22
30637.23123565121
 32
0.0
 13
-31716.05108310597
 23
30637.23123565121
 33
0.0
  0
MTEXT
  5
133
330
12B
100
AcDbEntity
  8
标注
 62
     2
440
 16777216
370
   100
100
AcDbMText
 10
-32124.05108310597
 20
30637.23123565121
 30
0.0
 40
25.0
 41
0.0
 46
0.0
 71
     5
 72
     1
  1
\A1;816.00 [32.13]
 73
     1
 44
1.0
  0
POINT
  5
134
330
12B
100
AcDbEntity
  8
Defpoints
 62
     0
440
 16777216
370
   100
100
AcDbPoint
 10
-32532.05108310597
 20
30779.54361230262
 30
0.0
  0
POINT
  5
135
330
12B
100
AcDbEntity
  8
Defpoints
 62
     0
440
 16777216
370
   100
100
AcDbPoint
 10
-31716.05108310597
 20
30775.09738048628
 30
0.0
  0
POINT
  5
136
330
12B
100
AcDbEntity
  8
Defpoints
 62
     0
440
 16777216
370
   100
100
AcDbPoint
 10
-31716.05108310597
 20
30637.23123565121
 30
0.0
  0
ENDBLK
  5
137
330
12B
100
AcDbEntity
  8
0
 62
     0
370
   100
100
AcDbBlockEnd
  0
BLOCK
  5
13C
330
13B
100
AcDbEntity
  8
0
 62
     0
370
   100
100
AcDbBlockBegin
  2
*D9
 70
     1
 10
0.0
 20
0.0
 30
0.0
  3
*D9
  1

  0
LINE
  5
13D
330
13B
100
AcDbEntity
  8
标注
 62
     2
440
 16777216
100
AcDbLine
 10
-31762.05108310597
 20
31175.09738048628
 30
0.0
 11
-31672.92180776825
 21
31175.09738048628
 31
0.0
  0
LINE
  5
13E
330
13B
100
AcDbEntity
  8
标注
 62
     2
440
 16777216
100
AcDbLine
 10
-31762.05108310597
 20
30775.09738048628
 30
0.0
 11
-31672.92180776825
 21
30775.09738048628
 31
0.0
  0
LINE
  5
13F
330
13B
100
AcDbEntity
  8
标注
 62
     2
440
 16777216
100
AcDbLine
 10
-31673.10180776826
 20
31150.09738048628
 30
0.0
 11
-31673.10180776826
 21
31059.86864941201
 31
0.0
  0
LINE
  5
140
330
13B
100
AcDbEntity
  8
标注
 62
     2
440
 16777216
100
AcDbLine
 10
-31673.10180776826
 20
30800.09738048627
 30
0.0
 11
-31673.10180776826
 21
30890.32611156054
 31
0.0
  0
SOLID
  5
141
330
13B
100
AcDbEntity
  8
标注
 62
     2
440
 16777216
370
   100
100
AcDbTrace
 10
-31677.26847443492
 20
31150.09738048628
 30
0.0
 11
-31668.93514110159
 21
31150.09738048628
 31
0.0
 12
-31673.10180776826
 22
31175.09738048628
 32
0.0
 13
-31673.10180776826
 23
31175.09738048628
 33
0.0
  0
SOLID
  5
142
330
13B
100
AcDbEntity
  8
标注
 62
     2
440
 16777216
370
   100
100
AcDbTrace
 10
-31677.26847443492
 20
30800.09738048627
 30
0.0
 11
-31668.93514110159
 21
30800.09738048627
 31
0.0
 12
-31673.10180776826
 22
30775.09738048628
 32
0.0
 13
-31673.10180776826
 23
30775.09738048628
 33
0.0
  0
MTEXT
  5
143
330
13B
100
AcDbEntity
  8
标注
 62
     2
440
 16777216
370
   100
100
AcDbMText
 10
-31673.10180776826
 20
30975.09738048627
 30
0.0
 40
25.0
 41
0.0
 46
0.0
 71
     5
 72
     1
  1
\A1;400.00 [15.75]
 11
0.0000000000000001
 21
1.0
 31
0.0
 73
     1
 44
1.0
  0
POINT
  5
144
330
13B
100
AcDbEntity
  8
Defpoints
 62
     0
440
 16777216
370
   100
100
AcDbPoint
 10
-31764.05108310597
 20
31175.09738048628
 30
0.0
  0
POINT
  5
145
330
13B
100
AcDbEntity
  8
Defpoints
 62
     0
440
 16777216
370
   100
100
AcDbPoint
 10
-31764.05108310597
 20
30775.09738048628
 30
0.0
  0
POINT
  5
146
330
13B
100
AcDbEntity
  8
Defpoints
 62
     0
440
 16777216
370
   100
100
AcDbPoint
 10
-31673.10180776826
 20
30775.09738048628
 30
0.0
  0
ENDBLK
  5
147
330
13B
100
AcDbEntity
  8
0
 62
     0
370
   100
100
AcDbBlockEnd
  0
BLOCK
  5
14C
330
14B
100
AcDbEntity
  8
0
 62
     0
370
   100
100
AcDbBlockBegin
  2
*D10
 70
     1
 10
0.0
 20
0.0
 30
0.0
  3
*D10
  1

  0
LINE
  5
14D
330
14B
100
AcDbEntity
  8
标注
 62
     2
440
 16777216
100
AcDbLine
 10
-31742.16883211206
 20
31203.09738048627
 30
0.0
 11
-31593.96742804075
 21
31203.09738048627
 31
0.0
  0
LINE
  5
14E
330
14B
100
AcDbEntity
  8
标注
 62
     2
440
 16777216
100
AcDbLine
 10
-31742.05108310597
 20
30747.21512949237
 30
0.0
 11
-31593.96742804075
 21
30747.21512949237
 31
0.0
  0
LINE
  5
14F
330
14B
100
AcDbEntity
  8
标注
 62
     2
440
 16777216
100
AcDbLine
 10
-31594.14742804075
 20
31178.09738048627
 30
0.0
 11
-31594.14742804075
 21
31059.92752391506
 31
0.0
  0
LINE
  5
150
330
14B
100
AcDbEntity
  8
标注
 62
     2
440
 16777216
100
AcDbLine
 10
-31594.14742804075
 20
30772.21512949237
 30
0.0
 11
-31594.14742804075
 21
30890.38498606358
 31
0.0
  0
SOLID
  5
151
330
14B
100
AcDbEntity
  8
标注
 62
     2
440
 16777216
370
   100
100
AcDbTrace
 10
-31598.31409470741
 20
31178.09738048627
 30
0.0
 11
-31589.98076137408
 21
31178.09738048627
 31
0.0
 12
-31594.14742804075
 22
31203.09738048627
 32
0.0
 13
-31594.14742804075
 23
31203.09738048627
 33
0.0
  0
SOLID
  5
152
330
14B
100
AcDbEntity
  8
标注
 62
     2
440
 16777216
370
   100
100
AcDbTrace
 10
-31598.31409470741
 20
30772.21512949237
 30
0.0
 11
-31589.98076137408
 21
30772.21512949237
 31
0.0
 12
-31594.14742804075
 22
30747.21512949237
 32
0.0
 13
-31594.14742804075
 23
30747.21512949237
 33
0.0
  0
MTEXT
  5
153
330
14B
100
AcDbEntity
  8
标注
 62
     2
440
 16777216
370
   100
100
AcDbMText
 10
-31594.14742804075
 20
30975.15625498932
 30
0.0
 40
25.0
 41
0.0
 46
0.0
 71
     5
 72
     1
  1
\A1;455.88 [17.95]
 11
0.0000000000000001
 21
1.0
 31
0.0
 73
     1
 44
1.0
  0
POINT
  5
154
330
14B
100
AcDbEntity
  8
Defpoints
 62
     0
440
 16777216
370
   100
100
AcDbPoint
 10
-31744.16883211207
 20
31203.09738048627
 30
0.0
  0
POINT
  5
155
330
14B
100
AcDbEntity
  8
Defpoints
 62
     0
440
 16777216
370
   100
100
AcDbPoint
 10
-31744.05108310597
 20
30747.21512949237
 30
0.0
  0
POINT
  5
156
330
14B
100
AcDbEntity
  8
Defpoints
 62
     0
440
 16777216
370
   100
100
AcDbPoint
 10
-31594.14742804075
 20
30747.21512949237
 30
0.0
  0
ENDBLK
  5
157
330
14B
100
AcDbEntity
  8
0
 62
     0
370
   100
100
AcDbBlockEnd
  0
BLOCK
  5
15C
330
15B
100
AcDbEntity
  8
0
 62
     0
370
   100
100
AcDbBlockBegin
  2
*D11
 70
     1
 10
0.0
 20
0.0
 30
0.0
  3
*D11
  1

  0
LINE
  5
15D
330
15B
100
AcDbEntity
  8
标注
 62
     2
440
 16777216
100
AcDbLine
 10
-32536.05108310597
 20
30515.29808714053
 30
0.0
 11
-32570.30212860522
 21
30515.29808714053
 31
0.0
  0
LINE
  5
15E
330
15B
100
AcDbEntity
  8
标注
 62
     2
440
 16777216
100
AcDbLine
 10
-32276.05108310597
 20
30312.29808714053
 30
0.0
 11
-32570.30212860522
 21
30312.29808714053
 31
0.0
  0
LINE
  5
15F
330
15B
100
AcDbEntity
  8
标注
 62
     2
440
 16777216
100
AcDbLine
 10
-32570.12212860522
 20
30540.29808714053
 30
0.0
 11
-32570.12212860522
 21
30565.29808714053
 31
0.0
  0
LINE
  5
160
330
15B
100
AcDbEntity
  8
标注
 62
     2
440
 16777216
100
AcDbLine
 10
-32570.12212860522
 20
30287.29808714053
 30
0.0
 11
-32570.12212860522
 21
30262.29808714053
 31
0.0
  0
SOLID
  5
161
330
15B
100
AcDbEntity
  8
标注
 62
     2
440
 16777216
370
   100
100
AcDbTrace
 10
-32574.28879527189
 20
30540.29808714053
 30
0.0
 11
-32565.95546193855
 21
30540.29808714053
 31
0.0
 12
-32570.12212860522
 22
30515.29808714053
 32
0.0
 13
-32570.12212860522
 23
30515.29808714053
 33
0.0
  0
SOLID
  5
162
330
15B
100
AcDbEntity
  8
标注
 62
     2
440
 16777216
370
   100
100
AcDbTrace
 10
-32574.28879527189
 20
30287.29808714053
 30
0.0
 11
-32565.95546193855
 21
30287.29808714053
 31
0.0
 12
-32570.12212860522
 22
30312.29808714053
 32
0.0
 13
-32570.12212860522
 23
30312.29808714053
 33
0.0
  0
MTEXT
  5
163
330
15B
100
AcDbEntity
  8
标注
 62
     2
440
 16777216
370
   100
100
AcDbMText
 10
-32570.12212860522
 20
30413.79808714053
 30
0.0
 40
25.0
 41
0.0
 46
0.0
 71
     5
 72
     1
  1
\A1;203.00 [7.99]
 11
0.0000000000000001
 21
1.0
 31
0.0
 73
     1
 44
1.0
  0
POINT
  5
164
330
15B
100
AcDbEntity
  8
Defpoints
 62
     0
440
 16777216
370
   100
100
AcDbPoint
 10
-32534.05108310597
 20
30515.29808714053
 30
0.0
  0
POINT
  5
165
330
15B
100
AcDbEntity
  8
Defpoints
 62
     0
440
 16777216
370
   100
100
AcDbPoint
 10
-32274.05108310597
 20
30312.29808714053
 30
0.0
  0
POINT
  5
166
330
15B
100
AcDbEntity
  8
Defpoints
 62
     0
440
 16777216
370
   100
100
AcDbPoint
 10
-32570.12212860522
 20
30312.29808714053
 30
0.0
  0
ENDBLK
  5
167
330
15B
100
AcDbEntity
  8
0
 62
     0
370
   100
100
AcDbBlockEnd
  0
BLOCK
  5
16C
330
16B
100
AcDbEntity
  8
0
 62
     0
370
   100
100
AcDbBlockBegin
  2
*D12
 70
     1
 10
0.0
 20
0.0
 30
0.0
  3
*D12
  1

  0
LINE
  5
16D
330
16B
100
AcDbEntity
  8
标注
 62
     2
440
 16777216
100
AcDbLine
 10
-31714.05108310597
 20
30515.29808714053
 30
0.0
 11
-31688.12715735894
 21
30515.29808714053
 31
0.0
  0
LINE
  5
16E
330
16B
100
AcDbEntity
  8
标注
 62
     2
440
 16777216
100
AcDbLine
 10
-31787.05108310597
 20
30335.29808714053
 30
0.0
 11
-31688.12715735894
 21
30335.29808714053
 31
0.0
  0
LINE
  5
16F
330
16B
100
AcDbEntity
  8
标注
 62
     2
440
 16777216
100
AcDbLine
 10
-31688.30715735893
 20
30540.29808714053
 30
0.0
 11
-31688.30715735893
 21
30565.29808714053
 31
0.0
  0
LINE
  5
170
330
16B
100
AcDbEntity
  8
标注
 62
     2
440
 16777216
100
AcDbLine
 10
-31688.30715735893
 20
30310.29808714053
 30
0.0
 11
-31688.30715735893
 21
30285.29808714053
 31
0.0
  0
SOLID
  5
171
330
16B
100
AcDbEntity
  8
标注
 62
     2
440
 16777216
370
   100
100
AcDbTrace
 10
-31692.4738240256
 20
30540.29808714053
 30
0.0
 11
-31684.14049069227
 21
30540.29808714053
 31
0.0
 12
-31688.30715735893
 22
30515.29808714053
 32
0.0
 13
-31688.30715735893
 23
30515.29808714053
 33
0.0
  0
SOLID
  5
172
330
16B
100
AcDbEntity
  8
标注
 62
     2
440
 16777216
370
   100
100
AcDbTrace
 10
-31692.4738240256
 20
30310.29808714053
 30
0.0
 11
-31684.14049069227
 21
30310.29808714053
 31
0.0
 12
-31688.30715735893
 22
30335.29808714053
 32
0.0
 13
-31688.30715735893
 23
30335.29808714053
 33
0.0
  0
MTEXT
  5
173
330
16B
100
AcDbEntity
  8
标注
 62
     2
440
 16777216
370
   100
100
AcDbMText
 10
-31688.30715735894
 20
30425.29808714053
 30
0.0
 40
25.0
 41
0.0
 46
0.0
 71
     5
 72
     1
  1
\A1;180.00 [7.09]
 11
0.0000000000000001
 21
1.0
 31
0.0
 73
     1
 44
1.0
  0
POINT
  5
174
330
16B
100
AcDbEntity
  8
Defpoints
 62
     0
440
 16777216
370
   100
100
AcDbPoint
 10
-31716.05108310597
 20
30515.29808714053
 30
0.0
  0
POINT
  5
175
330
16B
100
AcDbEntity
  8
Defpoints
 62
     0
440
 16777216
370
   100
100
AcDbPoint
 10
-31789.05108310597
 20
30335.29808714053
 30
0.0
  0
POINT
  5
176
330
16B
100
AcDbEntity
  8
Defpoints
 62
     0
440
 16777216
370
   100
100
AcDbPoint
 10
-31688.30715735893
 20
30335.29808714053
 30
0.0
  0
ENDBLK
  5
177
330
16B
100
AcDbEntity
  8
0
 62
     0
370
   100
100
AcDbBlockEnd
  0
ENDSEC
  0
SECTION
  2
ENTITIES
  0
HATCH
  5
6B
330
2
100
AcDbEntity
  8
0
 48
80.0
100
AcDbHatch
 10
0.0
 20
0.0
 30
0.0
210
0.0
220
0.0
230
1.0
  2
SOLID
 70
     1
 71
     0
 91
        1
 92
        7
 72
     1
 73
     1
 93
       10
 10
-34091.76012112291
 20
31043.31614092444
 42
0.0
 10
-34091.76012112291
 20
31028.31614092444
 42
0.0
 10
-34029.26012112291
 20
31028.31614092444
 42
0.0
 10
-34029.26012112291
 20
31003.31614092444
 42
0.4142135623731276
 10
-33994.26012112291
 20
30968.31614092443
 42
0.0
 10
-33939.26012112291
 20
30968.31614092443
 42
0.0
 10
-33939.26012112291
 20
30983.31614092443
 42
0.0
 10
-33994.26012112291
 20
30983.31614092443
 42
-0.4142135623730984
 10
-34014.26012112291
 20
31003.31614092444
 42
0.0
 10
-34014.26012112291
 20
31043.31614092444
 42
0.0
 97
        0
 75
     0
 76
     1
 47
0.4110268789155317
 98
        1
 10
-34032.98369884229
 20
31040.98601237539
450
        0
451
        0
460
0.0
461
0.0
452
        1
462
1.0
453
        2
463
0.0
 63
     5
421
      255
463
1.0
 63
     7
421
 16777215
470
LINEAR
1001
ACAD
1010
0.0
1020
0.0
1030
0.0
  0
LWPOLYLINE
  5
6C
330
2
100
AcDbEntity
  8
0
 48
80.0
100
AcDbPolyline
 90
        4
 70
     1
 43
0.0
 10
-34119.2601211229
 20
31120.81614092443
 10
-33939.26012112291
 20
31120.81614092443
 10
-33939.26012112291
 20
30940.81614092444
 10
-34119.2601211229
 20
30940.81614092444
  0
HATCH
  5
6D
330
2
100
AcDbEntity
  8
填充层
 48
80.0
100
AcDbHatch
 10
0.0
 20
0.0
 30
0.0
210
0.0
220
0.0
230
1.0
  2
ANSI31
 70
     0
 71
     0
 91
        1
 92
        7
 72
     0
 73
     1
 93
        4
 10
-34119.2601211229
 20
31120.81614092443
 10
-34119.2601211229
 20
31043.31614092444
 10
-34014.26012112291
 20
31043.31614092444
 10
-34014.26012112291
 20
31120.81614092443
 97
        0
 75
     0
 76
     1
 52
0.0
 41
4.0
 77
     0
 78
     1
 53
45.0
 43
-48094.11023319023
 44
25773.59569649659
 45
-8.980256121069151
 46
8.980256121069153
 79
     0
 47
0.760094809552713
 98
        1
 10
-34064.76840085353
 20
31100.12178838119
1001
ACAD
1010
0.0
1020
0.0
1030
0.0
  0
LWPOLYLINE
  5
71
330
2
100
AcDbEntity
  8
0
 48
80.0
100
AcDbPolyline
 90
        4
 70
     1
 43
0.0
 10
-34014.26012112291
 20
31043.31614092444
 10
-34119.2601211229
 20
31043.31614092444
 10
-34119.2601211229
 20
31120.81614092443
 10
-34014.26012112291
 20
31120.81614092443
  0
LWPOLYLINE
  5
72
330
2
100
AcDbEntity
  8
0
 48
80.0
100
AcDbPolyline
 90
        5
 70
     0
 43
0.0
 10
-33939.26012112291
 20
30983.31614092443
 10
-33994.26012112291
 20
30983.31614092443
 42
-0.4142135623731251
 10
-34014.26012112291
 20
31003.31614092444
 10
-34014.26012112291
 20
31043.31614092444
 10
-34091.76012112291
 20
31043.31614092444
  0
LWPOLYLINE
  5
73
330
2
100
AcDbEntity
  8
0
 48
80.0
100
AcDbPolyline
 90
        5
 70
     0
 43
0.0
 10
-33939.26012112291
 20
30968.31614092443
 10
-33994.26012112291
 20
30968.31614092443
 42
-0.4142135623731275
 10
-34029.26012112291
 20
31003.31614092444
 10
-34029.26012112291
 20
31028.31614092444
 10
-34091.76012112291
 20
31028.31614092444
  0
LINE
  5
74
330
2
100
AcDbEntity
  8
0
 48
80.0
100
AcDbLine
 10
-34091.76012112291
 20
31028.31614092444
 30
0.0
 11
-34091.76012112291
 21
31043.31614092444
 31
0.0
  0
LWPOLYLINE
  5
75
330
2
100
AcDbEntity
  8
0
 48
80.0
100
AcDbPolyline
 90
        4
 70
     1
 43
0.0
 10
-34119.2601211229
 20
30540.81614092444
 10
-33939.26012112291
 20
30540.81614092444
 10
-33939.26012112291
 20
30360.81614092444
 10
-34119.2601211229
 20
30360.81614092444
  0
HATCH
  5
76
330
2
100
AcDbEntity
  8
填充层
 48
80.0
100
AcDbHatch
 10
0.0
 20
0.0
 30
0.0
210
0.0
220
0.0
230
1.0
  2
ANSI31
 70
     0
 71
     0
 91
        1
 92
        7
 72
     0
 73
     1
 93
        4
 10
-34119.2601211229
 20
30540.81614092444
 10
-34119.2601211229
 20
30463.31614092443
 10
-34014.26012112291
 20
30463.31614092443
 10
-34014.26012112291
 20
30540.81614092444
 97
        0
 75
     0
 76
     1
 52
0.0
 41
4.0
 77
     0
 78
     1
 53
45.0
 43
-48094.11023319023
 44
25193.59569649659
 45
-8.980256121069151
 46
8.980256121069153
 79
     0
 47
0.760094809552713
 98
        1
 10
-34064.76840085353
 20
30520.12178838119
1001
ACAD
1010
0.0
1020
0.0
1030
0.0
  0
LWPOLYLINE
  5
77
330
2
100
AcDbEntity
  8
0
 48
80.0
100
AcDbPolyline
 90
        4
 70
     1
 43
0.0
 10
-34014.26012112291
 20
30463.31614092443
 10
-34119.2601211229
 20
30463.31614092443
 10
-34119.2601211229
 20
30540.81614092444
 10
-34014.26012112291
 20
30540.81614092444
  0
LWPOLYLINE
  5
78
330
2
100
AcDbEntity
  8
0
 48
80.0
100
AcDbPolyline
 90
        5
 70
     0
 43
0.0
 10
-33939.26012112291
 20
30403.31614092444
 10
-33979.26012112291
 20
30403.31614092444
 42
-0.4142135623731251
 10
-33999.2601211229
 20
30423.31614092443
 10
-33999.2601211229
 20
30463.31614092443
 10
-34076.76012112291
 20
30463.31614092443
  0
LWPOLYLINE
  5
79
330
2
100
AcDbEntity
  8
0
 48
80.0
100
AcDbPolyline
 90
        5
 70
     0
 43
0.0
 10
-33939.26012112291
 20
30388.31614092444
 10
-33979.26012112291
 20
30388.31614092444
 42
-0.4142135623731275
 10
-34014.26012112291
 20
30423.31614092443
 10
-34014.26012112291
 20
30448.31614092444
 10
-34076.76012112291
 20
30448.31614092444
  0
LINE
  5
7A
330
2
100
AcDbEntity
  8
0
 48
80.0
100
AcDbLine
 10
-34076.76012112291
 20
30448.31614092444
 30
0.0
 11
-34076.76012112291
 21
30463.31614092443
 31
0.0
  0
LWPOLYLINE
  5
7B
330
2
100
AcDbEntity
  8
0
100
AcDbPolyline
 90
        8
 70
     1
 43
0.0
 10
-32504.05108310597
 20
30795.09738048627
 42
0.4142135623730951
 10
-32484.05108310597
 20
30775.09738048628
 10
-31974.05108310597
 20
30775.09738048628
 42
0.4142135623730951
 10
-31954.05108310597
 20
30795.09738048627
 10
-31954.05108310597
 20
31155.09738048627
 42
0.4142135623730951
 10
-31974.05108310597
 20
31175.09738048628
 10
-32484.05108310597
 20
31175.09738048628
 42
0.4142135623730951
 10
-32504.05108310597
 20
31155.09738048627
  0
LWPOLYLINE
  5
7C
102
{ACAD_REACTORS
330
13A
102
}
330
2
100
AcDbEntity
  8
0
100
AcDbPolyline
 90
        8
 70
     1
 43
0.0
 10
-31924.05108310597
 20
30795.09738048627
 42
0.4142135623730951
 10
-31904.05108310597
 20
30775.09738048628
 10
-31764.05108310597
 20
30775.09738048628
 42
0.4142135623730951
 10
-31744.05108310597
 20
30795.09738048627
 10
-31744.05108310597
 20
31155.09738048627
 42
0.4142135623730951
 10
-31764.05108310597
 20
31175.09738048628
 10
-31904.05108310597
 20
31175.09738048628
 42
0.4142135623730951
 10
-31924.05108310597
 20
31155.09738048627
  0
LWPOLYLINE
  5
7D
330
2
100
AcDbEntity
  8
0
100
AcDbPolyline
 90
        2
 70
     0
 43
0.0
 10
-32532.05108310597
 20
31174.97963148018
 10
-32532.05108310597
 20
30775.21512949237
  0
LWPOLYLINE
  5
7E
330
2
100
AcDbEntity
  8
0
100
AcDbPolyline
 90
        2
 70
     0
 43
0.0
 10
-32503.93333409987
 20
30747.09738048627
 10
-31744.16883211207
 20
30747.09738048627
  0
LWPOLYLINE
  5
7F
330
2
100
AcDbEntity
  8
0
100
AcDbPolyline
 90
        2
 70
     0
 43
0.0
 10
-31716.05108310597
 20
30775.21512949237
 10
-31716.05108310597
 20
31174.97963148018
  0
LWPOLYLINE
  5
80
330
2
100
AcDbEntity
  8
0
100
AcDbPolyline
 90
        2
 70
     0
 43
0.0
 10
-31744.16883211207
 20
31203.09738048627
 10
-32503.93333409987
 20
31203.09738048627
  0
LINE
  5
81
330
2
100
AcDbEntity
  8
0
100
AcDbLine
 10
-32532.05108310597
 20
31174.97963148018
 30
0.0
 11
-32503.93333409987
 21
31203.09738048627
 31
0.0
  0
LINE
  5
82
330
2
100
AcDbEntity
  8
0
100
AcDbLine
 10
-32532.05108310597
 20
30775.21512949237
 30
0.0
 11
-32503.93333409987
 21
30747.09738048627
 31
0.0
  0
LINE
  5
83
102
{ACAD_REACTORS
330
14A
102
}
330
2
100
AcDbEntity
  8
0
100
AcDbLine
 10
-31716.05108310597
 20
31174.97963148018
 30
0.0
 11
-31744.16883211207
 21
31203.09738048627
 31
0.0
  0
LINE
  5
84
330
2
100
AcDbEntity
  8
0
100
AcDbLine
 10
-31716.05108310597
 20
30775.21512949237
 30
0.0
 11
-31744.16883211207
 21
30747.09738048627
 31
0.0
  0
CIRCLE
  5
85
330
2
100
AcDbEntity
  8
0
100
AcDbCircle
 10
-32229.05108310597
 20
31025.09738048627
 30
0.0
 40
45.0
  0
CIRCLE
  5
86
330
2
100
AcDbEntity
  8
0
100
AcDbCircle
 10
-32229.05108310597
 20
31025.09738048627
 30
0.0
 40
50.0
  0
CIRCLE
  5
87
330
2
100
AcDbEntity
  8
0
100
AcDbCircle
 10
-31834.05108310597
 20
31025.09738048627
 30
0.0
 40
45.0
  0
CIRCLE
  5
88
330
2
100
AcDbEntity
  8
0
100
AcDbCircle
 10
-31834.05108310597
 20
31025.09738048627
 30
0.0
 40
50.0
  0
LINE
  5
89
330
2
100
AcDbEntity
  8
0
100
AcDbLine
 10
-32484.05108310597
 20
31155.09738048627
 30
0.0
 11
-32273.59639045108
 21
31047.80675285828
 31
0.0
  0
LINE
  5
8A
330
2
100
AcDbEntity
  8
0
100
AcDbLine
 10
-32184.50577576088
 20
31047.80675285828
 30
0.0
 11
-31974.05108310597
 21
31155.09738048627
 31
0.0
  0
LINE
  5
8B
330
2
100
AcDbEntity
  8
0
100
AcDbLine
 10
-31974.05108310597
 20
30795.09738048628
 30
0.0
 11
-32191.92259692755
 21
30991.6089419724
 31
0.0
  0
LINE
  5
8C
330
2
100
AcDbEntity
  8
0
100
AcDbLine
 10
-32266.17956928441
 20
30991.6089419724
 30
0.0
 11
-32484.05108310597
 21
30795.09738048628
 31
0.0
  0
LINE
  5
8D
330
2
100
AcDbEntity
  8
0
100
AcDbLine
 10
-31764.05108310597
 20
31155.09738048627
 30
0.0
 11
-31810.34609195422
 21
31069.12093548238
 31
0.0
  0
LINE
  5
8E
330
2
100
AcDbEntity
  8
0
100
AcDbLine
 10
-31857.75607425772
 20
31069.12093548238
 30
0.0
 11
-31904.05108310597
 21
31155.09738048627
 31
0.0
  0
LINE
  5
8F
330
2
100
AcDbEntity
  8
0
100
AcDbLine
 10
-31904.05108310597
 20
30795.09738048628
 30
0.0
 11
-31848.60916389511
 21
30977.26368646483
 31
0.0
  0
LINE
  5
90
330
2
100
AcDbEntity
  8
0
100
AcDbLine
 10
-31819.49300231683
 20
30977.26368646483
 30
0.0
 11
-31764.05108310597
 21
30795.09738048628
 31
0.0
  0
LINE
  5
91
102
{ACAD_REACTORS
330
16A
102
}
330
2
100
AcDbEntity
  8
0
100
AcDbLine
 10
-32532.05108310597
 20
30515.29808714053
 30
0.0
 11
-31716.05108310597
 21
30515.29808714053
 31
0.0
  0
LINE
  5
92
330
2
100
AcDbEntity
  8
0
100
AcDbLine
 10
-31884.05108310597
 20
30340.29808714053
 30
0.0
 11
-31784.05108310597
 21
30340.29808714053
 31
0.0
  0
LINE
  5
93
330
2
100
AcDbEntity
  8
0
100
AcDbLine
 10
-32279.05108310597
 20
30317.29808714053
 30
0.0
 11
-32179.05108310597
 21
30317.29808714053
 31
0.0
  0
LINE
  5
94
330
2
100
AcDbEntity
  8
0
100
AcDbLine
 10
-32504.09195504058
 20
30515.29808714053
 30
0.0
 11
-32499.55762710232
 21
30345.88825180659
 31
0.0
  0
ARC
  5
95
330
2
100
AcDbEntity
  8
0
100
AcDbCircle
 10
-32479.5650474819
 20
30346.43300874448
 30
0.0
 40
20.0
100
AcDbArc
 50
181.5608067044856
 51
267.3974377976134
  0
LINE
  5
96
330
2
100
AcDbEntity
  8
0
100
AcDbLine
 10
-32480.47320070028
 20
30326.45363794027
 30
0.0
 11
-32279.05108310597
 21
30317.29808714053
 31
0.0
  0
LINE
  5
97
330
2
100
AcDbEntity
  8
0
100
AcDbLine
 10
-32279.05108310597
 20
30317.29808714053
 30
0.0
 11
-32274.05108310597
 21
30312.29808714053
 31
0.0
  0
LINE
  5
98
102
{ACAD_REACTORS
330
15A
102
}
330
2
100
AcDbEntity
  8
0
100
AcDbLine
 10
-32274.05108310597
 20
30312.29808714053
 30
0.0
 11
-32184.05108310597
 21
30312.29808714053
 31
0.0
  0
LINE
  5
99
330
2
100
AcDbEntity
  8
0
100
AcDbLine
 10
-32184.05108310597
 20
30312.29808714053
 30
0.0
 11
-32179.05108310597
 21
30317.29808714053
 31
0.0
  0
LINE
  5
9A
330
2
100
AcDbEntity
  8
0
100
AcDbLine
 10
-32179.05108310597
 20
30317.29808714053
 30
0.0
 11
-31977.62896551166
 21
30326.45363794027
 31
0.0
  0
LINE
  5
9B
330
2
100
AcDbEntity
  8
0
100
AcDbLine
 10
-31958.54453910962
 20
30345.88825180659
 30
0.0
 11
-31954.01021117137
 21
30515.29808714053
 31
0.0
  0
ARC
  5
9C
330
2
100
AcDbEntity
  8
0
100
AcDbCircle
 10
-31978.53711873004
 20
30346.43300874448
 30
0.0
 40
20.0
100
AcDbArc
 50
272.6025622023866
 51
358.4391932955144
  0
LINE
  5
9D
330
2
100
AcDbEntity
  8
0
100
AcDbLine
 10
-31924.09695466559
 20
30515.29808714053
 30
0.0
 11
-31919.49771837995
 21
30364.90306059953
 31
0.0
  0
ARC
  5
9E
330
2
100
AcDbEntity
  8
0
100
AcDbCircle
 10
-31899.50706382549
 20
30365.5143956012
 30
0.0
 40
20.0
100
AcDbArc
 50
181.7516186093141
 51
254.0546040990214
  0
LINE
  5
9F
330
2
100
AcDbEntity
  8
0
100
AcDbLine
 10
-31905.00148638344
 20
30346.28391664838
 30
0.0
 11
-31884.05108310597
 21
30340.29808714053
 31
0.0
  0
LINE
  5
A0
330
2
100
AcDbEntity
  8
0
100
AcDbLine
 10
-31884.05108310597
 20
30340.29808714053
 30
0.0
 11
-31879.05108310597
 21
30335.29808714053
 31
0.0
  0
LINE
  5
A1
330
2
100
AcDbEntity
  8
0
100
AcDbLine
 10
-31879.05108310597
 20
30335.29808714053
 30
0.0
 11
-31789.05108310597
 21
30335.29808714053
 31
0.0
  0
LINE
  5
A2
102
{ACAD_REACTORS
330
16A
102
}
330
2
100
AcDbEntity
  8
0
100
AcDbLine
 10
-31789.05108310597
 20
30335.29808714053
 30
0.0
 11
-31784.05108310597
 21
30340.29808714053
 31
0.0
  0
LINE
  5
A3
330
2
100
AcDbEntity
  8
0
100
AcDbLine
 10
-31784.05108310597
 20
30340.29808714053
 30
0.0
 11
-31763.10067982851
 21
30346.28391664838
 31
0.0
  0
ARC
  5
A4
330
2
100
AcDbEntity
  8
0
100
AcDbCircle
 10
-31768.59510238647
 20
30365.5143956012
 30
0.0
 40
20.0
100
AcDbArc
 50
285.9453959009785
 51
358.2483813906858
  0
LINE
  5
A5
330
2
100
AcDbEntity
  8
0
100
AcDbLine
 10
-31748.604447832
 20
30364.90306059953
 30
0.0
 11
-31744.00521154633
 21
30515.29808714053
 31
0.0
  0
LINE
  5
A6
102
{ACAD_REACTORS
330
E0
102
}
330
2
100
AcDbEntity
  8
0
100
AcDbLine
 10
-33472.7339087953
 20
31239.04868221175
 30
0.0
 11
-32752.73390879529
 21
31239.04868221175
 31
0.0
  0
ARC
  5
A7
102
{ACAD_REACTORS
330
B8
102
}
330
2
100
AcDbEntity
  8
0
100
AcDbCircle
 10
-33472.7339087953
 20
31219.04868221176
 30
0.0
 40
20.0
100
AcDbArc
 50
90.00000000000028
 51
180.0
  0
LINE
  5
A8
330
2
100
AcDbEntity
  8
0
100
AcDbLine
 10
-32732.73390879529
 20
31219.04868221175
 30
0.0
 11
-32732.73390879529
 21
30859.04868221176
 31
0.0
  0
ARC
  5
A9
102
{ACAD_REACTORS
330
E0
102
}
330
2
100
AcDbEntity
  8
0
100
AcDbCircle
 10
-32752.73390879529
 20
31219.04868221175
 30
0.0
 40
20.0
100
AcDbArc
 50
359.9999999999988
 51
90.0
  0
LINE
  5
AA
330
2
100
AcDbEntity
  8
0
100
AcDbLine
 10
-32752.73390879529
 20
30839.04868221175
 30
0.0
 11
-33472.73390879529
 21
30839.04868221175
 31
0.0
  0
ARC
  5
AB
330
2
100
AcDbEntity
  8
0
100
AcDbCircle
 10
-33472.73390879529
 20
30859.04868221176
 30
0.0
 40
20.0
100
AcDbArc
 50
180.0000000000011
 51
270.0
  0
ARC
  5
AC
102
{ACAD_REACTORS
330
D0
330
E0
102
}
330
2
100
AcDbEntity
  8
0
100
AcDbCircle
 10
-32752.73390879529
 20
30859.04868221176
 30
0.0
 40
20.0
100
AcDbArc
 50
270.0000000000003
 51
359.9999999999994
  0
LINE
  5
AD
102
{ACAD_REACTORS
330
D0
102
}
330
2
100
AcDbEntity
  8
0
100
AcDbLine
 10
-33492.73390879529
 20
30859.04868221176
 30
0.0
 11
-33492.73390879529
 21
31219.04868221176
 31
0.0
  0
LINE
  5
AE
330
2
100
AcDbEntity
  8
0
100
AcDbLine
 10
-33472.73390879529
 20
30666.87808773899
 30
0.0
 11
-32752.73390879528
 21
30666.87808773899
 31
0.0
  0
ARC
  5
AF
102
{ACAD_REACTORS
330
C5
102
}
330
2
100
AcDbEntity
  8
0
100
AcDbCircle
 10
-33472.73390879529
 20
30643.87808773899
 30
0.0
 40
23.0
100
AcDbArc
 50
90.0000000000003
 51
180.0
  0
LINE
  5
B0
330
2
100
AcDbEntity
  8
0
100
AcDbLine
 10
-32729.73390879528
 20
30643.87808773899
 30
0.0
 11
-32729.7339087953
 21
30283.87808773899
 31
0.0
  0
ARC
  5
B1
102
{ACAD_REACTORS
330
100
102
}
330
2
100
AcDbEntity
  8
0
100
AcDbCircle
 10
-32752.73390879528
 20
30643.87808773899
 30
0.0
 40
23.0
100
AcDbArc
 50
359.9999999999988
 51
90.00000000000062
  0
LINE
  5
B2
330
2
100
AcDbEntity
  8
0
100
AcDbLine
 10
-32752.7339087953
 20
30260.87808773899
 30
0.0
 11
-33472.73390879529
 21
30260.87808773899
 31
0.0
  0
ARC
  5
B3
102
{ACAD_REACTORS
330
F0
330
100
102
}
330
2
100
AcDbEntity
  8
0
100
AcDbCircle
 10
-32752.7339087953
 20
30283.87808773899
 30
0.0
 40
23.0
100
AcDbArc
 50
270.0
 51
359.9999999999983
  0
ARC
  5
B4
330
2
100
AcDbEntity
  8
0
100
AcDbCircle
 10
-33472.73390879529
 20
30283.878087739
 30
0.0
 40
23.0
100
AcDbArc
 50
180.0
 51
270.0
  0
LINE
  5
B5
102
{ACAD_REACTORS
330
F0
102
}
330
2
100
AcDbEntity
  8
0
100
AcDbLine
 10
-33495.73390879529
 20
30283.878087739
 30
0.0
 11
-33495.73390879529
 21
30643.87808773899
 31
0.0
  0
DIMENSION
  5
B6
102
{ACAD_XDICTIONARY
360
B7
102
}
102
{ACAD_REACTORS
330
B8
102
}
330
2
100
AcDbEntity
  8
标注
 62
     0
370
   100
100
AcDbDimension
280
     0
  2
*D0
 10
-33472.73390879529
 20
31219.04868221173
 30
0.0
 11
-33409.94462776435
 21
31117.30529392408
 31
0.0
 70
   132
 71
     5
 42
20.00000000002911
 73
     0
 74
     0
 75
     0
  3
Standard
100
AcDbRadialDimension
 15
-33483.23744201988
 25
31236.06854677643
 35
0.0
 40
0.0
1001
ACAD
1000
DSTYLE
1002
{
1070
   288
1070
     1
1002
}
1001
ACAD_DSTYLE_DIMRADIAL_EXTENSION
1070
   387
1070
     1
1070
   388
1040
1.570796326794901
1070
   390
1040
3.141592653589793
  0
DIMENSION
  5
C3
102
{ACAD_XDICTIONARY
360
C4
102
}
102
{ACAD_REACTORS
330
C5
102
}
330
2
100
AcDbEntity
  8
标注
 62
     0
370
   100
100
AcDbDimension
280
     0
  2
*D1
 10
-33472.73390879529
 20
30643.87808773898
 30
0.0
 11
-33395.65419350001
 21
30556.44481051515
 31
0.0
 70
   132
 71
     5
 42
23.00000000000728
 73
     0
 74
     0
 75
     0
  3
Standard
100
AcDbRadialDimension
 15
-33487.94373889388
 25
30661.13094455668
 35
0.0
 40
0.0
1001
ACAD
1000
DSTYLE
1002
{
1070
   288
1070
     1
1002
}
1001
ACAD_DSTYLE_DIMRADIAL_EXTENSION
1070
   387
1070
     1
1070
   388
1040
1.570796326794901
1070
   390
1040
3.141592653589793
  0
DIMENSION
  5
CE
102
{ACAD_XDICTIONARY
360
CF
102
}
102
{ACAD_REACTORS
330
D0
102
}
330
2
100
AcDbEntity
  8
标注
 62
     0
370
   100
100
AcDbDimension
280
     0
  2
*D2
 10
-32732.73390879529
 20
30789.64501733674
 30
0.0
 11
-33112.73390879529
 21
30789.64501733674
 31
0.0
 71
     5
 42
759.9999999999927
 73
     0
 74
     0
 75
     0
  3
Standard
100
AcDbAlignedDimension
 13
-33492.73390879529
 23
30859.04868221176
 33
0.0
 14
-32732.73390879529
 24
30859.04868221176
 34
0.0
100
AcDbRotatedDimension
  0
DIMENSION
  5
DE
102
{ACAD_XDICTIONARY
360
DF
102
}
102
{ACAD_REACTORS
330
E0
102
}
330
2
100
AcDbEntity
  8
标注
 62
     0
370
   100
100
AcDbDimension
280
     0
  2
*D3
 10
-32678.36759840549
 20
31239.04868221174
 30
0.0
 11
-32678.36759840549
 21
31039.04868221174
 31
0.0
 71
     5
 42
399.9999999999927
 73
     0
 74
     0
 75
     0
  3
Standard
100
AcDbAlignedDimension
 13
-32752.73390879529
 23
30839.04868221175
 33
0.0
 14
-32752.73390879529
 24
31239.04868221174
 34
0.0
 50
90.0
100
AcDbRotatedDimension
  0
DIMENSION
  5
EE
102
{ACAD_XDICTIONARY
360
EF
102
}
102
{ACAD_REACTORS
330
F0
102
}
330
2
100
AcDbEntity
  8
标注
 62
     0
370
   100
100
AcDbDimension
280
     0
  2
*D4
 10
-32729.7339087953
 20
30214.57139094968
 30
0.0
 11
-33112.73390879529
 21
30214.57139094968
 31
0.0
 71
     5
 42
765.999999999989
 73
     0
 74
     0
 75
     0
  3
Standard
100
AcDbAlignedDimension
 13
-33495.73390879529
 23
30283.878087739
 33
0.0
 14
-32729.7339087953
 24
30283.87808773899
 34
0.0
100
AcDbRotatedDimension
  0
DIMENSION
  5
FE
102
{ACAD_XDICTIONARY
360
FF
102
}
102
{ACAD_REACTORS
330
100
102
}
330
2
100
AcDbEntity
  8
标注
 62
     0
370
   100
100
AcDbDimension
280
     0
  2
*D5
 10
-32679.1847599788
 20
30260.87808773899
 30
0.0
 11
-32679.1847599788
 21
30463.87808773899
 31
0.0
 71
     5
 42
406.0
 73
     0
 74
     0
 75
     0
  3
Standard
100
AcDbAlignedDimension
 13
-32752.73390879528
 23
30666.87808773899
 33
0.0
 14
-32752.7339087953
 24
30260.87808773899
 34
0.0
 50
90.0
100
AcDbRotatedDimension
  0
DIMENSION
  5
10E
330
2
100
AcDbEntity
  8
标注
 62
     0
370
   100
100
AcDbDimension
280
     0
  2
*D6
 10
-31954.05108310597
 20
30699.06514394771
 30
0.0
 11
-32229.05108310597
 21
30699.06514394771
 31
0.0
 71
     5
 42
550.0
 73
     0
 74
     0
 75
     0
  3
Standard
100
AcDbAlignedDimension
 13
-32504.05108310597
 23
30793.09738048627
 33
0.0
 14
-31954.05108310597
 24
30793.09738048627
 34
0.0
100
AcDbRotatedDimension
  0
DIMENSION
  5
11C
330
2
100
AcDbEntity
  8
标注
 62
     0
370
   100
100
AcDbDimension
280
     0
  2
*D7
 10
-31744.05108310597
 20
30697.06514394771
 30
0.0
 11
-31834.05108310597
 21
30697.06514394771
 31
0.0
 71
     5
 42
180.0
 73
     0
 74
     0
 75
     0
  3
Standard
100
AcDbAlignedDimension
 13
-31924.05108310597
 23
30793.09738048627
 33
0.0
 14
-31744.05108310597
 24
30793.09738048627
 34
0.0
100
AcDbRotatedDimension
  0
DIMENSION
  5
12A
330
2
100
AcDbEntity
  8
标注
 62
     0
370
   100
100
AcDbDimension
280
     0
  2
*D8
 10
-31716.05108310597
 20
30637.23123565121
 30
0.0
 11
-32124.05108310597
 21
30637.23123565121
 31
0.0
 71
     5
 42
816.0
 73
     0
 74
     0
 75
     0
  3
Standard
100
AcDbAlignedDimension
 13
-32532.05108310597
 23
30779.54361230262
 33
0.0
 14
-31716.05108310597
 24
30775.09738048628
 34
0.0
100
AcDbRotatedDimension
  0
DIMENSION
  5
138
102
{ACAD_XDICTIONARY
360
139
102
}
102
{ACAD_REACTORS
330
13A
102
}
330
2
100
AcDbEntity
  8
标注
 62
     0
370
   100
100
AcDbDimension
280
     0
  2
*D9
 10
-31673.10180776826
 20
30775.09738048628
 30
0.0
 11
-31673.10180776826
 21
30975.09738048627
 31
0.0
 71
     5
 42
400.0
 73
     0
 74
     0
 75
     0
  3
Standard
100
AcDbAlignedDimension
 13
-31764.05108310597
 23
31175.09738048628
 33
0.0
 14
-31764.05108310597
 24
30775.09738048628
 34
0.0
 50
90.0
100
AcDbRotatedDimension
  0
DIMENSION
  5
148
102
{ACAD_XDICTIONARY
360
149
102
}
102
{ACAD_REACTORS
330
14A
102
}
330
2
100
AcDbEntity
  8
标注
 62
     0
370
   100
100
AcDbDimension
280
     0
  2
*D10
 10
-31594.14742804075
 20
30747.21512949237
 30
0.0
 11
-31594.14742804075
 21
30975.15625498932
 31
0.0
 71
     5
 42
455.8822509939054
 73
     0
 74
     0
 75
     0
  3
Standard
100
AcDbAlignedDimension
 13
-31744.16883211207
 23
31203.09738048627
 33
0.0
 14
-31744.05108310597
 24
30747.21512949237
 34
0.0
 50
90.0
100
AcDbRotatedDimension
  0
DIMENSION
  5
158
102
{ACAD_XDICTIONARY
360
159
102
}
102
{ACAD_REACTORS
330
15A
102
}
330
2
100
AcDbEntity
  8
标注
 62
     0
370
   100
100
AcDbDimension
280
     0
  2
*D11
 10
-32570.12212860522
 20
30312.29808714053
 30
0.0
 11
-32570.12212860522
 21
30413.79808714053
 31
0.0
 71
     5
 42
203.0
 73
     0
 74
     0
 75
     0
  3
Standard
100
AcDbAlignedDimension
 13
-32534.05108310597
 23
30515.29808714053
 33
0.0
 14
-32274.05108310597
 24
30312.29808714053
 34
0.0
 50
90.0
100
AcDbRotatedDimension
  0
DIMENSION
  5
168
102
{ACAD_XDICTIONARY
360
169
102
}
102
{ACAD_REACTORS
330
16A
102
}
330
2
100
AcDbEntity
  8
标注
 62
     0
370
   100
100
AcDbDimension
280
     0
  2
*D12
 10
-31688.30715735893
 20
30335.29808714053
 30
0.0
 11
-31688.30715735894
 21
30425.29808714053
 31
0.0
 71
     5
 42
180.0
 73
     0
 74
     0
 75
     0
  3
Standard
100
AcDbAlignedDimension
 13
-31716.05108310597
 23
30515.29808714053
 33
0.0
 14
-31789.05108310597
 24
30335.29808714053
 34
0.0
 50
90.0
100
AcDbRotatedDimension
  0
ENDSEC
  0
SECTION
  2
OBJECTS
  0
DICTIONARY
  5
B
330
0
100
AcDbDictionary
281
     1
  3
ACAD_COLOR
350
3C
  3
ACAD_GROUP
350
37
  3
ACAD_LAYOUT
350
11
  3
ACAD_MATERIAL
350
D
  3
ACAD_MLEADERSTYLE
350
3F
  3
ACAD_MLINESTYLE
350
38
  3
ACAD_PLOTSETTINGS
350
39
  3
ACAD_PLOTSTYLENAME
350
A
  3
ACAD_SCALELIST
350
3D
  3
ACAD_TABLESTYLE
350
3E
  3
ACAD_VISUALSTYLE
350
2A
  3
ACDB_RECOMPOSE_DATA
350
185
  3
AcDbVariableDictionary
350
17A
  0
DICTIONARY
  5
2C
330
27
100
AcDbDictionary
280
     1
281
     1
  0
DICTIONARY
  5
1A
330
19
100
AcDbDictionary
280
     1
281
     1
  3
ACAD_LAYERFILTERS
360
1B
  3
ACAD_LAYERSTATES
360
1C
  3
ACLYDICTIONARY
360
1D
  0
DICTIONARY
  5
7
330
6
100
AcDbDictionary
280
     1
281
     1
  3
ADSK_XREC_LAYER_RECONCILED
360
8
  0
DICTIONARY
  5
41
330
40
100
AcDbDictionary
280
     1
281
     1
  3
ADSK_XREC_LAYER_RECONCILED
360
42
  0
DICTIONARY
  5
6F
330
6E
100
AcDbDictionary
280
     1
281
     1
  3
ADSK_XREC_LAYER_RECONCILED
360
70
  0
DICTIONARY
  5
3
330
2
100
AcDbDictionary
280
     1
281
     1
  3
ACAD_SORTENTS
360
178
  0
DICTIONARY
  5
B7
330
B6
100
AcDbDictionary
280
     1
281
     1
  3
ACAD_DIMASSOC
360
B8
  0
DICTIONARY
  5
C4
330
C3
100
AcDbDictionary
280
     1
281
     1
  3
ACAD_DIMASSOC
360
C5
  0
DICTIONARY
  5
CF
330
CE
100
AcDbDictionary
280
     1
281
     1
  3
ACAD_DIMASSOC
360
D0
  0
DICTIONARY
  5
DF
330
DE
100
AcDbDictionary
280
     1
281
     1
  3
ACAD_DIMASSOC
360
E0
  0
DICTIONARY
  5
EF
330
EE
100
AcDbDictionary
280
     1
281
     1
  3
ACAD_DIMASSOC
360
F0
  0
DICTIONARY
  5
FF
330
FE
100
AcDbDictionary
280
     1
281
     1
  3
ACAD_DIMASSOC
360
100
  0
DICTIONARY
  5
139
330
138
100
AcDbDictionary
280
     1
281
     1
  3
ACAD_DIMASSOC
360
13A
  0
DICTIONARY
  5
149
330
148
100
AcDbDictionary
280
     1
281
     1
  3
ACAD_DIMASSOC
360
14A
  0
DICTIONARY
  5
159
330
158
100
AcDbDictionary
280
     1
281
     1
  3
ACAD_DIMASSOC
360
15A
  0
DICTIONARY
  5
169
330
168
100
AcDbDictionary
280
     1
281
     1
  3
ACAD_DIMASSOC
360
16A
  0
DICTIONARY
  5
3C
102
{ACAD_REACTORS
330
B
102
}
330
B
100
AcDbDictionary
281
     1
  0
DICTIONARY
  5
37
102
{ACAD_REACTORS
330
B
102
}
330
B
100
AcDbDictionary
281
     1
  0
DICTIONARY
  5
11
102
{ACAD_REACTORS
330
B
102
}
330
B
100
AcDbDictionary
281
     1
  3
Model
350
10
  3
布局1
350
17
  0
DICTIONARY
  5
D
102
{ACAD_REACTORS
330
B
102
}
330
B
100
AcDbDictionary
281
     1
  3
ByBlock
350
3B
  3
ByLayer
350
3A
  3
Global
350
C
  0
DICTIONARY
  5
3F
102
{ACAD_REACTORS
330
B
102
}
330
B
100
AcDbDictionary
281
     1
  0
DICTIONARY
  5
38
102
{ACAD_REACTORS
330
B
102
}
330
B
100
AcDbDictionary
281
     1
  3
Standard
350
45
  0
DICTIONARY
  5
39
102
{ACAD_REACTORS
330
B
102
}
330
B
100
AcDbDictionary
281
     1
  0
ACDBDICTIONARYWDFLT
  5
A
102
{ACAD_REACTORS
330
B
102
}
330
B
100
AcDbDictionary
281
     1
  3
Normal
350
9
100
AcDbDictionaryWithDefault
340
9
  0
DICTIONARY
  5
3D
102
{ACAD_REACTORS
330
B
102
}
330
B
100
AcDbDictionary
281
     1
  3
A0
350
4A
  3
A1
350
4B
  3
A2
350
4C
  3
A3
350
4D
  3
A4
350
4E
  3
A5
350
4F
  3
A6
350
50
  3
A7
350
51
  3
A8
350
52
  3
A9
350
53
  3
B0
350
54
  3
B1
350
55
  3
B2
350
56
  3
B3
350
57
  3
B4
350
58
  3
B5
350
59
  3
B6
350
5A
  3
B7
350
5B
  3
B8
350
5C
  3
B9
350
5D
  3
C0
350
5E
  3
C1
350
5F
  3
C2
350
60
  3
C3
350
61
  3
C4
350
62
  3
C5
350
63
  3
C6
350
64
  3
C7
350
65
  3
C8
350
66
  3
C9
350
67
  3
D0
350
68
  3
D1
350
69
  3
D2
350
6A
  0
DICTIONARY
  5
3E
102
{ACAD_REACTORS
330
B
102
}
330
B
100
AcDbDictionary
281
     1
  3
Standard
350
46
  0
DICTIONARY
  5
2A
102
{ACAD_REACTORS
330
B
102
}
330
B
100
AcDbDictionary
281
     1
  3
2dWireframe
350
29
  3
3dWireframe
350
49
  3
Realistic
350
48
  0
XRECORD
  5
185
102
{ACAD_REACTORS
330
B
102
}
330
B
100
AcDbXrecord
280
     1
 90
        1
330
46
  0
DICTIONARY
  5
17A
102
{ACAD_REACTORS
330
B
102
}
330
B
100
AcDbDictionary
281
     1
  3
CANNOSCALE
350
180
  3
CMLEADERSTYLE
350
17C
  3
CTABLESTYLE
350
17B
  3
CVIEWDETAILSTYLE
350
17D
  3
CVIEWSECTIONSTYLE
350
17E
  3
LAYEREVAL
350
182
  3
LAYERNOTIFY
350
183
  3
LIGHTINGUNITS
350
181
  3
MSLTSCALE
350
17F
  0
DICTIONARY
  5
1B
102
{ACAD_REACTORS
330
1A
102
}
330
1A
100
AcDbDictionary
281
     1
  0
DICTIONARY
  5
1C
102
{ACAD_REACTORS
330
1A
102
}
330
1A
100
AcDbDictionary
281
     1
  0
DICTIONARY
  5
1D
102
{ACAD_REACTORS
330
1A
102
}
330
1A
100
AcDbDictionary
281
     1
1001
ACAD
1000
<All
  0
XRECORD
  5
8
102
{ACAD_REACTORS
330
7
102
}
330
7
100
AcDbXrecord
280
     1
290
     1
  0
XRECORD
  5
42
102
{ACAD_REACTORS
330
41
102
}
330
41
100
AcDbXrecord
280
     1
290
     1
  0
XRECORD
  5
70
102
{ACAD_REACTORS
330
6F
102
}
330
6F
100
AcDbXrecord
280
     1
290
     1
  0
SORTENTSTABLE
  5
178
102
{ACAD_REACTORS
330
3
102
}
330
3
100
AcDbSortentsTable
330
2
  0
DIMASSOC
  5
B8
102
{ACAD_REACTORS
330
B7
102
}
330
B7
100
AcDbDimAssoc
330
B6
 90
        2
 70
     0
 71
     0
  1
AcDbOsnapPointRef
 72
     3
331
A7
 73
     2
 91
        0
 40
0.0
 10
0.0
 20
0.0
 30
0.0
 75
     0
  0
DIMASSOC
  5
C5
102
{ACAD_REACTORS
330
C4
102
}
330
C4
100
AcDbDimAssoc
330
C3
 90
        2
 70
     0
 71
     0
  1
AcDbOsnapPointRef
 72
     3
331
AF
 73
     2
 91
        0
 40
0.0
 10
0.0
 20
0.0
 30
0.0
 75
     0
  0
DIMASSOC
  5
D0
102
{ACAD_REACTORS
330
CF
102
}
330
CF
100
AcDbDimAssoc
330
CE
 90
        3
 70
     0
 71
     0
  1
AcDbOsnapPointRef
 72
    13
331
AD
 73
     2
 91
        0
 40
0.0
 10
0.0
 20
0.0
 30
2.000000000000000E+50
 75
     0
  1
AcDbOsnapPointRef
 72
     1
331
AC
 73
     2
 91
        0
 40
6.283185307179586
 10
0.0
 20
0.0
 30
2.000000000000000E+50
 75
     0
  0
DIMASSOC
  5
E0
102
{ACAD_REACTORS
330
DF
102
}
330
DF
100
AcDbDimAssoc
330
DE
 90
        3
 70
     0
 71
     0
  1
AcDbOsnapPointRef
 72
    13
331
AC
 73
     2
 91
        0
 40
4.712388980384689
 10
0.0
 20
0.0
 30
2.000000000000000E+50
 75
     0
  1
AcDbOsnapPointRef
 72
     6
331
A6
 73
     2
 91
        0
 40
1.0
 10
0.0
 20
0.0
 30
0.0
332
A9
 74
     2
 92
        0
 75
     0
  0
DIMASSOC
  5
F0
102
{ACAD_REACTORS
330
EF
102
}
330
EF
100
AcDbDimAssoc
330
EE
 90
        3
 70
     0
 71
     0
  1
AcDbOsnapPointRef
 72
    13
331
B5
 73
     2
 91
        0
 40
0.0
 10
0.0
 20
0.0
 30
2.000000000000000E+50
 75
     0
  1
AcDbOsnapPointRef
 72
     1
331
B3
 73
     2
 91
        0
 40
6.283185307179586
 10
0.0
 20
0.0
 30
2.000000000000000E+50
 75
     0
  0
DIMASSOC
  5
100
102
{ACAD_REACTORS
330
FF
102
}
330
FF
100
AcDbDimAssoc
330
FE
 90
        3
 70
     0
 71
     0
  1
AcDbOsnapPointRef
 72
     1
331
B1
 73
     2
 91
        0
 40
7.853981633974482
 10
0.0
 20
0.0
 30
2.000000000000000E+50
 75
     0
  1
AcDbOsnapPointRef
 72
    13
331
B3
 73
     2
 91
        0
 40
4.712388980384689
 10
0.0
 20
0.0
 30
2.000000000000000E+50
 75
     0
  0
DIMASSOC
  5
13A
102
{ACAD_REACTORS
330
139
102
}
330
139
100
AcDbDimAssoc
330
138
 90
        3
 70
     0
 71
     0
  1
AcDbOsnapPointRef
 72
     1
331
7C
 73
     2
 91
        5
 40
1.570796326794896
 10
0.0
 20
0.0
 30
2.000000000000000E+50
 75
     0
  1
AcDbOsnapPointRef
 72
     6
331
7C
 73
     2
 91
        2
 40
1.0
 10
0.0
 20
0.0
 30
0.0
332
7C
 74
     2
 92
        3
 75
     0
  0
DIMASSOC
  5
14A
102
{ACAD_REACTORS
330
149
102
}
330
149
100
AcDbDimAssoc
330
148
 90
        1
 70
     0
 71
     0
  1
AcDbOsnapPointRef
 72
     1
331
83
 73
     2
 91
        0
 40
0.9999999999999998
 10
0.0
 20
0.0
 30
2.000000000000000E+50
 75
     0
  0
DIMASSOC
  5
15A
102
{ACAD_REACTORS
330
159
102
}
330
159
100
AcDbDimAssoc
330
158
 90
        2
 70
     0
 71
     0
  1
AcDbOsnapPointRef
 72
    13
331
98
 73
     2
 91
        0
 40
0.0
 10
0.0
 20
0.0
 30
2.000000000000000E+50
 75
     0
  0
DIMASSOC
  5
16A
102
{ACAD_REACTORS
330
169
102
}
330
169
100
AcDbDimAssoc
330
168
 90
        3
 70
     0
 71
     0
  1
AcDbOsnapPointRef
 72
     1
331
91
 73
     2
 91
        0
 40
1.0
 10
0.0
 20
0.0
 30
2.000000000000000E+50
 75
     0
  1
AcDbOsnapPointRef
 72
    13
331
A2
 73
     2
 91
        0
 40
0.0
 10
0.0
 20
0.0
 30
2.000000000000000E+50
 75
     0
  0
LAYOUT
  5
10
102
{ACAD_XDICTIONARY
360
12
102
}
102
{ACAD_REACTORS
330
11
102
}
330
11
100
AcDbPlotSettings
  1

  2
none_device
  4
ISO_A4_(210.00_x_297.00_MM)
  6

 40
7.5
 41
20.0
 42
7.5
 43
20.0
 44
210.0
 45
297.0
 46
11.54999923706054
 47
-13.65000009536743
 48
0.0
 49
0.0
140
0.0
141
0.0
142
1.0
143
8.704084754739808
 70
 11952
 72
     1
 73
     0
 74
     0
  7

 75
     0
147
0.1148885871608098
 76
     0
 77
     2
 78
   300
148
0.0
149
0.0
100
AcDbLayout
  1
Model
 70
     1
 71
     0
 10
0.0
 20
0.0
 11
12.0
 21
9.0
 12
0.0
 22
0.0
 32
0.0
 14
0.0
 24
0.0
 34
0.0
 15
0.0
 25
0.0
 35
0.0
146
0.0
 13
0.0
 23
0.0
 33
0.0
 16
1.0
 26
0.0
 36
0.0
 17
0.0
 27
1.0
 37
0.0
 76
     0
330
2
331
28
1001
ACAD_PSEXT
1000
None
1000
None
1000
Not applicable
1000
The layout will not be plotted unless a new plotter configuration name is selected.
1070
     0
  0
LAYOUT
  5
17
102
{ACAD_XDICTIONARY
360
18
102
}
102
{ACAD_REACTORS
330
11
102
}
330
11
100
AcDbPlotSettings
  1

  2
none_device
  4
ISO_A4_(210.00_x_297.00_MM)
  6

 40
7.5
 41
20.0
 42
7.5
 43
20.0
 44
210.0
 45
297.0
 46
0.0
 47
0.0
 48
0.0
 49
0.0
140
0.0
141
0.0
142
1.0
143
1.0
 70
   688
 72
     1
 73
     1
 74
     5
  7

 75
    16
147
1.0
 76
     0
 77
     2
 78
   300
148
0.0
149
0.0
100
AcDbLayout
  1
布局1
 70
     1
 71
     1
 10
-20.0
 20
-7.5
 11
277.0
 21
202.5
 12
0.0
 22
0.0
 32
0.0
 14
25.69999999999999
 24
19.5
 34
0.0
 15
231.3
 25
175.5
 35
0.0
146
0.0
 13
0.0
 23
0.0
 33
0.0
 16
1.0
 26
0.0
 36
0.0
 17
0.0
 27
1.0
 37
0.0
 76
     0
330
14
1001
ACAD_PSEXT
1000
无
1000
无
1000
不可用
1000
在选择新的绘图仪配置名称之前，不能打印该布局。
1070
     0
  0
MATERIAL
  5
3B
102
{ACAD_REACTORS
330
D
102
}
330
D
100
AcDbMaterial
  1
ByBlock
 73
     1
 78
     1
172
     1
176
     1
270
     1
274
     1
 94
       63
  0
MATERIAL
  5
3A
102
{ACAD_REACTORS
330
D
102
}
330
D
100
AcDbMaterial
  1
ByLayer
 73
     1
 78
     1
172
     1
176
     1
270
     1
274
     1
 94
       63
  0
MATERIAL
  5
C
102
{ACAD_REACTORS
330
D
102
}
330
D
100
AcDbMaterial
  1
Global
 73
     1
 78
     1
172
     1
176
     1
270
     1
274
     1
 94
       63
  0
MLINESTYLE
  5
45
102
{ACAD_REACTORS
330
38
102
}
330
38
100
AcDbMlineStyle
  2
STANDARD
 70
     0
  3

 62
   256
 51
90.0
 52
90.0
 71
     2
 49
0.5
 62
   256
  6
BYLAYER
 49
-0.5
 62
   256
  6
BYLAYER
  0
ACDBPLACEHOLDER
  5
9
102
{ACAD_REACTORS
330
A
102
}
330
A
  0
SCALE
  5
4A
102
{ACAD_REACTORS
330
3D
102
}
330
3D
100
AcDbScale
 70
     0
300
1:1
140
1.0
141
1.0
290
     1
  0
SCALE
  5
4B
102
{ACAD_REACTORS
330
3D
102
}
330
3D
100
AcDbScale
 70
     0
300
1:2
140
1.0
141
2.0
290
     0
  0
SCALE
  5
4C
102
{ACAD_REACTORS
330
3D
102
}
330
3D
100
AcDbScale
 70
     0
300
1:4
140
1.0
141
4.0
290
     0
  0
SCALE
  5
4D
102
{ACAD_REACTORS
330
3D
102
}
330
3D
100
AcDbScale
 70
     0
300
1:5
140
1.0
141
5.0
290
     0
  0
SCALE
  5
4E
102
{ACAD_REACTORS
330
3D
102
}
330
3D
100
AcDbScale
 70
     0
300
1:8
140
1.0
141
8.0
290
     0
  0
SCALE
  5
4F
102
{ACAD_REACTORS
330
3D
102
}
330
3D
100
AcDbScale
 70
     0
300
1:10
140
1.0
141
10.0
290
     0
  0
SCALE
  5
50
102
{ACAD_REACTORS
330
3D
102
}
330
3D
100
AcDbScale
 70
     0
300
1:16
140
1.0
141
16.0
290
     0
  0
SCALE
  5
51
102
{ACAD_REACTORS
330
3D
102
}
330
3D
100
AcDbScale
 70
     0
300
1:20
140
1.0
141
20.0
290
     0
  0
SCALE
  5
52
102
{ACAD_REACTORS
330
3D
102
}
330
3D
100
AcDbScale
 70
     0
300
1:30
140
1.0
141
30.0
290
     0
  0
SCALE
  5
53
102
{ACAD_REACTORS
330
3D
102
}
330
3D
100
AcDbScale
 70
     0
300
1:40
140
1.0
141
40.0
290
     0
  0
SCALE
  5
54
102
{ACAD_REACTORS
330
3D
102
}
330
3D
100
AcDbScale
 70
     0
300
1:50
140
1.0
141
50.0
290
     0
  0
SCALE
  5
55
102
{ACAD_REACTORS
330
3D
102
}
330
3D
100
AcDbScale
 70
     0
300
1:100
140
1.0
141
100.0
290
     0
  0
SCALE
  5
56
102
{ACAD_REACTORS
330
3D
102
}
330
3D
100
AcDbScale
 70
     0
300
2:1
140
2.0
141
1.0
290
     0
  0
SCALE
  5
57
102
{ACAD_REACTORS
330
3D
102
}
330
3D
100
AcDbScale
 70
     0
300
4:1
140
4.0
141
1.0
290
     0
  0
SCALE
  5
58
102
{ACAD_REACTORS
330
3D
102
}
330
3D
100
AcDbScale
 70
     0
300
8:1
140
8.0
141
1.0
290
     0
  0
SCALE
  5
59
102
{ACAD_REACTORS
330
3D
102
}
330
3D
100
AcDbScale
 70
     0
300
10:1
140
10.0
141
1.0
290
     0
  0
SCALE
  5
5A
102
{ACAD_REACTORS
330
3D
102
}
330
3D
100
AcDbScale
 70
     0
300
100:1
140
100.0
141
1.0
290
     0
  0
SCALE
  5
5B
102
{ACAD_REACTORS
330
3D
102
}
330
3D
100
AcDbScale
 70
     0
300
1/128" = 1'-0"
140
0.0078125
141
12.0
290
     0
  0
SCALE
  5
5C
102
{ACAD_REACTORS
330
3D
102
}
330
3D
100
AcDbScale
 70
     0
300
1/64" = 1'-0"
140
0.015625
141
12.0
290
     0
  0
SCALE
  5
5D
102
{ACAD_REACTORS
330
3D
102
}
330
3D
100
AcDbScale
 70
     0
300
1/32" = 1'-0"
140
0.03125
141
12.0
290
     0
  0
SCALE
  5
5E
102
{ACAD_REACTORS
330
3D
102
}
330
3D
100
AcDbScale
 70
     0
300
1/16" = 1'-0"
140
0.0625
141
12.0
290
     0
  0
SCALE
  5
5F
102
{ACAD_REACTORS
330
3D
102
}
330
3D
100
AcDbScale
 70
     0
300
3/32" = 1'-0"
140
0.09375
141
12.0
290
     0
  0
SCALE
  5
60
102
{ACAD_REACTORS
330
3D
102
}
330
3D
100
AcDbScale
 70
     0
300
1/8" = 1'-0"
140
0.125
141
12.0
290
     0
  0
SCALE
  5
61
102
{ACAD_REACTORS
330
3D
102
}
330
3D
100
AcDbScale
 70
     0
300
3/16" = 1'-0"
140
0.1875
141
12.0
290
     0
  0
SCALE
  5
62
102
{ACAD_REACTORS
330
3D
102
}
330
3D
100
AcDbScale
 70
     0
300
1/4" = 1'-0"
140
0.25
141
12.0
290
     0
  0
SCALE
  5
63
102
{ACAD_REACTORS
330
3D
102
}
330
3D
100
AcDbScale
 70
     0
300
3/8" = 1'-0"
140
0.375
141
12.0
290
     0
  0
SCALE
  5
64
102
{ACAD_REACTORS
330
3D
102
}
330
3D
100
AcDbScale
 70
     0
300
1/2" = 1'-0"
140
0.5
141
12.0
290
     0
  0
SCALE
  5
65
102
{ACAD_REACTORS
330
3D
102
}
330
3D
100
AcDbScale
 70
     0
300
3/4" = 1'-0"
140
0.75
141
12.0
290
     0
  0
SCALE
  5
66
102
{ACAD_REACTORS
330
3D
102
}
330
3D
100
AcDbScale
 70
     0
300
1" = 1'-0"
140
1.0
141
12.0
290
     0
  0
SCALE
  5
67
102
{ACAD_REACTORS
330
3D
102
}
330
3D
100
AcDbScale
 70
     0
300
1-1/2" = 1'-0"
140
1.5
141
12.0
290
     0
  0
SCALE
  5
68
102
{ACAD_REACTORS
330
3D
102
}
330
3D
100
AcDbScale
 70
     0
300
3" = 1'-0"
140
3.0
141
12.0
290
     0
  0
SCALE
  5
69
102
{ACAD_REACTORS
330
3D
102
}
330
3D
100
AcDbScale
 70
     0
300
6" = 1'-0"
140
6.0
141
12.0
290
     0
  0
SCALE
  5
6A
102
{ACAD_REACTORS
330
3D
102
}
330
3D
100
AcDbScale
 70
     0
300
1'-0" = 1'-0"
140
12.0
141
12.0
290
     0
  0
TABLESTYLE
  5
46
102
{ACAD_XDICTIONARY
360
47
102
}
102
{ACAD_REACTORS
330
3E
102
}
330
3E
100
AcDbTableStyle
280
     0
  3
Standard
 70
     0
 71
     0
 40
1.5
 41
1.5
280
     0
281
     0
  7
Standard
140
4.5
170
     2
 62
     0
 63
     7
283
     0
 90
      512
 91
        0
  1

274
    -2
284
     1
 64
     0
275
    -2
285
     1
 65
     0
276
    -2
286
     1
 66
     0
277
    -2
287
     1
 67
     0
278
    -2
288
     1
 68
     0
279
    -2
289
     1
 69
     0
  7
Standard
140
6.0
170
     5
 62
     0
 63
     7
283
     0
 90
      512
 91
        0
  1

274
    -2
284
     1
 64
     0
275
    -2
285
     1
 65
     0
276
    -2
286
     1
 66
     0
277
    -2
287
     1
 67
     0
278
    -2
288
     1
 68
     0
279
    -2
289
     1
 69
     0
  7
Standard
140
4.5
170
     5
 62
     0
 63
     7
283
     0
 90
      512
 91
        0
  1

274
    -2
284
     1
 64
     0
275
    -2
285
     1
 65
     0
276
    -2
286
     1
 66
     0
277
    -2
287
     1
 67
     0
278
    -2
288
     1
 68
     0
279
    -2
289
     1
 69
     0
  0
VISUALSTYLE
  5
29
102
{ACAD_REACTORS
330
2A
102
}
330
2A
100
AcDbVisualStyle
  2
2dWireframe
 70
     4
177
     3
291
     0
 70
    58
 90
        0
176
     1
 90
        2
176
     1
 90
        1
176
     1
 90
        0
176
     1
 40
0.6
176
     1
 40
30.0
176
     1
 62
     7
420
 16777215
176
     1
 90
        1
176
     1
 90
        4
176
     1
 62
     7
176
     1
 62
   257
176
     1
 90
        1
176
     1
 90
        1
176
     1
 40
1.0
176
     1
 90
        0
176
     1
 62
   257
176
     1
 40
1.0
176
     1
 90
        1
176
     1
 90
        6
176
     1
 90
        2
176
     1
 62
     7
176
     1
 90
        5
176
     1
 90
        0
176
     1
 90
        0
176
     1
290
     0
176
     1
 90
        1
176
     1
 40
0.0
176
     1
 90
        0
176
     1
290
     1
176
     1
290
     1
176
     1
290
     0
176
     1
290
     0
176
     1
290
     0
176
     1
290
     0
176
     1
290
     0
176
     1
290
     0
176
     1
290
     0
176
     1
 90
       50
176
     1
 40
0.0
176
     1
 40
1.0
176
     1
 90
        0
176
     1
 62
    18
420
        0
176
     1
 90
       50
176
     1
 90
        3
176
     1
 62
     5
420
      255
176
     1
290
     0
176
     1
 90
       50
176
     1
 90
       50
176
     1
 90
       50
176
     1
290
     0
176
     1
 90
       50
176
     1
 62
   256
176
     0
 40
1.0
176
     0
 90
        2
176
     1
  1
strokes_ogs.tif
176
     1
290
     0
176
     1
 40
1.0
176
     1
 40
1.0
176
     1
  0
VISUALSTYLE
  5
49
102
{ACAD_REACTORS
330
2A
102
}
330
2A
100
AcDbVisualStyle
  2
3dWireframe
 70
     5
177
     3
291
     0
 70
    58
 90
        0
176
     1
 90
        2
176
     1
 90
        1
176
     1
 90
        0
176
     1
 40
0.6
176
     1
 40
30.0
176
     1
 62
     7
420
 16777215
176
     1
 90
        1
176
     1
 90
        4
176
     1
 62
     7
176
     1
 62
   257
176
     1
 90
        1
176
     1
 90
        1
176
     1
 40
1.0
176
     1
 90
        0
176
     1
 62
   257
176
     1
 40
1.0
176
     1
 90
        1
176
     1
 90
        6
176
     1
 90
        2
176
     1
 62
     7
176
     1
 90
        5
176
     1
 90
        0
176
     1
 90
        0
176
     1
290
     0
176
     1
 90
        1
176
     1
 40
0.0
176
     1
 90
        0
176
     1
290
     0
176
     1
290
     1
176
     1
290
     1
176
     1
290
     0
176
     1
290
     0
176
     1
290
     0
176
     1
290
     0
176
     1
290
     0
176
     1
290
     0
176
     1
 90
       50
176
     1
 40
0.0
176
     1
 40
1.0
176
     1
 90
        0
176
     1
 62
    18
420
        0
176
     1
 90
       50
176
     1
 90
        3
176
     1
 62
     5
420
      255
176
     1
290
     0
176
     1
 90
       50
176
     1
 90
       50
176
     1
 90
       50
176
     1
290
     0
176
     1
 90
       50
176
     1
 62
   256
176
     0
 40
1.0
176
     0
 90
        2
176
     1
  1
strokes_ogs.tif
176
     1
290
     0
176
     1
 40
1.0
176
     1
 40
1.0
176
     1
  0
VISUALSTYLE
  5
48
102
{ACAD_REACTORS
330
2A
102
}
330
2A
100
AcDbVisualStyle
  2
Realistic
 70
     8
177
     3
291
     0
 70
    58
 90
        2
176
     1
 90
        2
176
     1
 90
        1
176
     1
 90
        0
176
     1
 40
0.6
176
     1
 40
30.0
176
     1
 62
     7
420
 16777215
176
     1
 90
        1
176
     1
 90
        0
176
     1
 62
     7
176
     1
 62
   257
176
     1
 90
        1
176
     1
 90
        1
176
     1
 40
1.0
176
     1
 90
        8
176
     1
 62
     8
420
  7895160
176
     1
 40
1.0
176
     1
 90
        1
176
     1
 90
        6
176
     1
 90
        2
176
     1
 62
     7
176
     1
 90
        5
176
     1
 90
        0
176
     1
 90
        0
176
     1
290
     0
176
     1
 90
       13
176
     1
 40
0.0
176
     1
 90
        0
176
     1
290
     0
176
     1
290
     1
176
     1
290
     1
176
     1
290
     0
176
     1
290
     0
176
     1
290
     0
176
     1
290
     0
176
     1
290
     0
176
     1
290
     0
176
     1
 90
       50
176
     1
 40
0.0
176
     1
 40
1.0
176
     1
 90
        0
176
     1
 62
    18
420
        0
176
     1
 90
       50
176
     1
 90
        3
176
     1
 62
     5
420
      255
176
     1
290
     0
176
     1
 90
       50
176
     1
 90
       50
176
     1
 90
       50
176
     1
290
     0
176
     1
 90
       50
176
     1
 62
   256
176
     0
 40
1.0
176
     0
 90
        2
176
     1
  1
strokes_ogs.tif
176
     1
290
     0
176
     1
 40
1.0
176
     1
 40
1.0
176
     1
  0
DICTIONARYVAR
  5
180
102
{ACAD_REACTORS
330
17A
102
}
330
17A
100
DictionaryVariables
280
     0
  1
1:1
  0
DICTIONARYVAR
  5
17C
102
{ACAD_REACTORS
330
17A
102
}
330
17A
100
DictionaryVariables
280
     0
  1
STANDARD
  0
DICTIONARYVAR
  5
17B
102
{ACAD_REACTORS
330
17A
102
}
330
17A
100
DictionaryVariables
280
     0
  1
STANDARD
  0
DICTIONARYVAR
  5
17D
102
{ACAD_REACTORS
330
17A
102
}
330
17A
100
DictionaryVariables
280
     0
  1

  0
DICTIONARYVAR
  5
17E
102
{ACAD_REACTORS
330
17A
102
}
330
17A
100
DictionaryVariables
280
     0
  1

  0
DICTIONARYVAR
  5
182
102
{ACAD_REACTORS
330
17A
102
}
330
17A
100
DictionaryVariables
280
     0
  1
1
  0
DICTIONARYVAR
  5
183
102
{ACAD_REACTORS
330
17A
102
}
330
17A
100
DictionaryVariables
280
     0
  1
15
  0
DICTIONARYVAR
  5
181
102
{ACAD_REACTORS
330
17A
102
}
330
17A
100
DictionaryVariables
280
     0
  1
0
  0
DICTIONARYVAR
  5
17F
102
{ACAD_REACTORS
330
17A
102
}
330
17A
100
DictionaryVariables
280
     0
  1
0
  0
DICTIONARY
  5
12
330
10
100
AcDbDictionary
280
     1
281
     1
  0
DICTIONARY
  5
18
330
17
100
AcDbDictionary
280
     1
281
     1
  0
DICTIONARY
  5
47
330
46
100
AcDbDictionary
280
     1
281
     1
  3
ACAD_ROUNDTRIP_2008_TABLESTYLE_CELLSTYLEMAP
360
184
  0
CELLSTYLEMAP
  5
184
102
{ACAD_REACTORS
330
47
102
}
330
47
100
AcDbCellStyleMap
 90
        3
300
CELLSTYLE
  1
TABLEFORMAT_BEGIN
 90
        5
170
     1
 91
        0
 92
    32768
 62
   257
 93
        1
300
CONTENTFORMAT
  1
CONTENTFORMAT_BEGIN
 90
        0
 91
        0
 92
      512
 93
        0
300

 40
0.0
140
1.0
 94
        5
 62
     0
340
20
144
6.0
309
CONTENTFORMAT_END
171
     1
301
MARGIN
  1
CELLMARGIN_BEGIN
 40
1.5
 40
1.5
 40
1.5
 40
1.5
 40
0.18
 40
0.18
309
CELLMARGIN_END
 94
        6
 95
        1
302
GRIDFORMAT
  1
GRIDFORMAT_BEGIN
 90
        0
 91
        1
 62
     0
 92
       -2
340
0
 93
        0
 40
0.045
309
GRIDFORMAT_END
 95
        2
302
GRIDFORMAT
  1
GRIDFORMAT_BEGIN
 90
        0
 91
        1
 62
     0
 92
       -2
340
0
 93
        0
 40
0.045
309
GRIDFORMAT_END
 95
        4
302
GRIDFORMAT
  1
GRIDFORMAT_BEGIN
 90
        0
 91
        1
 62
     0
 92
       -2
340
0
 93
        0
 40
0.045
309
GRIDFORMAT_END
 95
        8
302
GRIDFORMAT
  1
GRIDFORMAT_BEGIN
 90
        0
 91
        1
 62
     0
 92
       -2
340
0
 93
        0
 40
0.045
309
GRIDFORMAT_END
 95
       16
302
GRIDFORMAT
  1
GRIDFORMAT_BEGIN
 90
        0
 91
        1
 62
     0
 92
       -2
340
0
 93
        0
 40
0.045
309
GRIDFORMAT_END
 95
       32
302
GRIDFORMAT
  1
GRIDFORMAT_BEGIN
 90
        0
 91
        1
 62
     0
 92
       -2
340
0
 93
        0
 40
0.045
309
GRIDFORMAT_END
309
TABLEFORMAT_END
  1
CELLSTYLE_BEGIN
 90
        1
 91
        1
300
_TITLE
309
CELLSTYLE_END
300
CELLSTYLE
  1
TABLEFORMAT_BEGIN
 90
        5
170
     1
 91
        0
 92
        0
 62
   257
 93
        1
300
CONTENTFORMAT
  1
CONTENTFORMAT_BEGIN
 90
        0
 91
        0
 92
      512
 93
        0
300

 40
0.0
140
1.0
 94
        5
 62
     0
340
20
144
4.5
309
CONTENTFORMAT_END
171
     1
301
MARGIN
  1
CELLMARGIN_BEGIN
 40
1.5
 40
1.5
 40
1.5
 40
1.5
 40
0.18
 40
0.18
309
CELLMARGIN_END
 94
        6
 95
        1
302
GRIDFORMAT
  1
GRIDFORMAT_BEGIN
 90
        0
 91
        1
 62
     0
 92
       -2
340
0
 93
        0
 40
0.045
309
GRIDFORMAT_END
 95
        2
302
GRIDFORMAT
  1
GRIDFORMAT_BEGIN
 90
        0
 91
        1
 62
     0
 92
       -2
340
0
 93
        0
 40
0.045
309
GRIDFORMAT_END
 95
        4
302
GRIDFORMAT
  1
GRIDFORMAT_BEGIN
 90
        0
 91
        1
 62
     0
 92
       -2
340
0
 93
        0
 40
0.045
309
GRIDFORMAT_END
 95
        8
302
GRIDFORMAT
  1
GRIDFORMAT_BEGIN
 90
        0
 91
        1
 62
     0
 92
       -2
340
0
 93
        0
 40
0.045
309
GRIDFORMAT_END
 95
       16
302
GRIDFORMAT
  1
GRIDFORMAT_BEGIN
 90
        0
 91
        1
 62
     0
 92
       -2
340
0
 93
        0
 40
0.045
309
GRIDFORMAT_END
 95
       32
302
GRIDFORMAT
  1
GRIDFORMAT_BEGIN
 90
        0
 91
        1
 62
     0
 92
       -2
340
0
 93
        0
 40
0.045
309
GRIDFORMAT_END
309
TABLEFORMAT_END
  1
CELLSTYLE_BEGIN
 90
        2
 91
        1
300
_HEADER
309
CELLSTYLE_END
300
CELLSTYLE
  1
TABLEFORMAT_BEGIN
 90
        5
170
     1
 91
        0
 92
        0
 62
   257
 93
        1
300
CONTENTFORMAT
  1
CONTENTFORMAT_BEGIN
 90
        0
 91
        0
 92
      512
 93
        0
300

 40
0.0
140
1.0
 94
        2
 62
     0
340
20
144
4.5
309
CONTENTFORMAT_END
171
     1
301
MARGIN
  1
CELLMARGIN_BEGIN
 40
1.5
 40
1.5
 40
1.5
 40
1.5
 40
0.18
 40
0.18
309
CELLMARGIN_END
 94
        6
 95
        1
302
GRIDFORMAT
  1
GRIDFORMAT_BEGIN
 90
        0
 91
        1
 62
     0
 92
       -2
340
0
 93
        0
 40
0.045
309
GRIDFORMAT_END
 95
        2
302
GRIDFORMAT
  1
GRIDFORMAT_BEGIN
 90
        0
 91
        1
 62
     0
 92
       -2
340
0
 93
        0
 40
0.045
309
GRIDFORMAT_END
 95
        4
302
GRIDFORMAT
  1
GRIDFORMAT_BEGIN
 90
        0
 91
        1
 62
     0
 92
       -2
340
0
 93
        0
 40
0.045
309
GRIDFORMAT_END
 95
        8
302
GRIDFORMAT
  1
GRIDFORMAT_BEGIN
 90
        0
 91
        1
 62
     0
 92
       -2
340
0
 93
        0
 40
0.045
309
GRIDFORMAT_END
 95
       16
302
GRIDFORMAT
  1
GRIDFORMAT_BEGIN
 90
        0
 91
        1
 62
     0
 92
       -2
340
0
 93
        0
 40
0.045
309
GRIDFORMAT_END
 95
       32
302
GRIDFORMAT
  1
GRIDFORMAT_BEGIN
 90
        0
 91
        1
 62
     0
 92
       -2
340
0
 93
        0
 40
0.045
309
GRIDFORMAT_END
309
TABLEFORMAT_END
  1
CELLSTYLE_BEGIN
 90
        3
 91
        2
300
_DATA
309
CELLSTYLE_END
  0
ENDSEC
  0
SECTION
  2
ACDSDATA
 70
     2
 71
     6
  0
ACDSSCHEMA
 90
        0
  1
AcDb_Thumbnail_Schema
  2
AcDbDs::ID
280
    10
 91
        8
  2
Thumbnail_Data
280
    15
 91
        0
101
ACDSRECORD
 95
        0
 90
        1
  2
AcDbDs::TreatedAsObjectData
280
     1
291
     1
101
ACDSRECORD
 95
        0
 90
        2
  2
AcDbDs::Legacy
280
     1
291
     1
101
ACDSRECORD
  1
AcDbDs::ID
 90
        3
  2
AcDs:Indexable
280
     1
291
     1
101
ACDSRECORD
  1
AcDbDs::ID
 90
        4
  2
AcDbDs::HandleAttribute
280
     7
282
     1
  0
ACDSSCHEMA
 90
        1
  1
AcDbDs::TreatedAsObjectDataSchema
  2
AcDbDs::TreatedAsObjectData
280
     1
 91
        0
  0
ACDSSCHEMA
 90
        2
  1
AcDbDs::LegacySchema
  2
AcDbDs::Legacy
280
     1
 91
        0
  0
ACDSSCHEMA
 90
        3
  1
AcDbDs::IndexedPropertySchema
  2
AcDs:Indexable
280
     1
 91
        0
  0
ACDSSCHEMA
 90
        4
  1
AcDbDs::HandleAttributeSchema
  2
AcDbDs::HandleAttribute
280
     7
 91
        1
284
     1
  0
ACDSRECORD
 90
        0
  2
AcDbDs::ID
280
    10
320
10
  2
Thumbnail_Data
280
    15
 94
     2381
310
89504E470D0A1A0A0000000D49484452000001000000005E0803000000FB5F3A6700000300504C5445212830000000C8C8C80000000000000000000000000000000000000000000000000000330000660000990000CC0000FF0033000033330033660033990033CC0033FF0066000066330066660066990066CC0066FF0099
310
000099330099660099990099CC0099FF00CC0000CC3300CC6600CC9900CCCC00CCFF00FF0000FF3300FF6600FF9900FFCC00FFFF3300003300333300663300993300CC3300FF3333003333333333663333993333CC3333FF3366003366333366663366993366CC3366FF3399003399333399663399993399CC3399FF33CC00
310
33CC3333CC6633CC9933CCCC33CCFF33FF0033FF3333FF6633FF9933FFCC33FFFF6600006600336600666600996600CC6600FF6633006633336633666633996633CC6633FF6666006666336666666666996666CC6666FF6699006699336699666699996699CC6699FF66CC0066CC3366CC6666CC9966CCCC66CCFF66FF0066
310
FF3366FF6666FF9966FFCC66FFFF9900009900339900669900999900CC9900FF9933009933339933669933999933CC9933FF9966009966339966669966999966CC9966FF9999009999339999669999999999CC9999FF99CC0099CC3399CC6699CC9999CCCC99CCFF99FF0099FF3399FF6699FF9999FFCC99FFFFCC0000CC00
310
33CC0066CC0099CC00CCCC00FFCC3300CC3333CC3366CC3399CC33CCCC33FFCC6600CC6633CC6666CC6699CC66CCCC66FFCC9900CC9933CC9966CC9999CC99CCCC99FFCCCC00CCCC33CCCC66CCCC99CCCCCCCCCCFFCCFF00CCFF33CCFF66CCFF99CCFFCCCCFFFFFF0000FF0033FF0066FF0099FF00CCFF00FFFF3300FF3333
310
FF3366FF3399FF33CCFF33FFFF6600FF6633FF6666FF6699FF66CCFF66FFFF9900FF9933FF9966FF9999FF99CCFF99FFFFCC00FFCC33FFCC66FFCC99FFCCCCFFCCFFFFFF00FFFF33FFFF66FFFF99FFFFCCFFFFFF0000000D0D0D1A1A1A2828283535354343435050505D5D5D6B6B6B787878868686939393A1A1A1AEAEAEBB
310
BBBBC9C9C9D6D6D6E4E4E4F1F1F1FFFFFF000000000000000000000000000000000000000000000000000000000000B21171F6000004344944415478DAED9C6D96AB300840D941F7BF99AC24DBE0FFABE68B04D0448DCF8E303375AA3D925C81041A05B8523E77C8B50AE1F582187EBF2FEB6B90FCEF148D51011075304D5D
310
549A1542A38EB683094C05506B9A0A80132700366552FF59E76F0120F3DEBCFE78930164FB9CD57F1411703C407D727D9DE48DCB168AF7A7503435D001107B9BA9CEC4C4C4C4E467E461B9C9EF25439F3CD07E7FEEC8AD3E656E03F88064EE43A7933703C0770380970380075A00BCD705A4377F45A10178378018DD7C2DEF
310
0040EB273F07C0F19293738EF56BABE0C38FC73D1E7E0180E31D0257C6CF6E00B9905476CC00906D6BBF2ED8A7F0DBDB964102B01CC8073701340693F6CE06B083A01F806201B832580FEF58406A1C1250DF7050F5FF3200A531B58F3621475628B82BA82E80A50CBC6701E4A2E06C00A4034DFFA10F000C00585E5D8C08DE
310
E3B605349B7900F2B774C4FA98C79D0010FD3E9CFBFB061300CFACAC8A01F529C70014CFEE0190C36D89D43003C01A0489261F7C5004405B1E778CCC03826B2F9DD80E6D3E03004CCD4F3EDA0580C5B32D17584860D2F20D71A85B00B6A7181C057C24E899676B00D275C9CEC0DA761E4031E70C410180FC1CA3007C061075
310
AC1ED15A5C0640FF7000C0E82850FA133E2B034079E79805ACA7F651458C37089A0594BFB4E9022038BCB4CBB10B1BB4AA2EA0E502D8D99ED0D7002C5DFF187A4500D430CF0250730174D880D200F86AB69C48E0C0C46C05107AEDEB537B711824869958F44D84C490CF241DA9A86C0190040F0060817C0440D72830221144
310
DAE800BC2CC70040070014C20F1E05A0BB00370B0540D65B4D943C1C00C086530E00B3C70547A3D1078F24436A3ADC0FE082F4DCCBC906078039E76800F8A3D9A0D3B241C5D9EF05C00D49F3B81300A01B009C21B03315D600F88321A7BF1EA0BA80B0364BCD08E5897B7F7BB0326CE2D7B8531BB9A020A203D8F99C949537
310
193AF6B7C7EF23BCC0E4BAA6C26914403A20F65484F8DE819258A75D771BDCE974D85100EE0880396571AF1A1C5E05407201E71E04406C3E76BB40378020642AFC04005E07D0E50203F5806EF9AF007010000B827A3A3C0040FF6EEC69004672818300D442FD240065A27210806B4D61B0FBD74C84C6BE17209587B01127C3
310
67EB0157CB45A30092EF60EAA9AA9FA3F069001EACD00018000360000C8001300006E0AF02B05B665E2F37DE38BE7BAFFAACDBA737751900036000DE0DC0C4C4C4C4E4C562C9D025D9E9EBEF1D360006C000D8F303C08AA206C0003C50A13B79FC470138B7B34826AF9B3ABB82E6A90052271D3204F5C2B1836BC81E0F2095
310
BC1CB9E261A5203AF240596212F1F9128E2DAEDB66F3640B685D3C01C80F4FA86E54CA00A0F6949D0576A70110D01702400940582C8BCB7AE9B0B658B400BA4C73FDE0D500829195FBF8BA0C6D5BE1C6FD02228075B134C800201C2C0FA29D00A03426BC5D35F62EE51D5C2DAE0048F727C33F323B074F33FFA15C00000000
310
49454E44AE426082B196ED290D8846BF179BDF1D29EBCD3C180A27F1BA1A80154579E276B8EAF596EE06EF6C40FB5E205563C0681CF01C80E881FDC39F1F8848AF43FFE440846F487BD501E744E80038000E80B7033815227DDF3F9550DFAA2DF8611A7F76DC03E0ED004E7B533B05128BCEFCD4071C00A740E2DC0B3C0400
310
078F84E601840CFD777CD499A93C5A21122F5B3B835C06C067815FF7F9494C44A80320FDCC3E65FC430010F2071600FA643C1766EC02000F209608844F72C5ECD807C427F5D3E92917ABF09BC7016048F152438B5AC7E2F1B2BE1A2524B21701F8B12D4EF7ABFBF020C50471CC5AD7004410A154812A67CA1D009EB42F7099
310
01102FABFEF1C69300500188C7F03D00D43A542F3E3D9EAA286295032D03085B601B0020FF179900003500BC07E02B0AF0C70010AB00366C4002E03F3D7A1120592200BCAE588CAA6A35D8600C68000800AA326BC408922A5DA27896FF8017602F68BF821708E6D1DAAB0A00C8DD535594010D805B0DD05E40F06B8505ABFF
310
4849959FA4AA05E1055A006E4A153EADA307001CF002D25B8967CF02E80A855562B56295F14088B350ED50AA1F09D2B39120FB311909DE0120B949D623C139005E276F23D00722C1B2FD0728B3B154C7A5048D0000000049454E44AE426082
  0
ACDSRECORD
 90
        0
  2
AcDbDs::ID
280
    10
320
17
  2
Thumbnail_Data
280
    15
 94
     1943
310
89504E470D0A1A0A0000000D49484452000000B80000007F08030000006B00F8F900000300504C5445FFFFFF000000FFFFFF0000000000000000000000000000000000000000000000000000330000660000990000CC0000FF0033000033330033660033990033CC0033FF0066000066330066660066990066CC0066FF0099
310
000099330099660099990099CC0099FF00CC0000CC3300CC6600CC9900CCCC00CCFF00FF0000FF3300FF6600FF9900FFCC00FFFF3300003300333300663300993300CC3300FF3333003333333333663333993333CC3333FF3366003366333366663366993366CC3366FF3399003399333399663399993399CC3399FF33CC00
310
33CC3333CC6633CC9933CCCC33CCFF33FF0033FF3333FF6633FF9933FFCC33FFFF6600006600336600666600996600CC6600FF6633006633336633666633996633CC6633FF6666006666336666666666996666CC6666FF6699006699336699666699996699CC6699FF66CC0066CC3366CC6666CC9966CCCC66CCFF66FF0066
310
FF3366FF6666FF9966FFCC66FFFF9900009900339900669900999900CC9900FF9933009933339933669933999933CC9933FF9966009966339966669966999966CC9966FF9999009999339999669999999999CC9999FF99CC0099CC3399CC6699CC9999CCCC99CCFF99FF0099FF3399FF6699FF9999FFCC99FFFFCC0000CC00
310
33CC0066CC0099CC00CCCC00FFCC3300CC3333CC3366CC3399CC33CCCC33FFCC6600CC6633CC6666CC6699CC66CCCC66FFCC9900CC9933CC9966CC9999CC99CCCC99FFCCCC00CCCC33CCCC66CCCC99CCCCCCCCCCFFCCFF00CCFF33CCFF66CCFF99CCFFCCCCFFFFFF0000FF0033FF0066FF0099FF00CCFF00FFFF3300FF3333
310
FF3366FF3399FF33CCFF33FFFF6600FF6633FF6666FF6699FF66CCFF66FFFF9900FF9933FF9966FF9999FF99CCFF99FFFFCC00FFCC33FFCC66FFCC99FFCCCCFFCCFFFFFF00FFFF33FFFF66FFFF99FFFFCCFFFFFF0000000D0D0D1A1A1A2828283535354343435050505D5D5D6B6B6B787878868686939393A1A1A1AEAEAEBB
310
BBBBC9C9C9D6D6D6E4E4E4F1F1F1FFFFFF000000000000000000000000000000000000000000000000000000000000790CAC0F000004524944415478DAED9C5B92E3200C457B03296DC3FB5F801673FF7A01FE1F03120870E2C476067B46547742223F0E422F70557E30DFAEE127340777F01DE0D0D67FB329998F48DEB8CD
310
6BF00B6BD9C11DDCC11DFC2F827BE674F0FF0D1C03DB31F06B441107BF1E38AE0B0E0777700777700777700777F017470344F7D4F8427E4F70BA32F8FE7A1C331E783CEEB09000D82C0C69017F00B70067669415757C7FDC0E9C22F8E31E1ADFD843F0C5F279E0D12D97170AFFF1134BA324E4F4B27CE2245B5E108F260AA7
310
8C0347200978020E0154F0481EC09380C24029B591E02117051A8E1A8F5A8D2A65FD1407B5BC0938A21F07DE059CBF028EF74D25AA51512366D2384B37998A50733A7289F6BBC1712278C281804350A59B3F41A640344E34103C6917195C5B724716764E1ACFF331BE1E57D4A4D50C9E2C1E6520622A024E9F45D9AF2C2432
310
99D8B8D8B4A012178D4B1894195A44F1148CD3B844BCA871FC26EB50E7D481A461B0E81C31A0F058E7FC65D65092C025EB041B9F72CED1381E2A996446F360F01C9D610260F994C849C0A72906F8B47E1AADF11CF08A03E65CC91A56248FE626E043C361059EBB098E21F1A68A2AA04F97DA5F0297C229C771709F39D539A3
310
3064CDF1FB2A14DC2DFC49CA11238E1A5F64596C8EBC88C6818F33E11576B2A434F12DB8A1FB2ABEE63C177C9AB45364B9BB261C0F3EED019FB687504E9ABE028E6A87D944402E256E125AD9D41E34B5DF404B16E97077E1A3E069FD55DF25769545C16571660F2B747969CF65CF9A6C07FDD00E8287CBE64283CAE63E7306
310
4F5054C0739AE49AAE9928A31A7DD323F83078BABE5ED53C95985445508D970D13D98BB0F68056E38C6A324A49B00F1C7D39654DC5541CD96896D42F1A2FE07AFC1B1A97D3D4E09E837F98391B533170DAD3C1982DD04C513055E36A6C6826B19993E3E05C598175CE1EDCCC06D3BA618411C8A5A8BAE4B6A9EC02CFCE9627
310
543625D69D93559D9D6198A88297CED9D7707BC0B37AD9C0C982271B74B9756F2A2BCE59AC4FC06B8DCB3383A31ACF536F6D1CB55B113F3795F9453894B8D5D838D1291A2FA6626C5C2759BEB3326C6B5CE747C6DB829F632A26031A1B6F7465ED1F5D1CD76DAF671AA7169CCE01A795A802420DCE2DB80DF6B245DED72A12
310
0E8B734E279A8AE4982A0141328FDED280E7606D071CB7548AC689AAA8424D02024E76CE5248E94EB79A4F1D2A3B8DD393EA50AF124DC9809FEB9C553D4273F5DDA2A3E97991A57B0205BCD5B88027C1D9CE694C25F74AE62C95E976386C8BACF8F80B79B0A7D978EF9C2BB9B0C8A80D874017C7A90A87F149184ECF9CDCDA
310
C00AB89575AB9915F0B5871CFB13D0FC1ADCDC8DDAC95F5DD6992AF33538911638672D24DE867B094EB4A5F1B8857A3DF04D51798E7833F066957F5BF0D9C11DDCC13FCA9C23C1E1E0D706BFCE13090777700777700777700777F0CDB30782CF0E7E6DF0BBFE68C6459B833BF86E70FF9D2C0777700777F0BA36795EAD3C95
310
CC4724477F8CD433A783FF93E0376C81FB0FE8D566DAC99D001A0000000049454E44AE426082
  0
ENDSEC
  0
EOF
