  0
SECTION
  2
HEADER
  9
$ACADVER
  1
AC1027
  9
$ACADMAINTVER
 70
    55
  9
$DWGCODEPAGE
  3
ANSI_936
  9
$REQUIREDVERSIONS
160
                 0
  9
$INSBASE
 10
0.0
 20
0.0
 30
0.0
  9
$EXTMIN
 10
-34607.30634793638
 20
16112.5105673383
 30
0.0
  9
$EXTMAX
 10
-1202.65293636074
 20
38457.29723805076
 30
506.0
  9
$LIMMIN
 10
0.0
 20
0.0
  9
$LIMMAX
 10
420.0
 20
297.0
  9
$ORTHOMODE
 70
     0
  9
$REGENMODE
 70
     1
  9
$FILLMODE
 70
     1
  9
$QTEXTMODE
 70
     0
  9
$MIRRTEXT
 70
     0
  9
$LTSCALE
 40
1.0
  9
$ATTMODE
 70
     1
  9
$TEXTSIZE
 40
2.5
  9
$TRACEWID
 40
1.0
  9
$TEXTSTYLE
  7
样式 2
  9
$CLAYER
  8
标注
  9
$CELTYPE
  6
ByLayer
  9
$CECOLOR
 62
     0
  9
$CELTSCALE
 40
1.0
  9
$DISPSILH
 70
     0
  9
$DIMSCALE
 40
1.0
  9
$DIMASZ
 40
25.0
  9
$DIMEXO
 40
2.0
  9
$DIMDLI
 40
0.38
  9
$DIMRND
 40
0.0
  9
$DIMDLE
 40
0.0
  9
$DIMEXE
 40
0.18
  9
$DIMTP
 40
0.0
  9
$DIMTM
 40
0.0
  9
$DIMTXT
 40
25.0
  9
$DIMCEN
 40
0.0
  9
$DIMTSZ
 40
0.0
  9
$DIMTOL
 70
     0
  9
$DIMLIM
 70
     0
  9
$DIMTIH
 70
     0
  9
$DIMTOH
 70
     0
  9
$DIMSE1
 70
     0
  9
$DIMSE2
 70
     0
  9
$DIMTAD
 70
     0
  9
$DIMZIN
 70
     0
  9
$DIMBLK
  1

  9
$DIMASO
 70
     1
  9
$DIMSHO
 70
     1
  9
$DIMPOST
  1

  9
$DIMAPOST
  1

  9
$DIMALT
 70
     1
  9
$DIMALTD
 70
     2
  9
$DIMALTF
 40
0.03937
  9
$DIMLFAC
 40
1.0
  9
$DIMTOFL
 70
     0
  9
$DIMTVP
 40
0.0
  9
$DIMTIX
 70
     0
  9
$DIMSOXD
 70
     0
  9
$DIMSAH
 70
     0
  9
$DIMBLK1
  1

  9
$DIMBLK2
  1

  9
$DIMSTYLE
  2
Standard
  9
$DIMCLRD
 70
     2
  9
$DIMCLRE
 70
     2
  9
$DIMCLRT
 70
     2
  9
$DIMTFAC
 40
1.0
  9
$DIMGAP
 40
1.0
  9
$DIMJUST
 70
     0
  9
$DIMSD1
 70
     0
  9
$DIMSD2
 70
     0
  9
$DIMTOLJ
 70
     1
  9
$DIMTZIN
 70
     0
  9
$DIMALTZ
 70
     0
  9
$DIMALTTZ
 70
     0
  9
$DIMUPT
 70
     0
  9
$DIMDEC
 70
     2
  9
$DIMTDEC
 70
     2
  9
$DIMALTU
 70
     2
  9
$DIMALTTD
 70
     2
  9
$DIMTXSTY
  7
Standard
  9
$DIMAUNIT
 70
     0
  9
$DIMADEC
 70
     0
  9
$DIMALTRND
 40
0.0
  9
$DIMAZIN
 70
     0
  9
$DIMDSEP
 70
    46
  9
$DIMATFIT
 70
     3
  9
$DIMFRAC
 70
     0
  9
$DIMLDRBLK
  1

  9
$DIMLUNIT
 70
     2
  9
$DIMLWD
 70
    -1
  9
$DIMLWE
 70
    -1
  9
$DIMTMOVE
 70
     0
  9
$DIMFXL
 40
1.0
  9
$DIMFXLON
 70
     0
  9
$DIMJOGANG
 40
0.7853981633974483
  9
$DIMTFILL
 70
     0
  9
$DIMTFILLCLR
 70
     2
  9
$DIMARCSYM
 70
     0
  9
$DIMLTYPE
  6
ByLayer
  9
$DIMLTEX1
  6
ByLayer
  9
$DIMLTEX2
  6
ByLayer
  9
$DIMTXTDIRECTION
 70
     0
  9
$LUNITS
 70
     2
  9
$LUPREC
 70
     3
  9
$SKETCHINC
 40
1.0
  9
$FILLETRAD
 40
30.0
  9
$AUNITS
 70
     0
  9
$AUPREC
 70
     0
  9
$MENU
  1
.
  9
$ELEVATION
 40
0.0
  9
$PELEVATION
 40
0.0
  9
$THICKNESS
 40
0.0
  9
$LIMCHECK
 70
     0
  9
$CHAMFERA
 40
10.0
  9
$CHAMFERB
 40
10.0
  9
$CHAMFERC
 40
0.0
  9
$CHAMFERD
 40
0.0
  9
$SKPOLY
 70
     0
  9
$TDCREATE
 40
2455815.639909213
  9
$TDUCREATE
 40
2455815.306575880
  9
$TDUPDATE
 40
2457272.698655996
  9
$TDUUPDATE
 40
2457272.365322662
  9
$TDINDWG
 40
25.0029452315
  9
$TDUSRTIMER
 40
25.0029437847
  9
$USRTIMER
 70
     1
  9
$ANGBASE
 50
0.0
  9
$ANGDIR
 70
     0
  9
$PDMODE
 70
     0
  9
$PDSIZE
 40
0.0
  9
$PLINEWID
 40
0.0
  9
$SPLFRAME
 70
     0
  9
$SPLINETYPE
 70
     6
  9
$SPLINESEGS
 70
     8
  9
$HANDSEED
  5
119
  9
$SURFTAB1
 70
     6
  9
$SURFTAB2
 70
     6
  9
$SURFTYPE
 70
     6
  9
$SURFU
 70
     6
  9
$SURFV
 70
     6
  9
$UCSBASE
  2

  9
$UCSNAME
  2

  9
$UCSORG
 10
0.0
 20
0.0
 30
0.0
  9
$UCSXDIR
 10
1.0
 20
0.0
 30
0.0
  9
$UCSYDIR
 10
0.0
 20
1.0
 30
0.0
  9
$UCSORTHOREF
  2

  9
$UCSORTHOVIEW
 70
     0
  9
$UCSORGTOP
 10
0.0
 20
0.0
 30
0.0
  9
$UCSORGBOTTOM
 10
0.0
 20
0.0
 30
0.0
  9
$UCSORGLEFT
 10
0.0
 20
0.0
 30
0.0
  9
$UCSORGRIGHT
 10
0.0
 20
0.0
 30
0.0
  9
$UCSORGFRONT
 10
0.0
 20
0.0
 30
0.0
  9
$UCSORGBACK
 10
0.0
 20
0.0
 30
0.0
  9
$PUCSBASE
  2

  9
$PUCSNAME
  2

  9
$PUCSORG
 10
0.0
 20
0.0
 30
0.0
  9
$PUCSXDIR
 10
1.0
 20
0.0
 30
0.0
  9
$PUCSYDIR
 10
0.0
 20
1.0
 30
0.0
  9
$PUCSORTHOREF
  2

  9
$PUCSORTHOVIEW
 70
     0
  9
$PUCSORGTOP
 10
0.0
 20
0.0
 30
0.0
  9
$PUCSORGBOTTOM
 10
0.0
 20
0.0
 30
0.0
  9
$PUCSORGLEFT
 10
0.0
 20
0.0
 30
0.0
  9
$PUCSORGRIGHT
 10
0.0
 20
0.0
 30
0.0
  9
$PUCSORGFRONT
 10
0.0
 20
0.0
 30
0.0
  9
$PUCSORGBACK
 10
0.0
 20
0.0
 30
0.0
  9
$USERI1
 70
     0
  9
$USERI2
 70
     0
  9
$USERI3
 70
     0
  9
$USERI4
 70
     0
  9
$USERI5
 70
     0
  9
$USERR1
 40
0.0
  9
$USERR2
 40
0.0
  9
$USERR3
 40
0.0
  9
$USERR4
 40
0.0
  9
$USERR5
 40
2.5
  9
$WORLDVIEW
 70
     1
  9
$SHADEDGE
 70
     3
  9
$SHADEDIF
 70
    70
  9
$TILEMODE
 70
     1
  9
$MAXACTVP
 70
    64
  9
$PINSBASE
 10
0.0
 20
0.0
 30
0.0
  9
$PLIMCHECK
 70
     0
  9
$PEXTMIN
 10
25.69999999999999
 20
19.5
 30
0.0
  9
$PEXTMAX
 10
231.3
 20
175.5
 30
0.0
  9
$PLIMMIN
 10
-20.0
 20
-7.5
  9
$PLIMMAX
 10
277.0
 20
202.5
  9
$UNITMODE
 70
     0
  9
$VISRETAIN
 70
     1
  9
$PLINEGEN
 70
     0
  9
$PSLTSCALE
 70
     1
  9
$TREEDEPTH
 70
  3020
  9
$CMLSTYLE
  2
Standard
  9
$CMLJUST
 70
     0
  9
$CMLSCALE
 40
20.0
  9
$PROXYGRAPHICS
 70
     1
  9
$MEASUREMENT
 70
     1
  9
$CELWEIGHT
370
    -1
  9
$ENDCAPS
280
     0
  9
$JOINSTYLE
280
     0
  9
$LWDISPLAY
290
     0
  9
$INSUNITS
 70
     4
  9
$HYPERLINKBASE
  1

  9
$STYLESHEET
  1

  9
$XEDIT
290
     1
  9
$CEPSNTYPE
380
     0
  9
$PSTYLEMODE
290
     1
  9
$FINGERPRINTGUID
  2
{8F4A4DAA-06B5-40ED-8A06-3828E6BA0260}
  9
$VERSIONGUID
  2
{40A7D2DC-8FEE-406A-B77E-D4AECF301961}
  9
$EXTNAMES
290
     1
  9
$PSVPSCALE
 40
0.0
  9
$OLESTARTUP
290
     0
  9
$SORTENTS
280
   127
  9
$INDEXCTL
280
     0
  9
$HIDETEXT
280
     1
  9
$XCLIPFRAME
280
     0
  9
$HALOGAP
280
     0
  9
$OBSCOLOR
 70
   257
  9
$OBSLTYPE
280
     0
  9
$INTERSECTIONDISPLAY
280
     0
  9
$INTERSECTIONCOLOR
 70
   257
  9
$DIMASSOC
280
     2
  9
$PROJECTNAME
  1

  9
$CAMERADISPLAY
290
     0
  9
$LENSLENGTH
 40
50.0
  9
$CAMERAHEIGHT
 40
0.0
  9
$STEPSPERSEC
 40
2.0
  9
$STEPSIZE
 40
6.0
  9
$3DDWFPREC
 40
2.0
  9
$PSOLWIDTH
 40
5.0
  9
$PSOLHEIGHT
 40
80.0
  9
$LOFTANG1
 40
1.570796326794896
  9
$LOFTANG2
 40
1.570796326794896
  9
$LOFTMAG1
 40
0.0
  9
$LOFTMAG2
 40
0.0
  9
$LOFTPARAM
 70
     7
  9
$LOFTNORMALS
280
     1
  9
$LATITUDE
 40
37.795
  9
$LONGITUDE
 40
-122.394
  9
$NORTHDIRECTION
 40
0.0
  9
$TIMEZONE
 70
 -8000
  9
$LIGHTGLYPHDISPLAY
280
     1
  9
$TILEMODELIGHTSYNCH
280
     1
  9
$CMATERIAL
347
3A
  9
$SOLIDHIST
280
     1
  9
$SHOWHIST
280
     1
  9
$DWFFRAME
280
     2
  9
$DGNFRAME
280
     0
  9
$REALWORLDSCALE
290
     1
  9
$INTERFERECOLOR
 62
     1
  9
$INTERFEREOBJVS
345
48
  9
$INTERFEREVPVS
346
49
  9
$CSHADOW
280
     0
  9
$SHADOWPLANELOCATION
 40
0.0
  0
ENDSEC
  0
SECTION
  2
CLASSES
  0
CLASS
  1
ACDBDICTIONARYWDFLT
  2
AcDbDictionaryWithDefault
  3
ObjectDBX Classes
 90
        0
 91
        1
280
     0
281
     0
  0
CLASS
  1
DICTIONARYVAR
  2
AcDbDictionaryVar
  3
ObjectDBX Classes
 90
        0
 91
        9
280
     0
281
     0
  0
CLASS
  1
TABLESTYLE
  2
AcDbTableStyle
  3
ObjectDBX Classes
 90
     4095
 91
        1
280
     0
281
     0
  0
CLASS
  1
MATERIAL
  2
AcDbMaterial
  3
ObjectDBX Classes
 90
     1153
 91
        3
280
     0
281
     0
  0
CLASS
  1
VISUALSTYLE
  2
AcDbVisualStyle
  3
ObjectDBX Classes
 90
     4095
 91
        3
280
     0
281
     0
  0
CLASS
  1
ACAD_EVALUATION_GRAPH
  2
AcDbEvalGraph
  3
ObjectDBX Classes
 90
     1153
 91
        0
280
     0
281
     0
  0
CLASS
  1
BLOCKLOOKUPPARAMETER
  2
AcDbBlockLookupParameter
  3
ObjectDBX Classes
 90
     1153
 91
        0
280
     0
281
     0
  0
CLASS
  1
BLOCKLOOKUPGRIP
  2
AcDbBlockLookupGrip
  3
ObjectDBX Classes
 90
     1153
 91
        0
280
     0
281
     0
  0
CLASS
  1
BLOCKGRIPLOCATIONCOMPONENT
  2
AcDbBlockGripExpr
  3
ObjectDBX Classes
 90
     1153
 91
        0
280
     0
281
     0
  0
CLASS
  1
BLOCKLOOKUPACTION
  2
AcDbBlockLookupAction
  3
ObjectDBX Classes
 90
     1153
 91
        0
280
     0
281
     0
  0
CLASS
  1
BLOCKLINEARPARAMETER
  2
AcDbBlockLinearParameter
  3
ObjectDBX Classes
 90
     1153
 91
        0
280
     0
281
     0
  0
CLASS
  1
BLOCKSCALEACTION
  2
AcDbBlockScaleAction
  3
ObjectDBX Classes
 90
     1153
 91
        0
280
     0
281
     0
  0
CLASS
  1
ACDB_DYNAMICBLOCKPURGEPREVENTER_VERSION
  2
AcDbDynamicBlockPurgePreventer
  3
ObjectDBX Classes
 90
     1153
 91
        0
280
     0
281
     0
  0
CLASS
  1
ACDB_BLOCKREPRESENTATION_DATA
  2
AcDbBlockRepresentationData
  3
ObjectDBX Classes
 90
     1153
 91
        0
280
     0
281
     0
  0
CLASS
  1
BLOCKSTRETCHACTION
  2
AcDbBlockStretchAction
  3
ObjectDBX Classes
 90
     1153
 91
        0
280
     0
281
     0
  0
CLASS
  1
BLOCKMOVEACTION
  2
AcDbBlockMoveAction
  3
ObjectDBX Classes
 90
     1153
 91
        0
280
     0
281
     0
  0
CLASS
  1
BLOCKVISIBILITYPARAMETER
  2
AcDbBlockVisibilityParameter
  3
ObjectDBX Classes
 90
     1153
 91
        0
280
     0
281
     0
  0
CLASS
  1
SORTENTSTABLE
  2
AcDbSortentsTable
  3
ObjectDBX Classes
 90
        0
 91
        2
280
     0
281
     0
  0
CLASS
  1
BLOCKVISIBILITYGRIP
  2
AcDbBlockVisibilityGrip
  3
ObjectDBX Classes
 90
     1153
 91
        0
280
     0
281
     0
  0
CLASS
  1
BLOCKFLIPPARAMETER
  2
AcDbBlockFlipParameter
  3
ObjectDBX Classes
 90
     1153
 91
        0
280
     0
281
     0
  0
CLASS
  1
BLOCKFLIPGRIP
  2
AcDbBlockFlipGrip
  3
ObjectDBX Classes
 90
     1153
 91
        0
280
     0
281
     0
  0
CLASS
  1
BLOCKFLIPACTION
  2
AcDbBlockFlipAction
  3
ObjectDBX Classes
 90
     1153
 91
        0
280
     0
281
     0
  0
CLASS
  1
BLOCKALIGNMENTPARAMETER
  2
AcDbBlockAlignmentParameter
  3
ObjectDBX Classes
 90
     1153
 91
        0
280
     0
281
     0
  0
CLASS
  1
BLOCKALIGNMENTGRIP
  2
AcDbBlockAlignmentGrip
  3
ObjectDBX Classes
 90
     1153
 91
        0
280
     0
281
     0
  0
CLASS
  1
BLOCKPOINTPARAMETER
  2
AcDbBlockPointParameter
  3
ObjectDBX Classes
 90
     1153
 91
        0
280
     0
281
     0
  0
CLASS
  1
BLOCKLINEARGRIP
  2
AcDbBlockLinearGrip
  3
ObjectDBX Classes
 90
     1153
 91
        0
280
     0
281
     0
  0
CLASS
  1
BLOCKBASEPOINTPARAMETER
  2
AcDbBlockBasepointParameter
  3
ObjectDBX Classes
 90
     1153
 91
        0
280
     0
281
     0
  0
CLASS
  1
BLOCKARRAYACTION
  2
AcDbBlockArrayAction
  3
ObjectDBX Classes
 90
     1153
 91
        0
280
     0
281
     0
  0
CLASS
  1
BLOCKROTATIONPARAMETER
  2
AcDbBlockRotationParameter
  3
ObjectDBX Classes
 90
     1153
 91
        0
280
     0
281
     0
  0
CLASS
  1
BLOCKROTATIONGRIP
  2
AcDbBlockRotationGrip
  3
ObjectDBX Classes
 90
     1153
 91
        0
280
     0
281
     0
  0
CLASS
  1
BLOCKROTATEACTION
  2
AcDbBlockRotateAction
  3
ObjectDBX Classes
 90
     1153
 91
        0
280
     0
281
     0
  0
CLASS
  1
BLOCKPOLARPARAMETER
  2
AcDbBlockPolarParameter
  3
ObjectDBX Classes
 90
     1153
 91
        0
280
     0
281
     0
  0
CLASS
  1
BLOCKPOLARGRIP
  2
AcDbBlockPolarGrip
  3
ObjectDBX Classes
 90
     1153
 91
        0
280
     0
281
     0
  0
CLASS
  1
BLOCKPOLARSTRETCHACTION
  2
AcDbBlockPolarStretchAction
  3
ObjectDBX Classes
 90
     1153
 91
        0
280
     0
281
     0
  0
CLASS
  1
BLOCKXYPARAMETER
  2
AcDbBlockXYParameter
  3
ObjectDBX Classes
 90
     1153
 91
        0
280
     0
281
     0
  0
CLASS
  1
BLOCKXYGRIP
  2
AcDbBlockXYGrip
  3
ObjectDBX Classes
 90
     1153
 91
        0
280
     0
281
     0
  0
CLASS
  1
ACAD_TABLE
  2
AcDbTable
  3
ObjectDBX Classes
 90
     1025
 91
        0
280
     0
281
     1
  0
CLASS
  1
DIMASSOC
  2
AcDbDimAssoc
  3
"AcDbDimAssoc|Product Desc:     AcDim ARX App For Dimension|Company:          Autodesk, Inc.|WEB Address:      www.autodesk.com"
 90
        0
 91
        7
280
     0
281
     0
  0
CLASS
  1
LARGE_RADIAL_DIMENSION
  2
AcDbRadialDimensionLarge
  3
ObjectDBX Classes
 90
     1025
 91
        0
280
     0
281
     1
  0
CLASS
  1
SCALE
  2
AcDbScale
  3
ObjectDBX Classes
 90
     1153
 91
       33
280
     0
281
     0
  0
CLASS
  1
MLEADERSTYLE
  2
AcDbMLeaderStyle
  3
ACDB_MLEADERSTYLE_CLASS
 90
     4095
 91
        0
280
     0
281
     0
  0
CLASS
  1
VLO-VL
  2
vlo_VL
  3
VL|AutoLISP based application
 90
      129
 91
        0
280
     1
281
     0
  0
CLASS
  1
CELLSTYLEMAP
  2
AcDbCellStyleMap
  3
ObjectDBX Classes
 90
     1152
 91
        1
280
     0
281
     0
  0
CLASS
  1
RASTERVARIABLES
  2
AcDbRasterVariables
  3
ISM
 90
        0
 91
        0
280
     0
281
     0
  0
CLASS
  1
IMAGEDEF
  2
AcDbRasterImageDef
  3
ISM
 90
        0
 91
        0
280
     0
281
     0
  0
CLASS
  1
IMAGEDEF_REACTOR
  2
AcDbRasterImageDefReactor
  3
ISM
 90
        1
 91
        0
280
     0
281
     0
  0
CLASS
  1
IMAGE
  2
AcDbRasterImage
  3
ISM
 90
     2175
 91
        0
280
     0
281
     1
  0
CLASS
  1
ACDBSECTIONVIEWSTYLE
  2
AcDbSectionViewStyle
  3
ObjectDBX Classes
 90
     1025
 91
        0
280
     0
281
     0
  0
CLASS
  1
ACDBDETAILVIEWSTYLE
  2
AcDbDetailViewStyle
  3
ObjectDBX Classes
 90
     1025
 91
        0
280
     0
281
     0
  0
CLASS
  1
SOLID_BACKGROUND
  2
AcDbSolidBackground
  3
SCENEOE
 90
     4095
 91
        0
280
     0
281
     0
  0
CLASS
  1
NPOCOLLECTION
  2
AcDbImpNonPersistentObjectsCollection
  3
ObjectDBX Classes
 90
     1153
 91
        0
280
     0
281
     0
  0
ENDSEC
  0
SECTION
  2
TABLES
  0
TABLE
  2
VPORT
  5
27
102
{ACAD_XDICTIONARY
360
2C
102
}
330
0
100
AcDbSymbolTable
 70
     1
  0
VPORT
  5
28
330
27
100
AcDbSymbolTableRecord
100
AcDbViewportTableRecord
  2
*Active
 70
     0
 10
0.0
 20
0.0
 11
1.0
 21
1.0
 12
-24158.35145445579
 22
30882.11314779448
 13
0.0
 23
0.0
 14
10.0
 24
10.0
 15
10.0
 25
10.0
 16
0.0
 26
0.0
 36
1.0
 17
0.0
 27
0.0
 37
0.0
 40
3672.182709988546
 41
2.720081135902637
 42
50.0
 43
0.0
 44
0.0
 50
0.0
 51
0.0
 71
     0
 72
  1000
 73
     1
 74
     3
 75
     0
 76
     1
 77
     0
 78
     0
281
     0
 65
     1
110
0.0
120
0.0
130
0.0
111
1.0
121
0.0
131
0.0
112
0.0
122
1.0
132
0.0
 79
     0
146
0.0
348
29
 60
     2
 61
     5
292
     1
282
     1
141
0.0
142
0.0
 63
   250
421
  3355443
1001
ACAD_NAV_VCDISPLAY
1070
     3
  0
ENDTAB
  0
TABLE
  2
LTYPE
  5
22
330
0
100
AcDbSymbolTable
 70
     1
  0
LTYPE
  5
23
330
22
100
AcDbSymbolTableRecord
100
AcDbLinetypeTableRecord
  2
ByBlock
 70
     0
  3

 72
    65
 73
     0
 40
0.0
  0
LTYPE
  5
24
330
22
100
AcDbSymbolTableRecord
100
AcDbLinetypeTableRecord
  2
ByLayer
 70
     0
  3

 72
    65
 73
     0
 40
0.0
  0
LTYPE
  5
E
330
22
100
AcDbSymbolTableRecord
100
AcDbLinetypeTableRecord
  2
Continuous
 70
     0
  3
Solid line
 72
    65
 73
     0
 40
0.0
  0
ENDTAB
  0
TABLE
  2
LAYER
  5
19
102
{ACAD_XDICTIONARY
360
1A
102
}
330
0
100
AcDbSymbolTable
 70
     4
  0
LAYER
  5
6
102
{ACAD_XDICTIONARY
360
7
102
}
330
19
100
AcDbSymbolTableRecord
100
AcDbLayerTableRecord
  2
0
 70
     0
 62
     7
  6
Continuous
370
    -3
390
9
347
C
348
0
  0
LAYER
  5
9D
330
19
100
AcDbSymbolTableRecord
100
AcDbLayerTableRecord
  2
Defpoints
 70
     0
 62
     8
  6
Continuous
290
     0
370
    -3
390
9
347
C
348
0
  0
LAYER
  5
40
102
{ACAD_XDICTIONARY
360
41
102
}
330
19
100
AcDbSymbolTableRecord
100
AcDbLayerTableRecord
  2
标注
 70
     0
 62
     1
  6
Continuous
370
    -3
390
9
347
C
348
0
1001
AcAecLayerStandard
1000

1000

  0
LAYER
  5
87
102
{ACAD_XDICTIONARY
360
88
102
}
330
19
100
AcDbSymbolTableRecord
100
AcDbLayerTableRecord
  2
填充层
 70
     0
 62
     7
  6
Continuous
370
    -3
390
9
347
C
348
0
1001
AcAecLayerStandard
1000

1000

  0
ENDTAB
  0
TABLE
  2
STYLE
  5
1F
330
0
100
AcDbSymbolTable
 70
     2
  0
STYLE
  5
20
330
1F
100
AcDbSymbolTableRecord
100
AcDbTextStyleTableRecord
  2
Standard
 70
     0
 40
0.0
 41
0.7800000000000001
 50
0.0
 71
     0
 42
2.5
  3
times.ttf
  4

1001
ACAD
1000
Times New Roman
1071
       18
  0
STYLE
  5
44
330
1F
100
AcDbSymbolTableRecord
100
AcDbTextStyleTableRecord
  2
样式 2
 70
     0
 40
0.0
 41
0.7800000000000001
 50
0.0
 71
     0
 42
2.5
  3
@Dotum.shx
  4

  0
ENDTAB
  0
TABLE
  2
VIEW
  5
25
330
0
100
AcDbSymbolTable
 70
     0
  0
ENDTAB
  0
TABLE
  2
UCS
  5
26
330
0
100
AcDbSymbolTable
 70
     0
  0
ENDTAB
  0
TABLE
  2
APPID
  5
2D
330
0
100
AcDbSymbolTable
 70
     7
  0
APPID
  5
1E
330
2D
100
AcDbSymbolTableRecord
100
AcDbRegAppTableRecord
  2
ACAD
 70
     0
  0
APPID
  5
13
330
2D
100
AcDbSymbolTableRecord
100
AcDbRegAppTableRecord
  2
ACAD_PSEXT
 70
     0
  0
APPID
  5
43
330
2D
100
AcDbSymbolTableRecord
100
AcDbRegAppTableRecord
  2
AcAecLayerStandard
 70
     0
  0
APPID
  5
30
330
2D
100
AcDbSymbolTableRecord
100
AcDbRegAppTableRecord
  2
ACAD_DSTYLE_DIMJAG
 70
     0
  0
APPID
  5
31
330
2D
100
AcDbSymbolTableRecord
100
AcDbRegAppTableRecord
  2
ACAD_DSTYLE_DIMTALN
 70
     0
  0
APPID
  5
FA
330
2D
100
AcDbSymbolTableRecord
100
AcDbRegAppTableRecord
  2
ACAD_DSTYLE_DIMRADIAL_EXTENSION
 70
     0
  0
APPID
  5
2B
330
2D
100
AcDbSymbolTableRecord
100
AcDbRegAppTableRecord
  2
ACAD_NAV_VCDISPLAY
 70
     0
  0
ENDTAB
  0
TABLE
  2
DIMSTYLE
  5
2E
330
0
100
AcDbSymbolTable
 70
     5
100
AcDbDimStyleTable
 71
     5
340
2F
340
32
340
33
340
34
340
35
  0
DIMSTYLE
105
2F
102
{ACAD_REACTORS
330
90
330
A1
330
B1
330
C1
330
D1
330
DF
330
EF
330
FB
102
}
330
2E
100
AcDbSymbolTableRecord
100
AcDbDimStyleTableRecord
  2
Standard
 70
     0
 41
25.0
 42
2.0
 70
     2
 73
     0
 74
     0
140
25.0
141
0.0
143
0.03937
147
1.0
170
     1
176
     2
177
     2
178
     2
271
     2
272
     2
340
20
345
24
346
24
347
24
371
    -1
372
    -1
1001
ACAD_DSTYLE_DIMJAG
1070
   388
1040
1.5
1001
ACAD_DSTYLE_DIMTALN
1070
   392
1070
     0
  0
DIMSTYLE
105
35
330
2E
100
AcDbSymbolTableRecord
100
AcDbDimStyleTableRecord
  2
ISO-60
 70
     0
 41
55.0
 42
5.0
 43
3.75
 44
1.25
 73
     0
 77
     1
 78
     8
140
60.0
141
2.5
143
0.03937007874016
147
5.0
171
     3
271
     0
272
     0
274
     3
283
     0
284
     8
340
20
  0
DIMSTYLE
105
34
330
2E
100
AcDbSymbolTableRecord
100
AcDbDimStyleTableRecord
  2
0-ISO-40
 70
     0
 41
35.0
 42
5.0
 43
3.75
 44
1.25
 73
     0
 77
     1
 78
     8
140
40.0
141
2.5
143
0.03937007874016
147
5.0
171
     3
172
     1
176
   256
177
   256
178
   256
271
     2
272
     2
274
     3
283
     0
284
     8
340
20
345
24
346
24
347
24
371
    -1
372
    -1
  0
DIMSTYLE
105
32
330
2E
100
AcDbSymbolTableRecord
100
AcDbDimStyleTableRecord
  2
ISO-35
 70
     0
 41
30.0
 42
8.0
 43
3.75
 44
1.25
 73
     0
 77
     1
 78
     8
140
35.0
141
2.5
143
0.03937007874016
147
3.0
171
     3
176
   256
177
   256
178
   256
271
     2
272
     2
274
     3
283
     0
284
     8
340
20
345
24
346
24
347
24
371
    -1
372
    -1
  0
DIMSTYLE
105
33
330
2E
100
AcDbSymbolTableRecord
100
AcDbDimStyleTableRecord
  2
ISO-45
 70
     0
 41
35.0
 42
2.0
 43
3.75
 44
2.0
 73
     0
 77
     1
 78
     8
140
45.0
141
2.5
143
0.03937007874016
147
3.0
171
     3
176
   256
177
   256
178
   256
271
     2
272
     2
274
     3
283
     0
284
     8
340
20
345
24
346
24
347
24
371
    -1
372
    -1
  0
ENDTAB
  0
TABLE
  2
BLOCK_RECORD
  5
1
330
0
100
AcDbSymbolTable
 70
     8
  0
BLOCK_RECORD
  5
2
102
{ACAD_XDICTIONARY
360
3
102
}
330
1
100
AcDbSymbolTableRecord
100
AcDbBlockTableRecord
  2
*Model_Space
340
10
 70
     0
280
     1
281
     0
  0
BLOCK_RECORD
  5
14
330
1
100
AcDbSymbolTableRecord
100
AcDbBlockTableRecord
  2
*Paper_Space
340
17
 70
     0
280
     1
281
     0
  0
BLOCK_RECORD
  5
93
330
1
100
AcDbSymbolTableRecord
100
AcDbBlockTableRecord
  2
*D0
340
0
 70
     0
280
     1
281
     0
  0
BLOCK_RECORD
  5
A4
330
1
100
AcDbSymbolTableRecord
100
AcDbBlockTableRecord
  2
*D1
340
0
 70
     0
280
     1
281
     0
  0
BLOCK_RECORD
  5
B4
330
1
100
AcDbSymbolTableRecord
100
AcDbBlockTableRecord
  2
*D2
340
0
 70
     0
280
     1
281
     0
  0
BLOCK_RECORD
  5
C4
330
1
100
AcDbSymbolTableRecord
100
AcDbBlockTableRecord
  2
*D3
340
0
 70
     0
280
     1
281
     0
  0
BLOCK_RECORD
  5
D2
330
1
100
AcDbSymbolTableRecord
100
AcDbBlockTableRecord
  2
*D4
340
0
 70
     0
280
     1
281
     0
  0
BLOCK_RECORD
  5
E2
330
1
100
AcDbSymbolTableRecord
100
AcDbBlockTableRecord
  2
*D5
340
0
 70
     0
280
     1
281
     0
  0
BLOCK_RECORD
  5
F2
330
1
100
AcDbSymbolTableRecord
100
AcDbBlockTableRecord
  2
*D6
340
0
 70
     0
280
     1
281
     0
  0
BLOCK_RECORD
  5
FE
330
1
100
AcDbSymbolTableRecord
100
AcDbBlockTableRecord
  2
*D7
340
0
 70
     0
280
     1
281
     0
  0
ENDTAB
  0
ENDSEC
  0
SECTION
  2
BLOCKS
  0
BLOCK
  5
5
330
2
100
AcDbEntity
  8
0
100
AcDbBlockBegin
  2
*Model_Space
 70
     0
 10
0.0
 20
0.0
 30
0.0
  3
*Model_Space
  1

  0
ENDBLK
  5
F
330
2
100
AcDbEntity
  8
0
100
AcDbBlockEnd
  0
BLOCK
  5
15
330
14
100
AcDbEntity
 67
     1
  8
0
100
AcDbBlockBegin
  2
*Paper_Space
 70
     0
 10
0.0
 20
0.0
 30
0.0
  3
*Paper_Space
  1

  0
ENDBLK
  5
16
330
14
100
AcDbEntity
 67
     1
  8
0
100
AcDbBlockEnd
  0
BLOCK
  5
94
330
93
100
AcDbEntity
  8
0
 62
     0
370
   100
100
AcDbBlockBegin
  2
*D0
 70
     1
 10
0.0
 20
0.0
 30
0.0
  3
*D0
  1

  0
LINE
  5
95
330
93
100
AcDbEntity
  8
标注
 62
     2
440
 16777216
100
AcDbLine
 10
-24977.34943348688
 20
31114.22472699902
 30
0.0
 11
-24907.95813318132
 21
31114.22472699902
 31
0.0
  0
LINE
  5
96
330
93
100
AcDbEntity
  8
标注
 62
     2
440
 16777216
100
AcDbLine
 10
-24977.34943348688
 20
30708.22472699902
 30
0.0
 11
-24907.95813318132
 21
30708.22472699902
 31
0.0
  0
LINE
  5
97
330
93
100
AcDbEntity
  8
标注
 62
     2
440
 16777216
100
AcDbLine
 10
-24908.13813318132
 20
31089.22472699902
 30
0.0
 11
-24908.13813318132
 21
30995.99599592476
 31
0.0
  0
LINE
  5
98
330
93
100
AcDbEntity
  8
标注
 62
     2
440
 16777216
100
AcDbLine
 10
-24908.13813318132
 20
30733.22472699902
 30
0.0
 11
-24908.13813318132
 21
30826.45345807328
 31
0.0
  0
SOLID
  5
99
330
93
100
AcDbEntity
  8
标注
 62
     2
440
 16777216
370
   100
100
AcDbTrace
 10
-24912.30479984799
 20
31089.22472699902
 30
0.0
 11
-24903.97146651465
 21
31089.22472699902
 31
0.0
 12
-24908.13813318132
 22
31114.22472699902
 32
0.0
 13
-24908.13813318132
 23
31114.22472699902
 33
0.0
  0
SOLID
  5
9A
330
93
100
AcDbEntity
  8
标注
 62
     2
440
 16777216
370
   100
100
AcDbTrace
 10
-24912.30479984799
 20
30733.22472699902
 30
0.0
 11
-24903.97146651465
 21
30733.22472699902
 31
0.0
 12
-24908.13813318132
 22
30708.22472699902
 32
0.0
 13
-24908.13813318132
 23
30708.22472699902
 33
0.0
  0
MTEXT
  5
9B
330
93
100
AcDbEntity
  8
标注
 62
     2
440
 16777216
370
   100
100
AcDbMText
 10
-24908.13813318132
 20
30911.22472699901
 30
0.0
 40
25.0
 41
0.0
 46
0.0
 71
     5
 72
     1
  1
\A1;406.00 [15.98]
 11
0.0000000000000001
 21
1.0
 31
0.0
 73
     1
 44
1.0
  0
POINT
  5
9C
330
93
100
AcDbEntity
  8
Defpoints
 62
     0
440
 16777216
370
   100
100
AcDbPoint
 10
-24979.34943348688
 20
31114.22472699902
 30
0.0
  0
POINT
  5
9E
330
93
100
AcDbEntity
  8
Defpoints
 62
     0
440
 16777216
370
   100
100
AcDbPoint
 10
-24979.34943348688
 20
30708.22472699902
 30
0.0
  0
POINT
  5
9F
330
93
100
AcDbEntity
  8
Defpoints
 62
     0
440
 16777216
370
   100
100
AcDbPoint
 10
-24908.13813318132
 20
30708.22472699902
 30
0.0
  0
ENDBLK
  5
A0
330
93
100
AcDbEntity
  8
0
 62
     0
370
   100
100
AcDbBlockEnd
  0
BLOCK
  5
A5
330
A4
100
AcDbEntity
  8
0
 62
     0
370
   100
100
AcDbBlockBegin
  2
*D1
 70
     1
 10
0.0
 20
0.0
 30
0.0
  3
*D1
  1

  0
LINE
  5
A6
330
A4
100
AcDbEntity
  8
标注
 62
     2
440
 16777216
100
AcDbLine
 10
-25142.34943348689
 20
30729.22472699902
 30
0.0
 11
-25142.34943348689
 21
30652.03046570259
 31
0.0
  0
LINE
  5
A7
330
A4
100
AcDbEntity
  8
标注
 62
     2
440
 16777216
100
AcDbLine
 10
-24956.34943348688
 20
30729.22472699902
 30
0.0
 11
-24956.34943348688
 21
30652.03046570259
 31
0.0
  0
LINE
  5
A8
330
A4
100
AcDbEntity
  8
标注
 62
     2
440
 16777216
100
AcDbLine
 10
-25167.34943348688
 20
30652.2104657026
 30
0.0
 11
-25192.34943348688
 21
30652.2104657026
 31
0.0
  0
LINE
  5
A9
330
A4
100
AcDbEntity
  8
标注
 62
     2
440
 16777216
100
AcDbLine
 10
-24931.34943348688
 20
30652.2104657026
 30
0.0
 11
-24906.34943348688
 21
30652.2104657026
 31
0.0
  0
SOLID
  5
AA
330
A4
100
AcDbEntity
  8
标注
 62
     2
440
 16777216
370
   100
100
AcDbTrace
 10
-25167.34943348688
 20
30656.37713236927
 30
0.0
 11
-25167.34943348688
 21
30648.04379903593
 31
0.0
 12
-25142.34943348689
 22
30652.2104657026
 32
0.0
 13
-25142.34943348689
 23
30652.2104657026
 33
0.0
  0
SOLID
  5
AB
330
A4
100
AcDbEntity
  8
标注
 62
     2
440
 16777216
370
   100
100
AcDbTrace
 10
-24931.34943348688
 20
30656.37713236927
 30
0.0
 11
-24931.34943348688
 21
30648.04379903593
 31
0.0
 12
-24956.34943348688
 22
30652.2104657026
 32
0.0
 13
-24956.34943348688
 23
30652.2104657026
 33
0.0
  0
MTEXT
  5
AC
330
A4
100
AcDbEntity
  8
标注
 62
     2
440
 16777216
370
   100
100
AcDbMText
 10
-25049.34943348688
 20
30652.2104657026
 30
0.0
 40
25.0
 41
0.0
 46
0.0
 71
     5
 72
     1
  1
\A1;186.00 [7.32]
 73
     1
 44
1.0
  0
POINT
  5
AD
330
A4
100
AcDbEntity
  8
Defpoints
 62
     0
440
 16777216
370
   100
100
AcDbPoint
 10
-25142.34943348689
 20
30731.22472699902
 30
0.0
  0
POINT
  5
AE
330
A4
100
AcDbEntity
  8
Defpoints
 62
     0
440
 16777216
370
   100
100
AcDbPoint
 10
-24956.34943348688
 20
30731.22472699902
 30
0.0
  0
POINT
  5
AF
330
A4
100
AcDbEntity
  8
Defpoints
 62
     0
440
 16777216
370
   100
100
AcDbPoint
 10
-24956.34943348688
 20
30652.2104657026
 30
0.0
  0
ENDBLK
  5
B0
330
A4
100
AcDbEntity
  8
0
 62
     0
370
   100
100
AcDbBlockEnd
  0
BLOCK
  5
B5
330
B4
100
AcDbEntity
  8
0
 62
     0
370
   100
100
AcDbBlockBegin
  2
*D2
 70
     1
 10
0.0
 20
0.0
 30
0.0
  3
*D2
  1

  0
LINE
  5
B6
330
B4
100
AcDbEntity
  8
标注
 62
     2
440
 16777216
100
AcDbLine
 10
-24455.88223782177
 20
31111.22472699902
 30
0.0
 11
-24348.51518918579
 21
31111.22472699902
 31
0.0
  0
LINE
  5
B7
330
B4
100
AcDbEntity
  8
标注
 62
     2
440
 16777216
100
AcDbLine
 10
-24447.88223782177
 20
30711.22472699902
 30
0.0
 11
-24348.51518918579
 21
30711.22472699902
 31
0.0
  0
LINE
  5
B8
330
B4
100
AcDbEntity
  8
标注
 62
     2
440
 16777216
100
AcDbLine
 10
-24348.69518918579
 20
31086.22472699902
 30
0.0
 11
-24348.69518918579
 21
30995.99599592476
 31
0.0
  0
LINE
  5
B9
330
B4
100
AcDbEntity
  8
标注
 62
     2
440
 16777216
100
AcDbLine
 10
-24348.69518918579
 20
30736.22472699902
 30
0.0
 11
-24348.69518918579
 21
30826.45345807328
 31
0.0
  0
SOLID
  5
BA
330
B4
100
AcDbEntity
  8
标注
 62
     2
440
 16777216
370
   100
100
AcDbTrace
 10
-24352.86185585246
 20
31086.22472699902
 30
0.0
 11
-24344.52852251912
 21
31086.22472699902
 31
0.0
 12
-24348.69518918579
 22
31111.22472699902
 32
0.0
 13
-24348.69518918579
 23
31111.22472699902
 33
0.0
  0
SOLID
  5
BB
330
B4
100
AcDbEntity
  8
标注
 62
     2
440
 16777216
370
   100
100
AcDbTrace
 10
-24352.86185585246
 20
30736.22472699902
 30
0.0
 11
-24344.52852251912
 21
30736.22472699902
 31
0.0
 12
-24348.69518918579
 22
30711.22472699902
 32
0.0
 13
-24348.69518918579
 23
30711.22472699902
 33
0.0
  0
MTEXT
  5
BC
330
B4
100
AcDbEntity
  8
标注
 62
     2
440
 16777216
370
   100
100
AcDbMText
 10
-24348.6951891858
 20
30911.22472699902
 30
0.0
 40
25.0
 41
0.0
 46
0.0
 71
     5
 72
     1
  1
\A1;400.00 [15.75]
 11
0.0000000000000001
 21
1.0
 31
0.0
 73
     1
 44
1.0
  0
POINT
  5
BD
330
B4
100
AcDbEntity
  8
Defpoints
 62
     0
440
 16777216
370
   100
100
AcDbPoint
 10
-24457.88223782177
 20
31111.22472699902
 30
0.0
  0
POINT
  5
BE
330
B4
100
AcDbEntity
  8
Defpoints
 62
     0
440
 16777216
370
   100
100
AcDbPoint
 10
-24449.88223782177
 20
30711.22472699902
 30
0.0
  0
POINT
  5
BF
330
B4
100
AcDbEntity
  8
Defpoints
 62
     0
440
 16777216
370
   100
100
AcDbPoint
 10
-24348.69518918579
 20
30711.22472699902
 30
0.0
  0
ENDBLK
  5
C0
330
B4
100
AcDbEntity
  8
0
 62
     0
370
   100
100
AcDbBlockEnd
  0
BLOCK
  5
C5
330
C4
100
AcDbEntity
  8
0
 62
     0
370
   100
100
AcDbBlockBegin
  2
*D3
 70
     1
 10
0.0
 20
0.0
 30
0.0
  3
*D3
  1

  0
LINE
  5
C6
330
C4
100
AcDbEntity
  8
标注
 62
     2
440
 16777216
100
AcDbLine
 10
-24435.99998682786
 20
31139.22472699902
 30
0.0
 11
-24274.22449425107
 21
31139.22472699902
 31
0.0
  0
LINE
  5
C7
330
C4
100
AcDbEntity
  8
标注
 62
     2
440
 16777216
100
AcDbLine
 10
-24435.88223782176
 20
30683.34247600512
 30
0.0
 11
-24274.22449425107
 21
30683.34247600512
 31
0.0
  0
LINE
  5
C8
330
C4
100
AcDbEntity
  8
标注
 62
     2
440
 16777216
100
AcDbLine
 10
-24274.40449425107
 20
31114.22472699902
 30
0.0
 11
-24274.40449425107
 21
30996.05487042781
 31
0.0
  0
LINE
  5
C9
330
C4
100
AcDbEntity
  8
标注
 62
     2
440
 16777216
100
AcDbLine
 10
-24274.40449425107
 20
30708.34247600512
 30
0.0
 11
-24274.40449425107
 21
30826.51233257633
 31
0.0
  0
SOLID
  5
CA
330
C4
100
AcDbEntity
  8
标注
 62
     2
440
 16777216
370
   100
100
AcDbTrace
 10
-24278.57116091773
 20
31114.22472699902
 30
0.0
 11
-24270.2378275844
 21
31114.22472699902
 31
0.0
 12
-24274.40449425107
 22
31139.22472699902
 32
0.0
 13
-24274.40449425107
 23
31139.22472699902
 33
0.0
  0
SOLID
  5
CB
330
C4
100
AcDbEntity
  8
标注
 62
     2
440
 16777216
370
   100
100
AcDbTrace
 10
-24278.57116091773
 20
30708.34247600512
 30
0.0
 11
-24270.2378275844
 21
30708.34247600512
 31
0.0
 12
-24274.40449425107
 22
30683.34247600512
 32
0.0
 13
-24274.40449425107
 23
30683.34247600512
 33
0.0
  0
MTEXT
  5
CC
330
C4
100
AcDbEntity
  8
标注
 62
     2
440
 16777216
370
   100
100
AcDbMText
 10
-24274.40449425107
 20
30911.28360150207
 30
0.0
 40
25.0
 41
0.0
 46
0.0
 71
     5
 72
     1
  1
\A1;455.88 [17.95]
 11
0.0000000000000001
 21
1.0
 31
0.0
 73
     1
 44
1.0
  0
POINT
  5
CD
330
C4
100
AcDbEntity
  8
Defpoints
 62
     0
440
 16777216
370
   100
100
AcDbPoint
 10
-24437.99998682786
 20
31139.22472699902
 30
0.0
  0
POINT
  5
CE
330
C4
100
AcDbEntity
  8
Defpoints
 62
     0
440
 16777216
370
   100
100
AcDbPoint
 10
-24437.88223782176
 20
30683.34247600512
 30
0.0
  0
POINT
  5
CF
330
C4
100
AcDbEntity
  8
Defpoints
 62
     0
440
 16777216
370
   100
100
AcDbPoint
 10
-24274.40449425107
 20
30683.34247600512
 30
0.0
  0
ENDBLK
  5
D0
330
C4
100
AcDbEntity
  8
0
 62
     0
370
   100
100
AcDbBlockEnd
  0
BLOCK
  5
D3
330
D2
100
AcDbEntity
  8
0
 62
     0
370
   100
100
AcDbBlockBegin
  2
*D4
 70
     1
 10
0.0
 20
0.0
 30
0.0
  3
*D4
  1

  0
LINE
  5
D4
330
D2
100
AcDbEntity
  8
标注
 62
     2
440
 16777216
100
AcDbLine
 10
-24617.88223782177
 20
30721.22472699902
 30
0.0
 11
-24617.88223782177
 21
30637.19498574418
 31
0.0
  0
LINE
  5
D5
330
D2
100
AcDbEntity
  8
标注
 62
     2
440
 16777216
100
AcDbLine
 10
-24437.88223782176
 20
30721.22472699902
 30
0.0
 11
-24437.88223782176
 21
30637.19498574418
 31
0.0
  0
LINE
  5
D6
330
D2
100
AcDbEntity
  8
标注
 62
     2
440
 16777216
100
AcDbLine
 10
-24642.88223782177
 20
30637.37498574418
 30
0.0
 11
-24667.88223782176
 21
30637.37498574418
 31
0.0
  0
LINE
  5
D7
330
D2
100
AcDbEntity
  8
标注
 62
     2
440
 16777216
100
AcDbLine
 10
-24412.88223782176
 20
30637.37498574418
 30
0.0
 11
-24387.88223782176
 21
30637.37498574418
 31
0.0
  0
SOLID
  5
D8
330
D2
100
AcDbEntity
  8
标注
 62
     2
440
 16777216
370
   100
100
AcDbTrace
 10
-24642.88223782177
 20
30641.54165241085
 30
0.0
 11
-24642.88223782177
 21
30633.20831907751
 31
0.0
 12
-24617.88223782177
 22
30637.37498574418
 32
0.0
 13
-24617.88223782177
 23
30637.37498574418
 33
0.0
  0
SOLID
  5
D9
330
D2
100
AcDbEntity
  8
标注
 62
     2
440
 16777216
370
   100
100
AcDbTrace
 10
-24412.88223782176
 20
30641.54165241085
 30
0.0
 11
-24412.88223782176
 21
30633.20831907751
 31
0.0
 12
-24437.88223782176
 22
30637.37498574418
 32
0.0
 13
-24437.88223782176
 23
30637.37498574418
 33
0.0
  0
MTEXT
  5
DA
330
D2
100
AcDbEntity
  8
标注
 62
     2
440
 16777216
370
   100
100
AcDbMText
 10
-24527.88223782177
 20
30637.37498574418
 30
0.0
 40
25.0
 41
0.0
 46
0.0
 71
     5
 72
     1
  1
\A1;180.00 [7.09]
 73
     1
 44
1.0
  0
POINT
  5
DB
330
D2
100
AcDbEntity
  8
Defpoints
 62
     0
440
 16777216
370
   100
100
AcDbPoint
 10
-24617.88223782177
 20
30723.22472699902
 30
0.0
  0
POINT
  5
DC
330
D2
100
AcDbEntity
  8
Defpoints
 62
     0
440
 16777216
370
   100
100
AcDbPoint
 10
-24437.88223782176
 20
30723.22472699902
 30
0.0
  0
POINT
  5
DD
330
D2
100
AcDbEntity
  8
Defpoints
 62
     0
440
 16777216
370
   100
100
AcDbPoint
 10
-24437.88223782176
 20
30637.37498574418
 30
0.0
  0
ENDBLK
  5
DE
330
D2
100
AcDbEntity
  8
0
 62
     0
370
   100
100
AcDbBlockEnd
  0
BLOCK
  5
E3
330
E2
100
AcDbEntity
  8
0
 62
     0
370
   100
100
AcDbBlockBegin
  2
*D5
 70
     1
 10
0.0
 20
0.0
 30
0.0
  3
*D5
  1

  0
LINE
  5
E4
330
E2
100
AcDbEntity
  8
标注
 62
     2
440
 16777216
100
AcDbLine
 10
-24645.88223782177
 20
30709.34247600511
 30
0.0
 11
-24645.88223782177
 21
30583.11930916816
 31
0.0
  0
LINE
  5
E5
330
E2
100
AcDbEntity
  8
标注
 62
     2
440
 16777216
100
AcDbLine
 10
-24409.88223782177
 20
30709.34247600511
 30
0.0
 11
-24409.88223782177
 21
30583.11930916816
 31
0.0
  0
LINE
  5
E6
330
E2
100
AcDbEntity
  8
标注
 62
     2
440
 16777216
100
AcDbLine
 10
-24620.88223782177
 20
30583.29930916816
 30
0.0
 11
-24605.37088237837
 21
30583.29930916816
 31
0.0
  0
LINE
  5
E7
330
E2
100
AcDbEntity
  8
标注
 62
     2
440
 16777216
100
AcDbLine
 10
-24434.88223782177
 20
30583.29930916816
 30
0.0
 11
-24450.39359326517
 21
30583.29930916816
 31
0.0
  0
SOLID
  5
E8
330
E2
100
AcDbEntity
  8
标注
 62
     2
440
 16777216
370
   100
100
AcDbTrace
 10
-24620.88223782177
 20
30587.46597583482
 30
0.0
 11
-24620.88223782177
 21
30579.13264250149
 31
0.0
 12
-24645.88223782177
 22
30583.29930916816
 32
0.0
 13
-24645.88223782177
 23
30583.29930916816
 33
0.0
  0
SOLID
  5
E9
330
E2
100
AcDbEntity
  8
标注
 62
     2
440
 16777216
370
   100
100
AcDbTrace
 10
-24434.88223782177
 20
30587.46597583482
 30
0.0
 11
-24434.88223782177
 21
30579.13264250149
 31
0.0
 12
-24409.88223782177
 22
30583.29930916816
 32
0.0
 13
-24409.88223782177
 23
30583.29930916816
 33
0.0
  0
MTEXT
  5
EA
330
E2
100
AcDbEntity
  8
标注
 62
     2
440
 16777216
370
   100
100
AcDbMText
 10
-24527.88223782177
 20
30583.29930916816
 30
0.0
 40
25.0
 41
0.0
 46
0.0
 71
     5
 72
     1
  1
\A1;236.00 [9.29]
 73
     1
 44
1.0
  0
POINT
  5
EB
330
E2
100
AcDbEntity
  8
Defpoints
 62
     0
440
 16777216
370
   100
100
AcDbPoint
 10
-24645.88223782177
 20
30711.34247600511
 30
0.0
  0
POINT
  5
EC
330
E2
100
AcDbEntity
  8
Defpoints
 62
     0
440
 16777216
370
   100
100
AcDbPoint
 10
-24409.88223782177
 20
30711.34247600511
 30
0.0
  0
POINT
  5
ED
330
E2
100
AcDbEntity
  8
Defpoints
 62
     0
440
 16777216
370
   100
100
AcDbPoint
 10
-24409.88223782177
 20
30583.29930916816
 30
0.0
  0
ENDBLK
  5
EE
330
E2
100
AcDbEntity
  8
0
 62
     0
370
   100
100
AcDbBlockEnd
  0
BLOCK
  5
F3
330
F2
100
AcDbEntity
  8
0
 62
     0
370
   100
100
AcDbBlockBegin
  2
*D6
 70
     1
 10
0.0
 20
0.0
 30
0.0
  3
*D6
  1

  0
LINE
  5
F4
330
F2
100
AcDbEntity
  8
标注
 62
     2
440
 16777216
100
AcDbLine
 10
-25105.00268151256
 20
31068.35180178629
 30
0.0
 11
-25118.28671111839
 21
31089.53043624254
 31
0.0
  0
MTEXT
  5
F5
330
F2
100
AcDbEntity
  8
标注
 62
     2
440
 16777216
370
   100
100
AcDbMText
 10
-25057.41482433702
 20
30992.48281763144
 30
0.0
 40
25.0
 41
0.0
 46
0.0
 71
     5
 72
     1
  1
\A1;R23.00 [R0.91]
 11
0.5313611842331217
 21
-0.847145378250023
 31
0.0
 73
     1
 44
1.0
  0
SOLID
  5
F6
330
F2
100
AcDbEntity
  8
标注
 62
     2
440
 16777216
370
   100
100
AcDbTrace
 10
-25114.75693870901
 20
31091.74444117684
 30
0.0
 11
-25121.81648352776
 21
31087.31643130823
 31
0.0
 12
-25131.57074072422
 22
31110.70907069879
 32
0.0
 13
-25131.57074072422
 23
31110.70907069879
 33
0.0
  0
POINT
  5
F7
330
F2
100
AcDbEntity
  8
Defpoints
 62
     0
440
 16777216
370
   100
100
AcDbPoint
 10
-25131.57074072422
 20
31110.70907069879
 30
0.0
  0
POINT
  5
F8
330
F2
100
AcDbEntity
  8
Defpoints
 62
     0
440
 16777216
370
   100
100
AcDbPoint
 10
-25119.34943348683
 20
31091.22472699901
 30
0.0
  0
ENDBLK
  5
F9
330
F2
100
AcDbEntity
  8
0
 62
     0
370
   100
100
AcDbBlockEnd
  0
BLOCK
  5
FF
330
FE
100
AcDbEntity
  8
0
 62
     0
370
   100
100
AcDbBlockBegin
  2
*D7
 70
     1
 10
0.0
 20
0.0
 30
0.0
  3
*D7
  1

  0
LINE
  5
100
330
FE
100
AcDbEntity
  8
标注
 62
     2
440
 16777216
100
AcDbLine
 10
-24407.92810938139
 20
30451.42543365328
 30
0.0
 11
-24385.99553540562
 21
30451.42543365328
 31
0.0
  0
LINE
  5
101
330
FE
100
AcDbEntity
  8
标注
 62
     2
440
 16777216
100
AcDbLine
 10
-24480.88223782177
 20
30273.42543365328
 30
0.0
 11
-24385.99553540562
 21
30273.42543365328
 31
0.0
  0
LINE
  5
102
330
FE
100
AcDbEntity
  8
标注
 62
     2
440
 16777216
100
AcDbLine
 10
-24386.17553540562
 20
30476.42543365328
 30
0.0
 11
-24386.17553540562
 21
30501.42543365327
 31
0.0
  0
LINE
  5
103
330
FE
100
AcDbEntity
  8
标注
 62
     2
440
 16777216
100
AcDbLine
 10
-24386.17553540562
 20
30248.42543365328
 30
0.0
 11
-24386.17553540562
 21
30223.42543365328
 31
0.0
  0
SOLID
  5
104
330
FE
100
AcDbEntity
  8
标注
 62
     2
440
 16777216
370
   100
100
AcDbTrace
 10
-24390.34220207229
 20
30476.42543365328
 30
0.0
 11
-24382.00886873895
 21
30476.42543365328
 31
0.0
 12
-24386.17553540562
 22
30451.42543365328
 32
0.0
 13
-24386.17553540562
 23
30451.42543365328
 33
0.0
  0
SOLID
  5
105
330
FE
100
AcDbEntity
  8
标注
 62
     2
440
 16777216
370
   100
100
AcDbTrace
 10
-24390.34220207229
 20
30248.42543365328
 30
0.0
 11
-24382.00886873895
 21
30248.42543365328
 31
0.0
 12
-24386.17553540562
 22
30273.42543365328
 32
0.0
 13
-24386.17553540562
 23
30273.42543365328
 33
0.0
  0
MTEXT
  5
106
330
FE
100
AcDbEntity
  8
标注
 62
     2
440
 16777216
370
   100
100
AcDbMText
 10
-24386.17553540562
 20
30362.42543365327
 30
0.0
 40
25.0
 41
0.0
 46
0.0
 71
     5
 72
     1
  1
\A1;178.00 [7.01]
 11
0.0000000000000001
 21
1.0
 31
0.0
 73
     1
 44
1.0
  0
POINT
  5
107
330
FE
100
AcDbEntity
  8
Defpoints
 62
     0
440
 16777216
370
   100
100
AcDbPoint
 10
-24409.92810938139
 20
30451.42543365328
 30
0.0
  0
POINT
  5
108
330
FE
100
AcDbEntity
  8
Defpoints
 62
     0
440
 16777216
370
   100
100
AcDbPoint
 10
-24482.88223782177
 20
30273.42543365328
 30
0.0
  0
POINT
  5
109
330
FE
100
AcDbEntity
  8
Defpoints
 62
     0
440
 16777216
370
   100
100
AcDbPoint
 10
-24386.17553540562
 20
30273.42543365328
 30
0.0
  0
ENDBLK
  5
10A
330
FE
100
AcDbEntity
  8
0
 62
     0
370
   100
100
AcDbBlockEnd
  0
ENDSEC
  0
SECTION
  2
ENTITIES
  0
LWPOLYLINE
  5
6B
102
{ACAD_REACTORS
330
B3
102
}
330
2
100
AcDbEntity
  8
0
100
AcDbPolyline
 90
        8
 70
     1
 43
0.0
 10
-24617.88223782177
 20
30731.22472699902
 42
0.4142135623730951
 10
-24597.88223782177
 20
30711.22472699902
 10
-24457.88223782177
 20
30711.22472699902
 42
0.4142135623730951
 10
-24437.88223782177
 20
30731.22472699902
 10
-24437.88223782177
 20
31091.22472699902
 42
0.4142135623730951
 10
-24457.88223782177
 20
31111.22472699902
 10
-24597.88223782177
 20
31111.22472699902
 42
0.4142135623730951
 10
-24617.88223782177
 20
31091.22472699902
  0
LWPOLYLINE
  5
6C
330
2
100
AcDbEntity
  8
0
100
AcDbPolyline
 90
        2
 70
     0
 43
0.0
 10
-24617.76448881567
 20
30683.22472699902
 10
-24437.99998682786
 20
30683.22472699902
  0
LWPOLYLINE
  5
6D
330
2
100
AcDbEntity
  8
0
100
AcDbPolyline
 90
        2
 70
     0
 43
0.0
 10
-24409.88223782177
 20
30711.34247600511
 10
-24409.88223782177
 20
31111.10697799293
  0
LWPOLYLINE
  5
6E
330
2
100
AcDbEntity
  8
0
100
AcDbPolyline
 90
        2
 70
     0
 43
0.0
 10
-24437.99998682786
 20
31139.22472699902
 10
-24617.76448881567
 20
31139.22472699902
  0
LINE
  5
6F
102
{ACAD_REACTORS
330
C3
102
}
330
2
100
AcDbEntity
  8
0
100
AcDbLine
 10
-24409.88223782177
 20
31111.10697799293
 30
0.0
 11
-24437.99998682786
 21
31139.22472699902
 31
0.0
  0
LINE
  5
70
102
{ACAD_REACTORS
330
E1
102
}
330
2
100
AcDbEntity
  8
0
100
AcDbLine
 10
-24409.88223782177
 20
30711.34247600511
 30
0.0
 11
-24437.99998682786
 21
30683.22472699902
 31
0.0
  0
CIRCLE
  5
71
330
2
100
AcDbEntity
  8
0
100
AcDbCircle
 10
-24527.88223782177
 20
30961.22472699902
 30
0.0
 40
45.0
  0
CIRCLE
  5
72
330
2
100
AcDbEntity
  8
0
100
AcDbCircle
 10
-24527.88223782177
 20
30961.22472699902
 30
0.0
 40
50.0
  0
LINE
  5
73
330
2
100
AcDbEntity
  8
0
100
AcDbLine
 10
-24457.88223782177
 20
31091.22472699902
 30
0.0
 11
-24504.17724667001
 21
31005.24828199513
 31
0.0
  0
LINE
  5
74
330
2
100
AcDbEntity
  8
0
100
AcDbLine
 10
-24551.58722897352
 20
31005.24828199513
 30
0.0
 11
-24597.88223782177
 21
31091.22472699902
 31
0.0
  0
LINE
  5
75
330
2
100
AcDbEntity
  8
0
100
AcDbLine
 10
-24597.88223782177
 20
30731.22472699902
 30
0.0
 11
-24542.44031861091
 21
30913.39103297757
 31
0.0
  0
LINE
  5
76
330
2
100
AcDbEntity
  8
0
100
AcDbLine
 10
-24513.32415703263
 20
30913.39103297757
 30
0.0
 11
-24457.88223782177
 21
30731.22472699902
 31
0.0
  0
LINE
  5
77
330
2
100
AcDbEntity
  8
0
100
AcDbLine
 10
-24577.88223782177
 20
30278.42543365327
 30
0.0
 11
-24477.88223782177
 21
30278.42543365327
 31
0.0
  0
LINE
  5
78
330
2
100
AcDbEntity
  8
0
100
AcDbLine
 10
-24617.92810938139
 20
30451.42543365328
 30
0.0
 11
-24613.32887309574
 21
30303.03040711228
 31
0.0
  0
ARC
  5
79
330
2
100
AcDbEntity
  8
0
100
AcDbCircle
 10
-24593.33821854129
 20
30303.64174211394
 30
0.0
 40
20.0
100
AcDbArc
 50
181.7516186093141
 51
254.0546040990214
  0
LINE
  5
7A
330
2
100
AcDbEntity
  8
0
100
AcDbLine
 10
-24598.83264109924
 20
30284.41126316113
 30
0.0
 11
-24577.88223782177
 21
30278.42543365327
 31
0.0
  0
LINE
  5
7B
330
2
100
AcDbEntity
  8
0
100
AcDbLine
 10
-24577.88223782177
 20
30278.42543365327
 30
0.0
 11
-24572.88223782177
 21
30273.42543365328
 31
0.0
  0
LINE
  5
7C
330
2
100
AcDbEntity
  8
0
100
AcDbLine
 10
-24572.88223782177
 20
30273.42543365328
 30
0.0
 11
-24482.88223782177
 21
30273.42543365328
 31
0.0
  0
LINE
  5
7D
102
{ACAD_REACTORS
330
FD
102
}
330
2
100
AcDbEntity
  8
0
100
AcDbLine
 10
-24482.88223782177
 20
30273.42543365328
 30
0.0
 11
-24477.88223782177
 21
30278.42543365327
 31
0.0
  0
LINE
  5
7E
330
2
100
AcDbEntity
  8
0
100
AcDbLine
 10
-24477.88223782177
 20
30278.42543365327
 30
0.0
 11
-24456.93183454431
 21
30284.41126316113
 31
0.0
  0
ARC
  5
7F
330
2
100
AcDbEntity
  8
0
100
AcDbCircle
 10
-24462.42625710226
 20
30303.64174211394
 30
0.0
 40
20.0
100
AcDbArc
 50
285.9453959009785
 51
358.2483813906858
  0
LINE
  5
80
330
2
100
AcDbEntity
  8
0
100
AcDbLine
 10
-24442.4356025478
 20
30303.03040711228
 30
0.0
 11
-24437.83636626212
 21
30451.42543365328
 31
0.0
  0
LWPOLYLINE
  5
81
330
2
100
AcDbEntity
  8
0
100
AcDbPolyline
 90
        2
 70
     0
 43
0.0
 10
-24645.88223782177
 20
30711.34247600511
 10
-24645.88223782177
 20
31111.10697799293
  0
LINE
  5
82
330
2
100
AcDbEntity
  8
0
100
AcDbLine
 10
-24645.88223782177
 20
31111.10697799293
 30
0.0
 11
-24617.76448881567
 21
31139.22472699902
 31
0.0
  0
LINE
  5
83
102
{ACAD_REACTORS
330
E1
102
}
330
2
100
AcDbEntity
  8
0
100
AcDbLine
 10
-24645.88223782177
 20
30711.34247600511
 30
0.0
 11
-24617.76448881567
 21
30683.22472699902
 31
0.0
  0
LINE
  5
84
102
{ACAD_REACTORS
330
FD
102
}
330
2
100
AcDbEntity
  8
0
100
AcDbLine
 10
-24645.92810938139
 20
30451.42543365328
 30
0.0
 11
-24409.92810938139
 21
30451.42543365328
 31
0.0
  0
LWPOLYLINE
  5
85
102
{ACAD_REACTORS
330
92
330
A3
330
F1
102
}
330
2
100
AcDbEntity
  8
0
100
AcDbPolyline
 90
        8
 70
     1
 43
0.0
 10
-25142.34943348689
 20
30731.22472699902
 42
0.4142135623730951
 10
-25119.34943348689
 20
30708.22472699902
 10
-24979.34943348688
 20
30708.22472699902
 42
0.4142135623730951
 10
-24956.34943348688
 20
30731.22472699902
 10
-24956.34943348688
 20
31091.22472699902
 42
0.4142135623730951
 10
-24979.34943348688
 20
31114.22472699902
 10
-25119.34943348689
 20
31114.22472699902
 42
0.4142135623730951
 10
-25142.34943348689
 20
31091.22472699902
  0
HATCH
  5
86
330
2
100
AcDbEntity
  8
填充层
100
AcDbHatch
 10
0.0
 20
0.0
 30
0.0
210
0.0
220
0.0
230
1.0
  2
SOLID
 70
     1
 71
     1
 91
        1
 92
        7
 72
     1
 73
     1
 93
       10
 10
-25685.81442226825
 20
30897.64725908821
 42
0.0
 10
-25685.81442226825
 20
30872.64725908821
 42
0.4142135623731275
 10
-25650.81442226825
 20
30837.64725908821
 42
0.0
 10
-25610.81442226825
 20
30837.64725908821
 42
0.0
 10
-25610.81442226825
 20
30852.64725908821
 42
0.0
 10
-25650.81442226825
 20
30852.64725908821
 42
-0.4142135623731251
 10
-25670.81442226825
 20
30872.64725908821
 42
0.0
 10
-25670.81442226825
 20
30912.64725908821
 42
0.0
 10
-25748.31442226825
 20
30912.64725908821
 42
0.0
 10
-25748.31442226826
 20
30897.64725908821
 42
0.0
 97
        4
330
8D
330
8F
330
8E
330
8A
 75
     0
 76
     1
 47
0.7124084290605798
 98
        1
 10
-25691.51765477641
 20
30902.99763919027
450
        0
451
        0
460
0.0
461
0.0
452
        1
462
1.0
453
        2
463
0.0
 63
     5
421
      255
463
1.0
 63
     7
421
 16777215
470
LINEAR
1001
ACAD
1010
0.0
1020
0.0
1030
0.0
  0
LWPOLYLINE
  5
8A
102
{ACAD_REACTORS
330
86
102
}
330
2
100
AcDbEntity
  8
0
 48
80.0
100
AcDbPolyline
 90
        4
 70
     1
 43
0.0
 10
-25790.81442226825
 20
30990.14725908821
 10
-25610.81442226825
 20
30990.14725908821
 10
-25610.81442226825
 20
30810.14725908821
 10
-25790.81442226825
 20
30810.14725908821
  0
HATCH
  5
8B
330
2
100
AcDbEntity
  8
填充层
 48
80.0
100
AcDbHatch
 10
0.0
 20
0.0
 30
0.0
210
0.0
220
0.0
230
1.0
  2
ANSI31
 70
     0
 71
     0
 91
        1
 92
        7
 72
     0
 73
     1
 93
        4
 10
-25790.81442226825
 20
30990.14725908821
 10
-25790.81442226825
 20
30912.64725908821
 10
-25685.81442226825
 20
30912.64725908821
 10
-25685.81442226825
 20
30990.14725908821
 97
        0
 75
     0
 76
     1
 52
0.0
 41
4.0
 77
     0
 78
     1
 53
45.0
 43
-39765.66453433559
 44
25642.92681466036
 45
-8.980256121069151
 46
8.980256121069153
 79
     0
 47
0.760094809552713
 98
        1
 10
-25736.32270199888
 20
30969.45290654497
1001
ACAD
1010
0.0
1020
0.0
1030
0.0
  0
LWPOLYLINE
  5
8C
330
2
100
AcDbEntity
  8
0
 48
80.0
100
AcDbPolyline
 90
        4
 70
     1
 43
0.0
 10
-25685.81442226825
 20
30912.64725908821
 10
-25790.81442226825
 20
30912.64725908821
 10
-25790.81442226825
 20
30990.14725908821
 10
-25685.81442226825
 20
30990.14725908821
  0
LWPOLYLINE
  5
8D
102
{ACAD_REACTORS
330
86
102
}
330
2
100
AcDbEntity
  8
0
 48
80.0
100
AcDbPolyline
 90
        5
 70
     0
 43
0.0
 10
-25610.81442226825
 20
30852.64725908821
 10
-25650.81442226825
 20
30852.64725908821
 42
-0.4142135623731251
 10
-25670.81442226825
 20
30872.64725908821
 10
-25670.81442226825
 20
30912.64725908821
 10
-25748.31442226825
 20
30912.64725908821
  0
LWPOLYLINE
  5
8E
102
{ACAD_REACTORS
330
86
102
}
330
2
100
AcDbEntity
  8
0
 48
80.0
100
AcDbPolyline
 90
        5
 70
     0
 43
0.0
 10
-25610.81442226825
 20
30837.64725908821
 10
-25650.81442226825
 20
30837.64725908821
 42
-0.4142135623731275
 10
-25685.81442226825
 20
30872.64725908821
 10
-25685.81442226825
 20
30897.64725908821
 10
-25748.31442226825
 20
30897.64725908821
  0
LINE
  5
8F
102
{ACAD_REACTORS
330
86
102
}
330
2
100
AcDbEntity
  8
0
 48
80.0
100
AcDbLine
 10
-25748.31442226825
 20
30897.64725908821
 30
0.0
 11
-25748.31442226825
 21
30912.64725908821
 31
0.0
  0
DIMENSION
  5
90
102
{ACAD_XDICTIONARY
360
91
102
}
102
{ACAD_REACTORS
330
92
102
}
330
2
100
AcDbEntity
  8
标注
 62
     0
370
   100
100
AcDbDimension
280
     0
  2
*D0
 10
-24908.13813318132
 20
30708.22472699902
 30
0.0
 11
-24908.13813318132
 21
30911.22472699901
 31
0.0
 71
     5
 42
406.0
 73
     0
 74
     0
 75
     0
  3
Standard
100
AcDbAlignedDimension
 13
-24979.34943348688
 23
31114.22472699902
 33
0.0
 14
-24979.34943348688
 24
30708.22472699902
 34
0.0
 50
90.0
100
AcDbRotatedDimension
  0
DIMENSION
  5
A1
102
{ACAD_XDICTIONARY
360
A2
102
}
102
{ACAD_REACTORS
330
A3
102
}
330
2
100
AcDbEntity
  8
标注
 62
     0
370
   100
100
AcDbDimension
280
     0
  2
*D1
 10
-24956.34943348688
 20
30652.2104657026
 30
0.0
 11
-25049.34943348688
 21
30652.2104657026
 31
0.0
 71
     5
 42
186.0
 73
     0
 74
     0
 75
     0
  3
Standard
100
AcDbAlignedDimension
 13
-25142.34943348689
 23
30731.22472699902
 33
0.0
 14
-24956.34943348688
 24
30731.22472699902
 34
0.0
100
AcDbRotatedDimension
  0
DIMENSION
  5
B1
102
{ACAD_XDICTIONARY
360
B2
102
}
102
{ACAD_REACTORS
330
B3
102
}
330
2
100
AcDbEntity
  8
标注
 62
     0
370
   100
100
AcDbDimension
280
     0
  2
*D2
 10
-24348.69518918579
 20
30711.22472699902
 30
0.0
 11
-24348.6951891858
 21
30911.22472699902
 31
0.0
 71
     5
 42
400.0
 73
     0
 74
     0
 75
     0
  3
Standard
100
AcDbAlignedDimension
 13
-24457.88223782177
 23
31111.22472699902
 33
0.0
 14
-24449.88223782177
 24
30711.22472699902
 34
0.0
 50
90.0
100
AcDbRotatedDimension
  0
DIMENSION
  5
C1
102
{ACAD_XDICTIONARY
360
C2
102
}
102
{ACAD_REACTORS
330
C3
102
}
330
2
100
AcDbEntity
  8
标注
 62
     0
370
   100
100
AcDbDimension
280
     0
  2
*D3
 10
-24274.40449425107
 20
30683.34247600512
 30
0.0
 11
-24274.40449425107
 21
30911.28360150207
 31
0.0
 71
     5
 42
455.8822509939018
 73
     0
 74
     0
 75
     0
  3
Standard
100
AcDbAlignedDimension
 13
-24437.99998682786
 23
31139.22472699902
 33
0.0
 14
-24437.88223782176
 24
30683.34247600512
 34
0.0
 50
90.0
100
AcDbRotatedDimension
  0
DIMENSION
  5
D1
330
2
100
AcDbEntity
  8
标注
 62
     0
370
   100
100
AcDbDimension
280
     0
  2
*D4
 10
-24437.88223782176
 20
30637.37498574418
 30
0.0
 11
-24527.88223782177
 21
30637.37498574418
 31
0.0
 71
     5
 42
180.0000000000036
 73
     0
 74
     0
 75
     0
  3
Standard
100
AcDbAlignedDimension
 13
-24617.88223782177
 23
30723.22472699902
 33
0.0
 14
-24437.88223782176
 24
30723.22472699902
 34
0.0
100
AcDbRotatedDimension
  0
DIMENSION
  5
DF
102
{ACAD_XDICTIONARY
360
E0
102
}
102
{ACAD_REACTORS
330
E1
102
}
330
2
100
AcDbEntity
  8
标注
 62
     0
370
   100
100
AcDbDimension
280
     0
  2
*D5
 10
-24409.88223782177
 20
30583.29930916816
 30
0.0
 11
-24527.88223782177
 21
30583.29930916816
 31
0.0
 71
     5
 42
236.0
 73
     0
 74
     0
 75
     0
  3
Standard
100
AcDbAlignedDimension
 13
-24645.88223782177
 23
30711.34247600511
 33
0.0
 14
-24409.88223782177
 24
30711.34247600511
 34
0.0
100
AcDbRotatedDimension
  0
DIMENSION
  5
EF
102
{ACAD_XDICTIONARY
360
F0
102
}
102
{ACAD_REACTORS
330
F1
102
}
330
2
100
AcDbEntity
  8
标注
 62
     0
370
   100
100
AcDbDimension
280
     0
  2
*D6
 10
-25119.34943348683
 20
31091.22472699901
 30
0.0
 11
-25057.41482433702
 21
30992.48281763144
 31
0.0
 70
   132
 71
     5
 42
23.00000000003638
 73
     0
 74
     0
 75
     0
  3
Standard
100
AcDbRadialDimension
 15
-25131.57074072422
 25
31110.70907069879
 35
0.0
 40
0.0
1001
ACAD
1000
DSTYLE
1002
{
1070
   288
1070
     1
1002
}
1001
ACAD_DSTYLE_DIMRADIAL_EXTENSION
1070
   387
1070
     1
1070
   388
1040
1.570796326794896
1070
   390
1040
3.141592653589793
  0
DIMENSION
  5
FB
102
{ACAD_XDICTIONARY
360
FC
102
}
102
{ACAD_REACTORS
330
FD
102
}
330
2
100
AcDbEntity
  8
标注
 62
     0
370
   100
100
AcDbDimension
280
     0
  2
*D7
 10
-24386.17553540562
 20
30273.42543365328
 30
0.0
 11
-24386.17553540562
 21
30362.42543365327
 31
0.0
 71
     5
 42
178.0
 73
     0
 74
     0
 75
     0
  3
Standard
100
AcDbAlignedDimension
 13
-24409.92810938139
 23
30451.42543365328
 33
0.0
 14
-24482.88223782177
 24
30273.42543365328
 34
0.0
 50
90.0
100
AcDbRotatedDimension
  0
ENDSEC
  0
SECTION
  2
OBJECTS
  0
DICTIONARY
  5
B
330
0
100
AcDbDictionary
281
     1
  3
ACAD_COLOR
350
3C
  3
ACAD_GROUP
350
37
  3
ACAD_LAYOUT
350
11
  3
ACAD_MATERIAL
350
D
  3
ACAD_MLEADERSTYLE
350
3F
  3
ACAD_MLINESTYLE
350
38
  3
ACAD_PLOTSETTINGS
350
39
  3
ACAD_PLOTSTYLENAME
350
A
  3
ACAD_SCALELIST
350
3D
  3
ACAD_TABLESTYLE
350
3E
  3
ACAD_VISUALSTYLE
350
2A
  3
ACDB_RECOMPOSE_DATA
350
118
  3
AcDbVariableDictionary
350
10D
  0
DICTIONARY
  5
2C
330
27
100
AcDbDictionary
280
     1
281
     1
  0
DICTIONARY
  5
1A
330
19
100
AcDbDictionary
280
     1
281
     1
  3
ACAD_LAYERFILTERS
360
1B
  3
ACAD_LAYERSTATES
360
1C
  3
ACLYDICTIONARY
360
1D
  0
DICTIONARY
  5
7
330
6
100
AcDbDictionary
280
     1
281
     1
  3
ADSK_XREC_LAYER_RECONCILED
360
8
  0
DICTIONARY
  5
41
330
40
100
AcDbDictionary
280
     1
281
     1
  3
ADSK_XREC_LAYER_RECONCILED
360
42
  0
DICTIONARY
  5
88
330
87
100
AcDbDictionary
280
     1
281
     1
  3
ADSK_XREC_LAYER_RECONCILED
360
89
  0
DICTIONARY
  5
3
330
2
100
AcDbDictionary
280
     1
281
     1
  3
ACAD_SORTENTS
360
10B
  0
DICTIONARY
  5
91
330
90
100
AcDbDictionary
280
     1
281
     1
  3
ACAD_DIMASSOC
360
92
  0
DICTIONARY
  5
A2
330
A1
100
AcDbDictionary
280
     1
281
     1
  3
ACAD_DIMASSOC
360
A3
  0
DICTIONARY
  5
B2
330
B1
100
AcDbDictionary
280
     1
281
     1
  3
ACAD_DIMASSOC
360
B3
  0
DICTIONARY
  5
C2
330
C1
100
AcDbDictionary
280
     1
281
     1
  3
ACAD_DIMASSOC
360
C3
  0
DICTIONARY
  5
E0
330
DF
100
AcDbDictionary
280
     1
281
     1
  3
ACAD_DIMASSOC
360
E1
  0
DICTIONARY
  5
F0
330
EF
100
AcDbDictionary
280
     1
281
     1
  3
ACAD_DIMASSOC
360
F1
  0
DICTIONARY
  5
FC
330
FB
100
AcDbDictionary
280
     1
281
     1
  3
ACAD_DIMASSOC
360
FD
  0
DICTIONARY
  5
3C
102
{ACAD_REACTORS
330
B
102
}
330
B
100
AcDbDictionary
281
     1
  0
DICTIONARY
  5
37
102
{ACAD_REACTORS
330
B
102
}
330
B
100
AcDbDictionary
281
     1
  0
DICTIONARY
  5
11
102
{ACAD_REACTORS
330
B
102
}
330
B
100
AcDbDictionary
281
     1
  3
Model
350
10
  3
布局1
350
17
  0
DICTIONARY
  5
D
102
{ACAD_REACTORS
330
B
102
}
330
B
100
AcDbDictionary
281
     1
  3
ByBlock
350
3B
  3
ByLayer
350
3A
  3
Global
350
C
  0
DICTIONARY
  5
3F
102
{ACAD_REACTORS
330
B
102
}
330
B
100
AcDbDictionary
281
     1
  0
DICTIONARY
  5
38
102
{ACAD_REACTORS
330
B
102
}
330
B
100
AcDbDictionary
281
     1
  3
Standard
350
45
  0
DICTIONARY
  5
39
102
{ACAD_REACTORS
330
B
102
}
330
B
100
AcDbDictionary
281
     1
  0
ACDBDICTIONARYWDFLT
  5
A
102
{ACAD_REACTORS
330
B
102
}
330
B
100
AcDbDictionary
281
     1
  3
Normal
350
9
100
AcDbDictionaryWithDefault
340
9
  0
DICTIONARY
  5
3D
102
{ACAD_REACTORS
330
B
102
}
330
B
100
AcDbDictionary
281
     1
  3
A0
350
4A
  3
A1
350
4B
  3
A2
350
4C
  3
A3
350
4D
  3
A4
350
4E
  3
A5
350
4F
  3
A6
350
50
  3
A7
350
51
  3
A8
350
52
  3
A9
350
53
  3
B0
350
54
  3
B1
350
55
  3
B2
350
56
  3
B3
350
57
  3
B4
350
58
  3
B5
350
59
  3
B6
350
5A
  3
B7
350
5B
  3
B8
350
5C
  3
B9
350
5D
  3
C0
350
5E
  3
C1
350
5F
  3
C2
350
60
  3
C3
350
61
  3
C4
350
62
  3
C5
350
63
  3
C6
350
64
  3
C7
350
65
  3
C8
350
66
  3
C9
350
67
  3
D0
350
68
  3
D1
350
69
  3
D2
350
6A
  0
DICTIONARY
  5
3E
102
{ACAD_REACTORS
330
B
102
}
330
B
100
AcDbDictionary
281
     1
  3
Standard
350
46
  0
DICTIONARY
  5
2A
102
{ACAD_REACTORS
330
B
102
}
330
B
100
AcDbDictionary
281
     1
  3
2dWireframe
350
29
  3
3dWireframe
350
49
  3
Realistic
350
48
  0
XRECORD
  5
118
102
{ACAD_REACTORS
330
B
102
}
330
B
100
AcDbXrecord
280
     1
 90
        1
330
46
  0
DICTIONARY
  5
10D
102
{ACAD_REACTORS
330
B
102
}
330
B
100
AcDbDictionary
281
     1
  3
CANNOSCALE
350
113
  3
CMLEADERSTYLE
350
10F
  3
CTABLESTYLE
350
10E
  3
CVIEWDETAILSTYLE
350
110
  3
CVIEWSECTIONSTYLE
350
111
  3
LAYEREVAL
350
115
  3
LAYERNOTIFY
350
116
  3
LIGHTINGUNITS
350
114
  3
MSLTSCALE
350
112
  0
DICTIONARY
  5
1B
102
{ACAD_REACTORS
330
1A
102
}
330
1A
100
AcDbDictionary
281
     1
  0
DICTIONARY
  5
1C
102
{ACAD_REACTORS
330
1A
102
}
330
1A
100
AcDbDictionary
281
     1
  0
DICTIONARY
  5
1D
102
{ACAD_REACTORS
330
1A
102
}
330
1A
100
AcDbDictionary
281
     1
1001
ACAD
1000
<All
  0
XRECORD
  5
8
102
{ACAD_REACTORS
330
7
102
}
330
7
100
AcDbXrecord
280
     1
290
     1
  0
XRECORD
  5
42
102
{ACAD_REACTORS
330
41
102
}
330
41
100
AcDbXrecord
280
     1
290
     1
  0
XRECORD
  5
89
102
{ACAD_REACTORS
330
88
102
}
330
88
100
AcDbXrecord
280
     1
290
     1
  0
SORTENTSTABLE
  5
10B
102
{ACAD_REACTORS
330
3
102
}
330
3
100
AcDbSortentsTable
330
2
  0
DIMASSOC
  5
92
102
{ACAD_REACTORS
330
91
102
}
330
91
100
AcDbDimAssoc
330
90
 90
        3
 70
     0
 71
     0
  1
AcDbOsnapPointRef
 72
     1
331
85
 73
     2
 91
        5
 40
1.570796326794896
 10
0.0
 20
0.0
 30
2.000000000000000E+50
 75
     0
  1
AcDbOsnapPointRef
 72
     1
331
85
 73
     2
 91
        2
 40
1.0
 10
0.0
 20
0.0
 30
2.000000000000000E+50
 75
     0
  0
DIMASSOC
  5
A3
102
{ACAD_REACTORS
330
A2
102
}
330
A2
100
AcDbDimAssoc
330
A1
 90
        3
 70
     0
 71
     0
  1
AcDbOsnapPointRef
 72
     1
331
85
 73
     2
 91
        8
 40
1.0
 10
0.0
 20
0.0
 30
2.000000000000000E+50
 75
     0
  1
AcDbOsnapPointRef
 72
     1
331
85
 73
     2
 91
        3
 40
6.283185307179586
 10
0.0
 20
0.0
 30
2.000000000000000E+50
 75
     0
  0
DIMASSOC
  5
B3
102
{ACAD_REACTORS
330
B2
102
}
330
B2
100
AcDbDimAssoc
330
B1
 90
        1
 70
     0
 71
     0
  1
AcDbOsnapPointRef
 72
     1
331
6B
 73
     2
 91
        5
 40
1.570796326794896
 10
0.0
 20
0.0
 30
2.000000000000000E+50
 75
     0
  0
DIMASSOC
  5
C3
102
{ACAD_REACTORS
330
C2
102
}
330
C2
100
AcDbDimAssoc
330
C1
 90
        1
 70
     0
 71
     0
  1
AcDbOsnapPointRef
 72
     1
331
6F
 73
     2
 91
        0
 40
0.9999999999999998
 10
0.0
 20
0.0
 30
2.000000000000000E+50
 75
     0
  0
DIMASSOC
  5
E1
102
{ACAD_REACTORS
330
E0
102
}
330
E0
100
AcDbDimAssoc
330
DF
 90
        3
 70
     0
 71
     0
  1
AcDbOsnapPointRef
 72
    13
331
83
 73
     2
 91
        0
 40
0.0
 10
0.0
 20
0.0
 30
2.000000000000000E+50
 75
     0
  1
AcDbOsnapPointRef
 72
    13
331
70
 73
     2
 91
        0
 40
0.0
 10
0.0
 20
0.0
 30
2.000000000000000E+50
 75
     0
  0
DIMASSOC
  5
F1
102
{ACAD_REACTORS
330
F0
102
}
330
F0
100
AcDbDimAssoc
330
EF
 90
        2
 70
     0
 71
     0
  1
AcDbOsnapPointRef
 72
     3
331
85
 73
     2
 91
        7
 40
0.0
 10
0.0
 20
0.0
 30
0.0
 75
     0
  0
DIMASSOC
  5
FD
102
{ACAD_REACTORS
330
FC
102
}
330
FC
100
AcDbDimAssoc
330
FB
 90
        3
 70
     0
 71
     0
  1
AcDbOsnapPointRef
 72
     1
331
84
 73
     2
 91
        0
 40
1.0
 10
0.0
 20
0.0
 30
2.000000000000000E+50
 75
     0
  1
AcDbOsnapPointRef
 72
    13
331
7D
 73
     2
 91
        0
 40
0.0
 10
0.0
 20
0.0
 30
2.000000000000000E+50
 75
     0
  0
LAYOUT
  5
10
102
{ACAD_XDICTIONARY
360
12
102
}
102
{ACAD_REACTORS
330
11
102
}
330
11
100
AcDbPlotSettings
  1

  2
none_device
  4
ISO_A4_(210.00_x_297.00_MM)
  6

 40
7.5
 41
20.0
 42
7.5
 43
20.0
 44
210.0
 45
297.0
 46
11.54999923706054
 47
-13.65000009536743
 48
0.0
 49
0.0
140
0.0
141
0.0
142
1.0
143
8.704084754739808
 70
 11952
 72
     1
 73
     0
 74
     0
  7

 75
     0
147
0.1148885871608098
 76
     0
 77
     2
 78
   300
148
0.0
149
0.0
100
AcDbLayout
  1
Model
 70
     1
 71
     0
 10
0.0
 20
0.0
 11
12.0
 21
9.0
 12
0.0
 22
0.0
 32
0.0
 14
0.0
 24
0.0
 34
0.0
 15
0.0
 25
0.0
 35
0.0
146
0.0
 13
0.0
 23
0.0
 33
0.0
 16
1.0
 26
0.0
 36
0.0
 17
0.0
 27
1.0
 37
0.0
 76
     0
330
2
331
28
1001
ACAD_PSEXT
1000
None
1000
None
1000
Not applicable
1000
The layout will not be plotted unless a new plotter configuration name is selected.
1070
     0
  0
LAYOUT
  5
17
102
{ACAD_XDICTIONARY
360
18
102
}
102
{ACAD_REACTORS
330
11
102
}
330
11
100
AcDbPlotSettings
  1

  2
none_device
  4
ISO_A4_(210.00_x_297.00_MM)
  6

 40
7.5
 41
20.0
 42
7.5
 43
20.0
 44
210.0
 45
297.0
 46
0.0
 47
0.0
 48
0.0
 49
0.0
140
0.0
141
0.0
142
1.0
143
1.0
 70
   688
 72
     1
 73
     1
 74
     5
  7

 75
    16
147
1.0
 76
     0
 77
     2
 78
   300
148
0.0
149
0.0
100
AcDbLayout
  1
布局1
 70
     1
 71
     1
 10
-20.0
 20
-7.5
 11
277.0
 21
202.5
 12
0.0
 22
0.0
 32
0.0
 14
25.69999999999999
 24
19.5
 34
0.0
 15
231.3
 25
175.5
 35
0.0
146
0.0
 13
0.0
 23
0.0
 33
0.0
 16
1.0
 26
0.0
 36
0.0
 17
0.0
 27
1.0
 37
0.0
 76
     0
330
14
1001
ACAD_PSEXT
1000
无
1000
无
1000
不可用
1000
在选择新的绘图仪配置名称之前，不能打印该布局。
1070
     0
  0
MATERIAL
  5
3B
102
{ACAD_REACTORS
330
D
102
}
330
D
100
AcDbMaterial
  1
ByBlock
 73
     1
 78
     1
172
     1
176
     1
270
     1
274
     1
 94
       63
  0
MATERIAL
  5
3A
102
{ACAD_REACTORS
330
D
102
}
330
D
100
AcDbMaterial
  1
ByLayer
 73
     1
 78
     1
172
     1
176
     1
270
     1
274
     1
 94
       63
  0
MATERIAL
  5
C
102
{ACAD_REACTORS
330
D
102
}
330
D
100
AcDbMaterial
  1
Global
 73
     1
 78
     1
172
     1
176
     1
270
     1
274
     1
 94
       63
  0
MLINESTYLE
  5
45
102
{ACAD_REACTORS
330
38
102
}
330
38
100
AcDbMlineStyle
  2
STANDARD
 70
     0
  3

 62
   256
 51
90.0
 52
90.0
 71
     2
 49
0.5
 62
   256
  6
BYLAYER
 49
-0.5
 62
   256
  6
BYLAYER
  0
ACDBPLACEHOLDER
  5
9
102
{ACAD_REACTORS
330
A
102
}
330
A
  0
SCALE
  5
4A
102
{ACAD_REACTORS
330
3D
102
}
330
3D
100
AcDbScale
 70
     0
300
1:1
140
1.0
141
1.0
290
     1
  0
SCALE
  5
4B
102
{ACAD_REACTORS
330
3D
102
}
330
3D
100
AcDbScale
 70
     0
300
1:2
140
1.0
141
2.0
290
     0
  0
SCALE
  5
4C
102
{ACAD_REACTORS
330
3D
102
}
330
3D
100
AcDbScale
 70
     0
300
1:4
140
1.0
141
4.0
290
     0
  0
SCALE
  5
4D
102
{ACAD_REACTORS
330
3D
102
}
330
3D
100
AcDbScale
 70
     0
300
1:5
140
1.0
141
5.0
290
     0
  0
SCALE
  5
4E
102
{ACAD_REACTORS
330
3D
102
}
330
3D
100
AcDbScale
 70
     0
300
1:8
140
1.0
141
8.0
290
     0
  0
SCALE
  5
4F
102
{ACAD_REACTORS
330
3D
102
}
330
3D
100
AcDbScale
 70
     0
300
1:10
140
1.0
141
10.0
290
     0
  0
SCALE
  5
50
102
{ACAD_REACTORS
330
3D
102
}
330
3D
100
AcDbScale
 70
     0
300
1:16
140
1.0
141
16.0
290
     0
  0
SCALE
  5
51
102
{ACAD_REACTORS
330
3D
102
}
330
3D
100
AcDbScale
 70
     0
300
1:20
140
1.0
141
20.0
290
     0
  0
SCALE
  5
52
102
{ACAD_REACTORS
330
3D
102
}
330
3D
100
AcDbScale
 70
     0
300
1:30
140
1.0
141
30.0
290
     0
  0
SCALE
  5
53
102
{ACAD_REACTORS
330
3D
102
}
330
3D
100
AcDbScale
 70
     0
300
1:40
140
1.0
141
40.0
290
     0
  0
SCALE
  5
54
102
{ACAD_REACTORS
330
3D
102
}
330
3D
100
AcDbScale
 70
     0
300
1:50
140
1.0
141
50.0
290
     0
  0
SCALE
  5
55
102
{ACAD_REACTORS
330
3D
102
}
330
3D
100
AcDbScale
 70
     0
300
1:100
140
1.0
141
100.0
290
     0
  0
SCALE
  5
56
102
{ACAD_REACTORS
330
3D
102
}
330
3D
100
AcDbScale
 70
     0
300
2:1
140
2.0
141
1.0
290
     0
  0
SCALE
  5
57
102
{ACAD_REACTORS
330
3D
102
}
330
3D
100
AcDbScale
 70
     0
300
4:1
140
4.0
141
1.0
290
     0
  0
SCALE
  5
58
102
{ACAD_REACTORS
330
3D
102
}
330
3D
100
AcDbScale
 70
     0
300
8:1
140
8.0
141
1.0
290
     0
  0
SCALE
  5
59
102
{ACAD_REACTORS
330
3D
102
}
330
3D
100
AcDbScale
 70
     0
300
10:1
140
10.0
141
1.0
290
     0
  0
SCALE
  5
5A
102
{ACAD_REACTORS
330
3D
102
}
330
3D
100
AcDbScale
 70
     0
300
100:1
140
100.0
141
1.0
290
     0
  0
SCALE
  5
5B
102
{ACAD_REACTORS
330
3D
102
}
330
3D
100
AcDbScale
 70
     0
300
1/128" = 1'-0"
140
0.0078125
141
12.0
290
     0
  0
SCALE
  5
5C
102
{ACAD_REACTORS
330
3D
102
}
330
3D
100
AcDbScale
 70
     0
300
1/64" = 1'-0"
140
0.015625
141
12.0
290
     0
  0
SCALE
  5
5D
102
{ACAD_REACTORS
330
3D
102
}
330
3D
100
AcDbScale
 70
     0
300
1/32" = 1'-0"
140
0.03125
141
12.0
290
     0
  0
SCALE
  5
5E
102
{ACAD_REACTORS
330
3D
102
}
330
3D
100
AcDbScale
 70
     0
300
1/16" = 1'-0"
140
0.0625
141
12.0
290
     0
  0
SCALE
  5
5F
102
{ACAD_REACTORS
330
3D
102
}
330
3D
100
AcDbScale
 70
     0
300
3/32" = 1'-0"
140
0.09375
141
12.0
290
     0
  0
SCALE
  5
60
102
{ACAD_REACTORS
330
3D
102
}
330
3D
100
AcDbScale
 70
     0
300
1/8" = 1'-0"
140
0.125
141
12.0
290
     0
  0
SCALE
  5
61
102
{ACAD_REACTORS
330
3D
102
}
330
3D
100
AcDbScale
 70
     0
300
3/16" = 1'-0"
140
0.1875
141
12.0
290
     0
  0
SCALE
  5
62
102
{ACAD_REACTORS
330
3D
102
}
330
3D
100
AcDbScale
 70
     0
300
1/4" = 1'-0"
140
0.25
141
12.0
290
     0
  0
SCALE
  5
63
102
{ACAD_REACTORS
330
3D
102
}
330
3D
100
AcDbScale
 70
     0
300
3/8" = 1'-0"
140
0.375
141
12.0
290
     0
  0
SCALE
  5
64
102
{ACAD_REACTORS
330
3D
102
}
330
3D
100
AcDbScale
 70
     0
300
1/2" = 1'-0"
140
0.5
141
12.0
290
     0
  0
SCALE
  5
65
102
{ACAD_REACTORS
330
3D
102
}
330
3D
100
AcDbScale
 70
     0
300
3/4" = 1'-0"
140
0.75
141
12.0
290
     0
  0
SCALE
  5
66
102
{ACAD_REACTORS
330
3D
102
}
330
3D
100
AcDbScale
 70
     0
300
1" = 1'-0"
140
1.0
141
12.0
290
     0
  0
SCALE
  5
67
102
{ACAD_REACTORS
330
3D
102
}
330
3D
100
AcDbScale
 70
     0
300
1-1/2" = 1'-0"
140
1.5
141
12.0
290
     0
  0
SCALE
  5
68
102
{ACAD_REACTORS
330
3D
102
}
330
3D
100
AcDbScale
 70
     0
300
3" = 1'-0"
140
3.0
141
12.0
290
     0
  0
SCALE
  5
69
102
{ACAD_REACTORS
330
3D
102
}
330
3D
100
AcDbScale
 70
     0
300
6" = 1'-0"
140
6.0
141
12.0
290
     0
  0
SCALE
  5
6A
102
{ACAD_REACTORS
330
3D
102
}
330
3D
100
AcDbScale
 70
     0
300
1'-0" = 1'-0"
140
12.0
141
12.0
290
     0
  0
TABLESTYLE
  5
46
102
{ACAD_XDICTIONARY
360
47
102
}
102
{ACAD_REACTORS
330
3E
102
}
330
3E
100
AcDbTableStyle
280
     0
  3
Standard
 70
     0
 71
     0
 40
1.5
 41
1.5
280
     0
281
     0
  7
Standard
140
4.5
170
     2
 62
     0
 63
     7
283
     0
 90
      512
 91
        0
  1

274
    -2
284
     1
 64
     0
275
    -2
285
     1
 65
     0
276
    -2
286
     1
 66
     0
277
    -2
287
     1
 67
     0
278
    -2
288
     1
 68
     0
279
    -2
289
     1
 69
     0
  7
Standard
140
6.0
170
     5
 62
     0
 63
     7
283
     0
 90
      512
 91
        0
  1

274
    -2
284
     1
 64
     0
275
    -2
285
     1
 65
     0
276
    -2
286
     1
 66
     0
277
    -2
287
     1
 67
     0
278
    -2
288
     1
 68
     0
279
    -2
289
     1
 69
     0
  7
Standard
140
4.5
170
     5
 62
     0
 63
     7
283
     0
 90
      512
 91
        0
  1

274
    -2
284
     1
 64
     0
275
    -2
285
     1
 65
     0
276
    -2
286
     1
 66
     0
277
    -2
287
     1
 67
     0
278
    -2
288
     1
 68
     0
279
    -2
289
     1
 69
     0
  0
VISUALSTYLE
  5
29
102
{ACAD_REACTORS
330
2A
102
}
330
2A
100
AcDbVisualStyle
  2
2dWireframe
 70
     4
177
     3
291
     0
 70
    58
 90
        0
176
     1
 90
        2
176
     1
 90
        1
176
     1
 90
        0
176
     1
 40
0.6
176
     1
 40
30.0
176
     1
 62
     7
420
 16777215
176
     1
 90
        1
176
     1
 90
        4
176
     1
 62
     7
176
     1
 62
   257
176
     1
 90
        1
176
     1
 90
        1
176
     1
 40
1.0
176
     1
 90
        0
176
     1
 62
   257
176
     1
 40
1.0
176
     1
 90
        1
176
     1
 90
        6
176
     1
 90
        2
176
     1
 62
     7
176
     1
 90
        5
176
     1
 90
        0
176
     1
 90
        0
176
     1
290
     0
176
     1
 90
        1
176
     1
 40
0.0
176
     1
 90
        0
176
     1
290
     1
176
     1
290
     1
176
     1
290
     0
176
     1
290
     0
176
     1
290
     0
176
     1
290
     0
176
     1
290
     0
176
     1
290
     0
176
     1
290
     0
176
     1
 90
       50
176
     1
 40
0.0
176
     1
 40
1.0
176
     1
 90
        0
176
     1
 62
    18
420
        0
176
     1
 90
       50
176
     1
 90
        3
176
     1
 62
     5
420
      255
176
     1
290
     0
176
     1
 90
       50
176
     1
 90
       50
176
     1
 90
       50
176
     1
290
     0
176
     1
 90
       50
176
     1
 62
   256
176
     0
 40
1.0
176
     0
 90
        2
176
     1
  1
strokes_ogs.tif
176
     1
290
     0
176
     1
 40
1.0
176
     1
 40
1.0
176
     1
  0
VISUALSTYLE
  5
49
102
{ACAD_REACTORS
330
2A
102
}
330
2A
100
AcDbVisualStyle
  2
3dWireframe
 70
     5
177
     3
291
     0
 70
    58
 90
        0
176
     1
 90
        2
176
     1
 90
        1
176
     1
 90
        0
176
     1
 40
0.6
176
     1
 40
30.0
176
     1
 62
     7
420
 16777215
176
     1
 90
        1
176
     1
 90
        4
176
     1
 62
     7
176
     1
 62
   257
176
     1
 90
        1
176
     1
 90
        1
176
     1
 40
1.0
176
     1
 90
        0
176
     1
 62
   257
176
     1
 40
1.0
176
     1
 90
        1
176
     1
 90
        6
176
     1
 90
        2
176
     1
 62
     7
176
     1
 90
        5
176
     1
 90
        0
176
     1
 90
        0
176
     1
290
     0
176
     1
 90
        1
176
     1
 40
0.0
176
     1
 90
        0
176
     1
290
     0
176
     1
290
     1
176
     1
290
     1
176
     1
290
     0
176
     1
290
     0
176
     1
290
     0
176
     1
290
     0
176
     1
290
     0
176
     1
290
     0
176
     1
 90
       50
176
     1
 40
0.0
176
     1
 40
1.0
176
     1
 90
        0
176
     1
 62
    18
420
        0
176
     1
 90
       50
176
     1
 90
        3
176
     1
 62
     5
420
      255
176
     1
290
     0
176
     1
 90
       50
176
     1
 90
       50
176
     1
 90
       50
176
     1
290
     0
176
     1
 90
       50
176
     1
 62
   256
176
     0
 40
1.0
176
     0
 90
        2
176
     1
  1
strokes_ogs.tif
176
     1
290
     0
176
     1
 40
1.0
176
     1
 40
1.0
176
     1
  0
VISUALSTYLE
  5
48
102
{ACAD_REACTORS
330
2A
102
}
330
2A
100
AcDbVisualStyle
  2
Realistic
 70
     8
177
     3
291
     0
 70
    58
 90
        2
176
     1
 90
        2
176
     1
 90
        1
176
     1
 90
        0
176
     1
 40
0.6
176
     1
 40
30.0
176
     1
 62
     7
420
 16777215
176
     1
 90
        1
176
     1
 90
        0
176
     1
 62
     7
176
     1
 62
   257
176
     1
 90
        1
176
     1
 90
        1
176
     1
 40
1.0
176
     1
 90
        8
176
     1
 62
     8
420
  7895160
176
     1
 40
1.0
176
     1
 90
        1
176
     1
 90
        6
176
     1
 90
        2
176
     1
 62
     7
176
     1
 90
        5
176
     1
 90
        0
176
     1
 90
        0
176
     1
290
     0
176
     1
 90
       13
176
     1
 40
0.0
176
     1
 90
        0
176
     1
290
     0
176
     1
290
     1
176
     1
290
     1
176
     1
290
     0
176
     1
290
     0
176
     1
290
     0
176
     1
290
     0
176
     1
290
     0
176
     1
290
     0
176
     1
 90
       50
176
     1
 40
0.0
176
     1
 40
1.0
176
     1
 90
        0
176
     1
 62
    18
420
        0
176
     1
 90
       50
176
     1
 90
        3
176
     1
 62
     5
420
      255
176
     1
290
     0
176
     1
 90
       50
176
     1
 90
       50
176
     1
 90
       50
176
     1
290
     0
176
     1
 90
       50
176
     1
 62
   256
176
     0
 40
1.0
176
     0
 90
        2
176
     1
  1
strokes_ogs.tif
176
     1
290
     0
176
     1
 40
1.0
176
     1
 40
1.0
176
     1
  0
DICTIONARYVAR
  5
113
102
{ACAD_REACTORS
330
10D
102
}
330
10D
100
DictionaryVariables
280
     0
  1
1:1
  0
DICTIONARYVAR
  5
10F
102
{ACAD_REACTORS
330
10D
102
}
330
10D
100
DictionaryVariables
280
     0
  1
STANDARD
  0
DICTIONARYVAR
  5
10E
102
{ACAD_REACTORS
330
10D
102
}
330
10D
100
DictionaryVariables
280
     0
  1
STANDARD
  0
DICTIONARYVAR
  5
110
102
{ACAD_REACTORS
330
10D
102
}
330
10D
100
DictionaryVariables
280
     0
  1

  0
DICTIONARYVAR
  5
111
102
{ACAD_REACTORS
330
10D
102
}
330
10D
100
DictionaryVariables
280
     0
  1

  0
DICTIONARYVAR
  5
115
102
{ACAD_REACTORS
330
10D
102
}
330
10D
100
DictionaryVariables
280
     0
  1
1
  0
DICTIONARYVAR
  5
116
102
{ACAD_REACTORS
330
10D
102
}
330
10D
100
DictionaryVariables
280
     0
  1
15
  0
DICTIONARYVAR
  5
114
102
{ACAD_REACTORS
330
10D
102
}
330
10D
100
DictionaryVariables
280
     0
  1
0
  0
DICTIONARYVAR
  5
112
102
{ACAD_REACTORS
330
10D
102
}
330
10D
100
DictionaryVariables
280
     0
  1
0
  0
DICTIONARY
  5
12
330
10
100
AcDbDictionary
280
     1
281
     1
  0
DICTIONARY
  5
18
330
17
100
AcDbDictionary
280
     1
281
     1
  0
DICTIONARY
  5
47
330
46
100
AcDbDictionary
280
     1
281
     1
  3
ACAD_ROUNDTRIP_2008_TABLESTYLE_CELLSTYLEMAP
360
117
  0
CELLSTYLEMAP
  5
117
102
{ACAD_REACTORS
330
47
102
}
330
47
100
AcDbCellStyleMap
 90
        3
300
CELLSTYLE
  1
TABLEFORMAT_BEGIN
 90
        5
170
     1
 91
        0
 92
    32768
 62
   257
 93
        1
300
CONTENTFORMAT
  1
CONTENTFORMAT_BEGIN
 90
        0
 91
        0
 92
      512
 93
        0
300

 40
0.0
140
1.0
 94
        5
 62
     0
340
20
144
6.0
309
CONTENTFORMAT_END
171
     1
301
MARGIN
  1
CELLMARGIN_BEGIN
 40
1.5
 40
1.5
 40
1.5
 40
1.5
 40
0.18
 40
0.18
309
CELLMARGIN_END
 94
        6
 95
        1
302
GRIDFORMAT
  1
GRIDFORMAT_BEGIN
 90
        0
 91
        1
 62
     0
 92
       -2
340
0
 93
        0
 40
0.045
309
GRIDFORMAT_END
 95
        2
302
GRIDFORMAT
  1
GRIDFORMAT_BEGIN
 90
        0
 91
        1
 62
     0
 92
       -2
340
0
 93
        0
 40
0.045
309
GRIDFORMAT_END
 95
        4
302
GRIDFORMAT
  1
GRIDFORMAT_BEGIN
 90
        0
 91
        1
 62
     0
 92
       -2
340
0
 93
        0
 40
0.045
309
GRIDFORMAT_END
 95
        8
302
GRIDFORMAT
  1
GRIDFORMAT_BEGIN
 90
        0
 91
        1
 62
     0
 92
       -2
340
0
 93
        0
 40
0.045
309
GRIDFORMAT_END
 95
       16
302
GRIDFORMAT
  1
GRIDFORMAT_BEGIN
 90
        0
 91
        1
 62
     0
 92
       -2
340
0
 93
        0
 40
0.045
309
GRIDFORMAT_END
 95
       32
302
GRIDFORMAT
  1
GRIDFORMAT_BEGIN
 90
        0
 91
        1
 62
     0
 92
       -2
340
0
 93
        0
 40
0.045
309
GRIDFORMAT_END
309
TABLEFORMAT_END
  1
CELLSTYLE_BEGIN
 90
        1
 91
        1
300
_TITLE
309
CELLSTYLE_END
300
CELLSTYLE
  1
TABLEFORMAT_BEGIN
 90
        5
170
     1
 91
        0
 92
        0
 62
   257
 93
        1
300
CONTENTFORMAT
  1
CONTENTFORMAT_BEGIN
 90
        0
 91
        0
 92
      512
 93
        0
300

 40
0.0
140
1.0
 94
        5
 62
     0
340
20
144
4.5
309
CONTENTFORMAT_END
171
     1
301
MARGIN
  1
CELLMARGIN_BEGIN
 40
1.5
 40
1.5
 40
1.5
 40
1.5
 40
0.18
 40
0.18
309
CELLMARGIN_END
 94
        6
 95
        1
302
GRIDFORMAT
  1
GRIDFORMAT_BEGIN
 90
        0
 91
        1
 62
     0
 92
       -2
340
0
 93
        0
 40
0.045
309
GRIDFORMAT_END
 95
        2
302
GRIDFORMAT
  1
GRIDFORMAT_BEGIN
 90
        0
 91
        1
 62
     0
 92
       -2
340
0
 93
        0
 40
0.045
309
GRIDFORMAT_END
 95
        4
302
GRIDFORMAT
  1
GRIDFORMAT_BEGIN
 90
        0
 91
        1
 62
     0
 92
       -2
340
0
 93
        0
 40
0.045
309
GRIDFORMAT_END
 95
        8
302
GRIDFORMAT
  1
GRIDFORMAT_BEGIN
 90
        0
 91
        1
 62
     0
 92
       -2
340
0
 93
        0
 40
0.045
309
GRIDFORMAT_END
 95
       16
302
GRIDFORMAT
  1
GRIDFORMAT_BEGIN
 90
        0
 91
        1
 62
     0
 92
       -2
340
0
 93
        0
 40
0.045
309
GRIDFORMAT_END
 95
       32
302
GRIDFORMAT
  1
GRIDFORMAT_BEGIN
 90
        0
 91
        1
 62
     0
 92
       -2
340
0
 93
        0
 40
0.045
309
GRIDFORMAT_END
309
TABLEFORMAT_END
  1
CELLSTYLE_BEGIN
 90
        2
 91
        1
300
_HEADER
309
CELLSTYLE_END
300
CELLSTYLE
  1
TABLEFORMAT_BEGIN
 90
        5
170
     1
 91
        0
 92
        0
 62
   257
 93
        1
300
CONTENTFORMAT
  1
CONTENTFORMAT_BEGIN
 90
        0
 91
        0
 92
      512
 93
        0
300

 40
0.0
140
1.0
 94
        2
 62
     0
340
20
144
4.5
309
CONTENTFORMAT_END
171
     1
301
MARGIN
  1
CELLMARGIN_BEGIN
 40
1.5
 40
1.5
 40
1.5
 40
1.5
 40
0.18
 40
0.18
309
CELLMARGIN_END
 94
        6
 95
        1
302
GRIDFORMAT
  1
GRIDFORMAT_BEGIN
 90
        0
 91
        1
 62
     0
 92
       -2
340
0
 93
        0
 40
0.045
309
GRIDFORMAT_END
 95
        2
302
GRIDFORMAT
  1
GRIDFORMAT_BEGIN
 90
        0
 91
        1
 62
     0
 92
       -2
340
0
 93
        0
 40
0.045
309
GRIDFORMAT_END
 95
        4
302
GRIDFORMAT
  1
GRIDFORMAT_BEGIN
 90
        0
 91
        1
 62
     0
 92
       -2
340
0
 93
        0
 40
0.045
309
GRIDFORMAT_END
 95
        8
302
GRIDFORMAT
  1
GRIDFORMAT_BEGIN
 90
        0
 91
        1
 62
     0
 92
       -2
340
0
 93
        0
 40
0.045
309
GRIDFORMAT_END
 95
       16
302
GRIDFORMAT
  1
GRIDFORMAT_BEGIN
 90
        0
 91
        1
 62
     0
 92
       -2
340
0
 93
        0
 40
0.045
309
GRIDFORMAT_END
 95
       32
302
GRIDFORMAT
  1
GRIDFORMAT_BEGIN
 90
        0
 91
        1
 62
     0
 92
       -2
340
0
 93
        0
 40
0.045
309
GRIDFORMAT_END
309
TABLEFORMAT_END
  1
CELLSTYLE_BEGIN
 90
        3
 91
        2
300
_DATA
309
CELLSTYLE_END
  0
ENDSEC
  0
SECTION
  2
ACDSDATA
 70
     2
 71
     6
  0
ACDSSCHEMA
 90
        0
  1
AcDb_Thumbnail_Schema
  2
AcDbDs::ID
280
    10
 91
        8
  2
Thumbnail_Data
280
    15
 91
        0
101
ACDSRECORD
 95
        0
 90
        1
  2
AcDbDs::TreatedAsObjectData
280
     1
291
     1
101
ACDSRECORD
 95
        0
 90
        2
  2
AcDbDs::Legacy
280
     1
291
     1
101
ACDSRECORD
  1
AcDbDs::ID
 90
        3
  2
AcDs:Indexable
280
     1
291
     1
101
ACDSRECORD
  1
AcDbDs::ID
 90
        4
  2
AcDbDs::HandleAttribute
280
     7
282
     1
  0
ACDSSCHEMA
 90
        1
  1
AcDbDs::TreatedAsObjectDataSchema
  2
AcDbDs::TreatedAsObjectData
280
     1
 91
        0
  0
ACDSSCHEMA
 90
        2
  1
AcDbDs::LegacySchema
  2
AcDbDs::Legacy
280
     1
 91
        0
  0
ACDSSCHEMA
 90
        3
  1
AcDbDs::IndexedPropertySchema
  2
AcDs:Indexable
280
     1
 91
        0
  0
ACDSSCHEMA
 90
        4
  1
AcDbDs::HandleAttributeSchema
  2
AcDbDs::HandleAttribute
280
     7
 91
        1
284
     1
  0
ACDSRECORD
 90
        0
  2
AcDbDs::ID
280
    10
320
10
  2
Thumbnail_Data
280
    15
 94
     2381
310
89504E470D0A1A0A0000000D49484452000001000000005E0803000000FB5F3A6700000300504C5445212830000000C8C8C80000000000000000000000000000000000000000000000000000330000660000990000CC0000FF0033000033330033660033990033CC0033FF0066000066330066660066990066CC0066FF0099
310
000099330099660099990099CC0099FF00CC0000CC3300CC6600CC9900CCCC00CCFF00FF0000FF3300FF6600FF9900FFCC00FFFF3300003300333300663300993300CC3300FF3333003333333333663333993333CC3333FF3366003366333366663366993366CC3366FF3399003399333399663399993399CC3399FF33CC00
310
33CC3333CC6633CC9933CCCC33CCFF33FF0033FF3333FF6633FF9933FFCC33FFFF6600006600336600666600996600CC6600FF6633006633336633666633996633CC6633FF6666006666336666666666996666CC6666FF6699006699336699666699996699CC6699FF66CC0066CC3366CC6666CC9966CCCC66CCFF66FF0066
310
FF3366FF6666FF9966FFCC66FFFF9900009900339900669900999900CC9900FF9933009933339933669933999933CC9933FF9966009966339966669966999966CC9966FF9999009999339999669999999999CC9999FF99CC0099CC3399CC6699CC9999CCCC99CCFF99FF0099FF3399FF6699FF9999FFCC99FFFFCC0000CC00
310
33CC0066CC0099CC00CCCC00FFCC3300CC3333CC3366CC3399CC33CCCC33FFCC6600CC6633CC6666CC6699CC66CCCC66FFCC9900CC9933CC9966CC9999CC99CCCC99FFCCCC00CCCC33CCCC66CCCC99CCCCCCCCCCFFCCFF00CCFF33CCFF66CCFF99CCFFCCCCFFFFFF0000FF0033FF0066FF0099FF00CCFF00FFFF3300FF3333
310
FF3366FF3399FF33CCFF33FFFF6600FF6633FF6666FF6699FF66CCFF66FFFF9900FF9933FF9966FF9999FF99CCFF99FFFFCC00FFCC33FFCC66FFCC99FFCCCCFFCCFFFFFF00FFFF33FFFF66FFFF99FFFFCCFFFFFF0000000D0D0D1A1A1A2828283535354343435050505D5D5D6B6B6B787878868686939393A1A1A1AEAEAEBB
310
BBBBC9C9C9D6D6D6E4E4E4F1F1F1FFFFFF000000000000000000000000000000000000000000000000000000000000B21171F6000004344944415478DAED9C6D96AB300840D941F7BF99AC24DBE0FFABE68B04D0448DCF8E303375AA3D925C81041A05B8523E77C8B50AE1F582187EBF2FEB6B90FCEF148D51011075304D5D
310
549A1542A38EB683094C05506B9A0A80132700366552FF59E76F0120F3DEBCFE78930164FB9CD57F1411703C407D727D9DE48DCB168AF7A7503435D001107B9BA9CEC4C4C4C4E467E461B9C9EF25439F3CD07E7FEEC8AD3E656E03F88064EE43A7933703C0770380970380075A00BCD705A4377F45A10178378018DD7C2DEF
310
0040EB273F07C0F19293738EF56BABE0C38FC73D1E7E0180E31D0257C6CF6E00B9905476CC00906D6BBF2ED8A7F0DBDB964102B01CC8073701340693F6CE06B083A01F806201B832580FEF58406A1C1250DF7050F5FF3200A531B58F3621475628B82BA82E80A50CBC6701E4A2E06C00A4034DFFA10F000C00585E5D8C08DE
310
E3B605349B7900F2B774C4FA98C79D0010FD3E9CFBFB061300CFACAC8A01F529C70014CFEE0190C36D89D43003C01A0489261F7C5004405B1E778CCC03826B2F9DD80E6D3E03004CCD4F3EDA0580C5B32D17584860D2F20D71A85B00B6A7181C057C24E899676B00D275C9CEC0DA761E4031E70C410180FC1CA3007C061075
310
AC1ED15A5C0640FF7000C0E82850FA133E2B034079E79805ACA7F651458C37089A0594BFB4E9022038BCB4CBB10B1BB4AA2EA0E502D8D99ED0D7002C5DFF187A4500D430CF0250730174D880D200F86AB69C48E0C0C46C05107AEDEB537B711824869958F44D84C490CF241DA9A86C0190040F0060817C0440D72830221144
310
DAE800BC2CC70040070014C20F1E05A0BB00370B0540D65B4D943C1C00C086530E00B3C70547A3D1078F24436A3ADC0FE082F4DCCBC906078039E76800F8A3D9A0D3B241C5D9EF05C00D49F3B81300A01B009C21B03315D600F88321A7BF1EA0BA80B0364BCD08E5897B7F7BB0326CE2D7B8531BB9A020A203D8F99C949537
310
193AF6B7C7EF23BCC0E4BAA6C26914403A20F65484F8DE819258A75D771BDCE974D85100EE0880396571AF1A1C5E05407201E71E04406C3E76BB40378020642AFC04005E07D0E50203F5806EF9AF007010000B827A3A3C0040FF6EEC69004672818300D442FD240065A27210806B4D61B0FBD74C84C6BE17209587B01127C3
310
67EB0157CB45A30092EF60EAA9AA9FA3F069001EACD00018000360000C8001300006E0AF02B05B665E2F37DE38BE7BAFFAACDBA737751900036000DE0DC0C4C4C4C4E4C562C9D025D9E9EBEF1D360006C000D8F303C08AA206C0003C50A13B79FC470138B7B34826AF9B3ABB82E6A90052271D3204F5C2B1836BC81E0F2095
310
BC1CB9E261A5203AF240596212F1F9128E2DAEDB66F3640B685D3C01C80F4FA86E54CA00A0F6949D0576A70110D01702400940582C8BCB7AE9B0B658B400BA4C73FDE0D500829195FBF8BA0C6D5BE1C6FD02228075B134C800201C2C0FA29D00A03426BC5D35F62EE51D5C2DAE0048F727C33F323B074F33FFA15C00000000
310
49454E44AE426082B196ED290D8846BF179BDF1D29EBCD3C180A27F1BA1A80154579E276B8EAF596EE06EF6C40FB5E205563C0681CF01C80E881FDC39F1F8848AF43FFE440846F487BD501E744E80038000E80B7033815227DDF3F9550DFAA2DF8611A7F76DC03E0ED004E7B533B05128BCEFCD4071C00A740E2DC0B3C0400
310
078F84E601840CFD777CD499A93C5A21122F5B3B835C06C067815FF7F9494C44A80320FDCC3E65FC430010F2071600FA643C1766EC02000F209608844F72C5ECD807C427F5D3E92917ABF09BC7016048F152438B5AC7E2F1B2BE1A2524B21701F8B12D4EF7ABFBF020C50471CC5AD7004410A154812A67CA1D009EB42F7099
310
01102FABFEF1C69300500188C7F03D00D43A542F3E3D9EAA286295032D03085B601B0020FF179900003500BC07E02B0AF0C70010AB00366C4002E03F3D7A1120592200BCAE588CAA6A35D8600C68000800AA326BC408922A5DA27896FF8017602F68BF821708E6D1DAAB0A00C8DD535594010D805B0DD05E40F06B8505ABFF
310
4849959FA4AA05E1055A006E4A153EADA307001CF002D25B8967CF02E80A855562B56295F14088B350ED50AA1F09D2B39120FB311909DE0120B949D623C139005E276F23D00722C1B2FD0728B3B154C7A5048D0000000049454E44AE426082
  0
ACDSRECORD
 90
        0
  2
AcDbDs::ID
280
    10
320
17
  2
Thumbnail_Data
280
    15
 94
     1943
310
89504E470D0A1A0A0000000D49484452000000B80000007F08030000006B00F8F900000300504C5445FFFFFF000000FFFFFF0000000000000000000000000000000000000000000000000000330000660000990000CC0000FF0033000033330033660033990033CC0033FF0066000066330066660066990066CC0066FF0099
310
000099330099660099990099CC0099FF00CC0000CC3300CC6600CC9900CCCC00CCFF00FF0000FF3300FF6600FF9900FFCC00FFFF3300003300333300663300993300CC3300FF3333003333333333663333993333CC3333FF3366003366333366663366993366CC3366FF3399003399333399663399993399CC3399FF33CC00
310
33CC3333CC6633CC9933CCCC33CCFF33FF0033FF3333FF6633FF9933FFCC33FFFF6600006600336600666600996600CC6600FF6633006633336633666633996633CC6633FF6666006666336666666666996666CC6666FF6699006699336699666699996699CC6699FF66CC0066CC3366CC6666CC9966CCCC66CCFF66FF0066
310
FF3366FF6666FF9966FFCC66FFFF9900009900339900669900999900CC9900FF9933009933339933669933999933CC9933FF9966009966339966669966999966CC9966FF9999009999339999669999999999CC9999FF99CC0099CC3399CC6699CC9999CCCC99CCFF99FF0099FF3399FF6699FF9999FFCC99FFFFCC0000CC00
310
33CC0066CC0099CC00CCCC00FFCC3300CC3333CC3366CC3399CC33CCCC33FFCC6600CC6633CC6666CC6699CC66CCCC66FFCC9900CC9933CC9966CC9999CC99CCCC99FFCCCC00CCCC33CCCC66CCCC99CCCCCCCCCCFFCCFF00CCFF33CCFF66CCFF99CCFFCCCCFFFFFF0000FF0033FF0066FF0099FF00CCFF00FFFF3300FF3333
310
FF3366FF3399FF33CCFF33FFFF6600FF6633FF6666FF6699FF66CCFF66FFFF9900FF9933FF9966FF9999FF99CCFF99FFFFCC00FFCC33FFCC66FFCC99FFCCCCFFCCFFFFFF00FFFF33FFFF66FFFF99FFFFCCFFFFFF0000000D0D0D1A1A1A2828283535354343435050505D5D5D6B6B6B787878868686939393A1A1A1AEAEAEBB
310
BBBBC9C9C9D6D6D6E4E4E4F1F1F1FFFFFF000000000000000000000000000000000000000000000000000000000000790CAC0F000004524944415478DAED9C5B92E3200C457B03296DC3FB5F801673FF7A01FE1F03120870E2C476067B46547742223F0E422F70557E30DFAEE127340777F01DE0D0D67FB329998F48DEB8CD
310
6BF00B6BD9C11DDCC11DFC2F827BE674F0FF0D1C03DB31F06B441107BF1E38AE0B0E0777700777700777700777F017470344F7D4F8427E4F70BA32F8FE7A1C331E783CEEB09000D82C0C69017F00B70067669415757C7FDC0E9C22F8E31E1ADFD843F0C5F279E0D12D97170AFFF1134BA324E4F4B27CE2245B5E108F260AA7
310
8C0347200978020E0154F0481EC09380C24029B591E02117051A8E1A8F5A8D2A65FD1407B5BC0938A21F07DE059CBF028EF74D25AA51512366D2384B37998A50733A7289F6BBC1712278C281804350A59B3F41A640344E34103C6917195C5B724716764E1ACFF331BE1E57D4A4D50C9E2C1E6520622A024E9F45D9AF2C2432
310
99D8B8D8B4A012178D4B1894195A44F1148CD3B844BCA871FC26EB50E7D481A461B0E81C31A0F058E7FC65D65092C025EB041B9F72CED1381E2A996446F360F01C9D610260F994C849C0A72906F8B47E1AADF11CF08A03E65CC91A56248FE626E043C361059EBB098E21F1A68A2AA04F97DA5F0297C229C771709F39D539A3
310
3064CDF1FB2A14DC2DFC49CA11238E1A5F64596C8EBC88C6818F33E11576B2A434F12DB8A1FB2ABEE63C177C9AB45364B9BB261C0F3EED019FB687504E9ABE028E6A87D944402E256E125AD9D41E34B5DF404B16E97077E1A3E069FD55DF25769545C16571660F2B747969CF65CF9A6C07FDD00E8287CBE64283CAE63E7306
310
4F5054C0739AE49AAE9928A31A7DD323F83078BABE5ED53C95985445508D970D13D98BB0F68056E38C6A324A49B00F1C7D39654DC5541CD96896D42F1A2FE07AFC1B1A97D3D4E09E837F98391B533170DAD3C1982DD04C513055E36A6C6826B19993E3E05C598175CE1EDCCC06D3BA618411C8A5A8BAE4B6A9EC02CFCE9627
310
543625D69D93559D9D6198A88297CED9D7707BC0B37AD9C0C982271B74B9756F2A2BCE59AC4FC06B8DCB3383A31ACF536F6D1CB55B113F3795F9453894B8D5D838D1291A2FA6626C5C2759BEB3326C6B5CE747C6DB829F632A26031A1B6F7465ED1F5D1CD76DAF671AA7169CCE01A795A802420DCE2DB80DF6B245DED72A12
310
0E8B734E279A8AE4982A0141328FDED280E7606D071CB7548AC689AAA8424D02024E76CE5248E94EB79A4F1D2A3B8DD393EA50AF124DC9809FEB9C553D4273F5DDA2A3E97991A57B0205BCD5B88027C1D9CE694C25F74AE62C95E976386C8BACF8F80B79B0A7D978EF9C2BB9B0C8A80D874017C7A90A87F149184ECF9CDCDA
310
C00AB89575AB9915F0B5871CFB13D0FC1ADCDC8DDAC95F5DD6992AF33538911638672D24DE867B094EB4A5F1B8857A3DF04D51798E7833F066957F5BF0D9C11DDCC13FCA9C23C1E1E0D706BFCE13090777700777700777700777F0CDB30782CF0E7E6DF0BBFE68C6459B833BF86E70FF9D2C0777700777F0BA36795EAD3C95
310
CC4724477F8CD433A783FF93E0376C81FB0FE8D566DAC99D001A0000000049454E44AE426082
  0
ENDSEC
  0
EOF
